(Score) Невезучие / Pure Luck (by Jonathan Sheffer & Danny Elfman) - 1991, FLAC (tracks+.cue), lossless


Статистика раздачи [Обновить пиров]
Размер:  162 MB   |    Зарегистрирован:  1 год 1 месяц   |    Скачан:  0 раз

Полного источника не было: Никогда

Личеров:  7  [  0 KB/s  ]   Подробная статистика пиров
 
   
 
 
 

[Цитировать]

Невезучие / Pure Luck-Жанр: Score
Композиторы: Jonathan Sheffer, Danny Elfman
Год выпуска диска: 1991
Производитель диска: P&O, Germany
Издатель (лейбл): Varèse Sarabande
Номер по каталогу: VSD (CVS) 5330-Аудиокодек: FLAC (*.flac)
Тип рипа: tracks+.cue
Битрейт аудио: lossless
Продолжительность: 00:30:14
Источник: собственный рип
Наличие сканов в содержимом раздачи: да, 600 dpi-Ссылки: Кинопоиск | IMDB | Wikipedia | SoundtrackCollector
MP3: (Score) Невезучие / Pure Luck (by Jonathan Sheffer & Danny Elfman) - 1991, MP3 (tracks) 320 kbps
01. Danny Elfman / Main Title [0:02:30.50]
02. Jonathan Sheffer & Danny Elfman / Valerie's Vacation [0:02:09.65]
03. Jonathan Sheffer & Danny Elfman / Kidnapped [0:02:11.28]
04. Meet Eugene Proctor [0:01:33.67]
05. Jonathan Sheffer & Danny Elfman / At The Airport [0:03:04.43]
06. Jonathan Sheffer & Danny Elfman / In Mexico [0:01:08.00]
07. From Segoura To Fernando [0:01:44.40]
08. Proctor Crawls Home [0:01:20.30]
09. Roadtrip To Quicksand [0:05:01.07]
10. As The Bee Flies [0:04:35.10]
11. Getting Close [0:03:37.23]
12. Danny Elfman / We Found Her [0:01:17.10]

Лог создания рипа

Exact Audio Copy V1.1 from 23. June 2015
EAC extraction logfile from 22. August 2015, 20:47
Jonathan Sheffer / Pure Luck
Used drive : PLEXTOR CD-R PX-230A Adapter: 1 ID: 3
Read mode : SecureUtilize accurate stream : YesDefeat audio cache : YesMake use of C2 pointers : No
Read offset correction : 738Overread into Lead-In and Lead-Out : NoFill up missing offset samples with silence : YesDelete leading and trailing silent blocks : NoNull samples used in CRC calculations : YesUsed interface : Native Win32 interface for Win NT & 2000Gap handling : Appended to previous track
Used output format : User Defined EncoderSelected bitrate : 1024 kBit/sQuality : HighAdd ID3 tag : NoCommand line compressor : C:\Program Files (x86)\Exact Audio Copy\FLAC\FLAC.EXEAdditional command line options : -6 -V -T "ARTIST=%artist%" -T "TITLE=%title%" -T "ALBUM=%albumtitle%" -T "DATE=%year%"-T "TRACKNUMBER=%tracknr%" -T "GENRE=%genre%" -T "COMMENT=%comment%" -T "ALBUMARTIST=%albuminterpret%" -T "COMPOSER=%composer%"-T "DISCNUMBER=%cdnumber%" -T "TOTALDISCS=%totalcds%" -T "TOTALTRACKS=%numtracks%" %source% -o %dest%
TOC of the extracted CD
Track | Start | Length | Start sector | End sector --------------------------------------------------------- 1 | 0:00.00 | 2:30.50 | 0 | 11299 2 | 2:30.50 | 2:09.65 | 11300 | 21039 3 | 4:40.40 | 2:11.28 | 21040 | 30892 4 | 6:51.68 | 1:33.67 | 30893 | 37934 5 | 8:25.60 | 3:04.43 | 37935 | 51777 6 | 11:30.28 | 1:08.00 | 51778 | 56877 7 | 12:38.28 | 1:44.40 | 56878 | 64717 8 | 14:22.68 | 1:20.30 | 64718 | 70747 9 | 15:43.23 | 5:01.07 | 70748 | 93329 10 | 20:44.30 | 4:35.10 | 93330 | 113964 11 | 25:19.40 | 3:37.23 | 113965 | 130262 12 | 28:56.63 | 1:17.10 | 130263 | 136047
Track 1
Filename C:\Music\01 - Danny Elfman - Main Title.wav
Pre-gap length 0:00:02.00
Peak level 62.0 % Extraction speed 4.8 X Track quality 100.0 % Test CRC 769D66F1 Copy CRC 769D66F1 Accurately ripped (confidence 2) [EAA9CE69] (AR v2) Copy OK
Track 2
Filename C:\Music\02 - Jonathan Sheffer & Danny Elfman - Valerie's Vacation.wav
Peak level 41.6 % Extraction speed 4.9 X Track quality 100.0 % Test CRC 4DA3F5EE Copy CRC 4DA3F5EE Accurately ripped (confidence 2) [CDF62CC1] (AR v2) Copy OK
Track 3
Filename C:\Music\03 - Jonathan Sheffer & Danny Elfman - Kidnapped.wav
Peak level 58.7 % Extraction speed 4.9 X Track quality 100.0 % Test CRC 9986E770 Copy CRC 9986E770 Accurately ripped (confidence 2) [626DDAFD] (AR v2) Copy OK
Track 4
Filename C:\Music\04 - Jonathan Sheffer - Meet Eugene Proctor.wav
Peak level 79.3 % Extraction speed 4.5 X Track quality 100.0 % Test CRC DE27C6A0 Copy CRC DE27C6A0 Accurately ripped (confidence 2) [E145B70A] (AR v2) Copy OK
Track 5
Filename C:\Music\05 - Jonathan Sheffer & Danny Elfman - At The Airport.wav
Peak level 54.9 % Extraction speed 4.5 X Track quality 99.9 % Test CRC 77258F59 Copy CRC 77258F59 Accurately ripped (confidence 2) [E8AA1CFD] (AR v2) Copy OK
Track 6
Filename C:\Music\06 - Jonathan Sheffer & Danny Elfman - In Mexico.wav
Peak level 48.4 % Extraction speed 4.0 X Track quality 100.0 % Test CRC 3E729A42 Copy CRC 3E729A42 Accurately ripped (confidence 2) [7B18041E] (AR v2) Copy OK
Track 7
Filename C:\Music\07 - Jonathan Sheffer - From Segoura To Fernando.wav
Peak level 28.6 % Extraction speed 4.6 X Track quality 100.0 % Test CRC BA66232C Copy CRC BA66232C Accurately ripped (confidence 2) [9F66090F] (AR v2) Copy OK
Track 8
Filename C:\Music\08 - Jonathan Sheffer - Proctor Crawls Home.wav
Peak level 22.1 % Extraction speed 4.2 X Track quality 100.0 % Test CRC 88C6F36B Copy CRC 88C6F36B Accurately ripped (confidence 2) [0FF43D52] (AR v2) Copy OK
Track 9
Filename C:\Music\09 - Jonathan Sheffer - Roadtrip To Quicksand.wav
Peak level 51.2 % Extraction speed 5.0 X Track quality 99.9 % Test CRC 5D98B5C1 Copy CRC 5D98B5C1 Accurately ripped (confidence 2) [B31E6E6C] (AR v2) Copy OK
Track 10
Filename C:\Music\10 - Jonathan Sheffer - As The Bee Flies.wav
Peak level 73.2 % Extraction speed 5.5 X Track quality 100.0 % Test CRC 2AC1EF3C Copy CRC 2AC1EF3C Accurately ripped (confidence 2) [30D68BAC] (AR v2) Copy OK
Track 11
Filename C:\Music\11 - Jonathan Sheffer - Getting Close.wav
Peak level 31.7 % Extraction speed 5.3 X Track quality 100.0 % Test CRC 25F4D722 Copy CRC 25F4D722 Accurately ripped (confidence 2) [2C9FAAF9] (AR v2) Copy OK
Track 12
Filename C:\Music\12 - Danny Elfman - We Found Her.wav
Peak level 46.2 % Extraction speed 3.9 X Track quality 100.0 % Test CRC 157CE7E0 Copy CRC 157CE7E0 Accurately ripped (confidence 2) [2CCD12BD] (AR v2) Copy OK
All tracks accurately ripped
No errors occurred
End of status report
==== Log checksum 33A416B8543E16B3255837D54BCA2993241D6D3170B2A4EBF5F716AC78A8DAB5 ====

Содержание индексной карты (.CUE)

REM GENRE SoundtrackREM DATE 1991REM DISCID 9507150CREM COMMENT "ExactAudioCopy v1.1"PERFORMER "Jonathan Sheffer"TITLE "Pure Luck"FILE "01 - Danny Elfman - Main Title.wav" WAVE TRACK 01 AUDIO TITLE "Main Title" PERFORMER "Danny Elfman" INDEX 01 00:00:00FILE "02 - Jonathan Sheffer & Danny Elfman - Valerie's Vacation.wav" WAVE TRACK 02 AUDIO TITLE "Valerie's Vacation" PERFORMER "Jonathan Sheffer & Danny Elfman" INDEX 01 00:00:00FILE "03 - Jonathan Sheffer & Danny Elfman - Kidnapped.wav" WAVE TRACK 03 AUDIO TITLE "Kidnapped" PERFORMER "Jonathan Sheffer & Danny Elfman" INDEX 01 00:00:00FILE "04 - Jonathan Sheffer - Meet Eugene Proctor.wav" WAVE TRACK 04 AUDIO TITLE "Meet Eugene Proctor" PERFORMER "Jonathan Sheffer" INDEX 01 00:00:00FILE "05 - Jonathan Sheffer & Danny Elfman - At The Airport.wav" WAVE TRACK 05 AUDIO TITLE "At The Airport" PERFORMER "Jonathan Sheffer & Danny Elfman" INDEX 01 00:00:00FILE "06 - Jonathan Sheffer & Danny Elfman - In Mexico.wav" WAVE TRACK 06 AUDIO TITLE "In Mexico" PERFORMER "Jonathan Sheffer & Danny Elfman" INDEX 01 00:00:00FILE "07 - Jonathan Sheffer - From Segoura To Fernando.wav" WAVE TRACK 07 AUDIO TITLE "From Segoura To Fernando" PERFORMER "Jonathan Sheffer" INDEX 01 00:00:00FILE "08 - Jonathan Sheffer - Proctor Crawls Home.wav" WAVE TRACK 08 AUDIO TITLE "Proctor Crawls Home" PERFORMER "Jonathan Sheffer" INDEX 01 00:00:00FILE "09 - Jonathan Sheffer - Roadtrip To Quicksand.wav" WAVE TRACK 09 AUDIO TITLE "Roadtrip To Quicksand" PERFORMER "Jonathan Sheffer" INDEX 01 00:00:00FILE "10 - Jonathan Sheffer - As The Bee Flies.wav" WAVE TRACK 10 AUDIO TITLE "As The Bee Flies" PERFORMER "Jonathan Sheffer" INDEX 01 00:00:00FILE "11 - Jonathan Sheffer - Getting Close.wav" WAVE TRACK 11 AUDIO TITLE "Getting Close" PERFORMER "Jonathan Sheffer" INDEX 01 00:00:00FILE "12 - Danny Elfman - We Found Her.wav" WAVE TRACK 12 AUDIO TITLE "We Found Her" PERFORMER "Danny Elfman" INDEX 01 00:00:00
[teatrix.ru].t10308.torrent 
Торрент: Зарегистрирован [ 2015-11-01 20:51 ] · 366C52F93458A3F1C778DADAF593FA6B5AA4D095

Скачать .torrent

Скачать

14 KB

Статус: проверено
Скачан: 0 раз
Размер: 162 MB
terms.php



Быстрый ответ

Имя:

      
Для отправки сообщений необходимо включить JavaScript
Показать сообщения:    

Текущее время: 09-Дек 20:23

Часовой пояс: UTC + 3


Вы можете начинать темы
Вы можете отвечать на сообщения
Вы не можете редактировать свои сообщения
Вы не можете удалять свои сообщения
Вы не можете голосовать в опросах
Вы не можете прикреплять файлы к сообщениям
Вы можете скачивать файлы