(Score) Georges Delerue - Les inédits - 1993, FLAC (image+.cue), lossless


Статистика раздачи [Обновить пиров]
Размер:  351 MB   |    Зарегистрирован:  1 год 1 месяц   |    Скачан:  0 раз

Полного источника не было: Никогда

Личеров:  7  [  0 KB/s  ]   Подробная статистика пиров
 
   
 
 
 

[Цитировать]

-Georges Delerue
Les inédits
- -Жанр: Score | Дата выпуска: 1993
Издатель (лейбл): Hortensia | Номер по каталогу: 887 812
Аудиокодек: FLAC | Тип рипа: image+.cue | Битрейт аудио: lossless
Общая продолжительность: 1:06:01
Источник: Рип оригинального диска из личной коллекции
-
★★ L'Ingénu ★★ (1971)
01.
L'abbé et sa soeur en quête de l'Ingénu [1:41]
02.
L'Ingénu poursuit son rival [1:04]
03. Générique [1:54]
04. On abandonne le château [0:54]
05. L'Ingénu veut acheter la soeur de l'abbé [1:30]
06. À l'église [1:13]
07. Dans son délire, l'ingénu s'imagine prêtre [1:07]
08. Générique de fin [2:36]
★★ Oscar ★★ (1967)
09. Révélation: Jaqueline est bien la fille de Barnier [1:00]
10. Générique de fin [1:13]
★★ L'age ingrat ★★ (1964)
11. Générique [2:10]
12. (mus. No. 3a) [1:23]
13. (mus. No. 2) [2:21]
★★ La petite virtu ★★ (1968)
14. Claire recouvre la liberté [3:13]
15. Générique [3:27]
16. L'escapade champêtre de Claire et Fred [1:29]
★★ Les cracks ★★ (1971)
17. Le thème de cracks [1:27]
18. Récit muet [5:58]
19. Les gendarmes à la poursuite de l'huissier [0:57]
20. Les cracks s'assoupissent [0:52]
21. "Ne t'éveille pas encore" [0:25]
22. Semailles [0:50]
23. Thème des amoureux [1:03]
24. Contrôle au sommet du Col du Marteau [1:22]
25. L'huissier à la poursuite de Duroc [0:59]
26. L'arrivée d'étapes [4:17]
★★ Oublie-moi mandoline ★★ (1975)
27. Générique [1:01]
28. Thème de Mandoline [1:15]
29. Les retrouvailles de Mireille et Paul [1:03]
★★ Les aveux les plus doux ★★ (1971)
30. Catherine et Jean [3:24]
31. Les aveux [1:05]
32. Le cirque Lopez [2:00]
33. Arrestation [1:54]
★★ Le vieil homme et l'enfant ★★ (1967)
34. Générique [1:00]
35. À la poursuite de l'oie [1:00]
36. "Je vais te la faire ton école!" [1:11]
37. Pépé imite les Bolchéviques mangeurs d'enfants [1:37]
38. Adieux et générique de fin [1:27]

Лог создания рипа

Exact Audio Copy V1.0 beta 4 from 7. December 2014
EAC extraction logfile from 14. August 2015, 10:35
Georges Delerue / Les inedits
Used drive : TSSTcorpCDDVDW TS-L633C Adapter: 1 ID: 0
Read mode : SecureUtilize accurate stream : YesDefeat audio cache : YesMake use of C2 pointers : No
Read offset correction : 6Overread into Lead-In and Lead-Out : NoFill up missing offset samples with silence : YesDelete leading and trailing silent blocks : NoNull samples used in CRC calculations : YesUsed interface : Native Win32 interface for Win NT & 2000
Used output format : Internal WAV RoutinesSample format : 44.100 Hz; 16 Bit; Stereo
TOC of the extracted CD
Track | Start | Length | Start sector | End sector --------------------------------------------------------- 1 | 0:00.33 | 1:42.72 | 33 | 7754 2 | 1:43.30 | 1:06.28 | 7755 | 12732 3 | 2:49.58 | 1:55.40 | 12733 | 21397 4 | 4:45.23 | 0:56.35 | 21398 | 25632 5 | 5:41.58 | 1:32.37 | 25633 | 32569 6 | 7:14.20 | 1:14.48 | 32570 | 38167 7 | 8:28.68 | 1:08.52 | 38168 | 43319 8 | 9:37.45 | 2:40.38 | 43320 | 55357 9 | 12:18.08 | 1:02.17 | 55358 | 60024 10 | 13:20.25 | 1:17.40 | 60025 | 65839 11 | 14:37.65 | 2:11.53 | 65840 | 75717 12 | 16:49.43 | 1:25.35 | 75718 | 82127 13 | 18:15.03 | 2:25.47 | 82128 | 93049 14 | 20:40.50 | 3:14.48 | 93050 | 107647 15 | 23:55.23 | 3:29.45 | 107648 | 123367 16 | 27:24.68 | 1:34.45 | 123368 | 130462 17 | 28:59.38 | 1:29.25 | 130463 | 137162 18 | 30:28.63 | 5:59.05 | 137163 | 164092 19 | 36:27.68 | 0:59.10 | 164093 | 168527 20 | 37:27.03 | 0:33.72 | 168528 | 171074 21 | 38:01.00 | 0:27.10 | 171075 | 173109 22 | 38:28.10 | 0:52.18 | 173110 | 177027 23 | 39:20.28 | 1:04.55 | 177028 | 181882 24 | 40:25.08 | 1:23.52 | 181883 | 188159 25 | 41:48.60 | 0:59.38 | 188160 | 192622 26 | 42:48.23 | 4:20.72 | 192623 | 212194 27 | 47:09.20 | 1:02.20 | 212195 | 216864 28 | 48:11.40 | 1:16.38 | 216865 | 222602 29 | 49:28.03 | 1:08.20 | 222603 | 227722 30 | 50:36.23 | 3:25.27 | 227723 | 243124 31 | 54:01.50 | 1:07.65 | 243125 | 248214 32 | 55:09.40 | 2:02.25 | 248215 | 257389 33 | 57:11.65 | 1:58.58 | 257390 | 266297 34 | 59:10.48 | 1:02.27 | 266298 | 270974 35 | 60:13.00 | 1:31.15 | 270975 | 277814 36 | 61:44.15 | 1:11.53 | 277815 | 283192 37 | 62:55.68 | 1:38.35 | 283193 | 290577 38 | 64:34.28 | 1:27.05 | 290578 | 297107
Range status and errors
Selected range
Filename D:\Georges Delerue - CD Collection [by italia57]\Georges Delerue (1993) Les inedits\Georges Delerue - Les inedits (887 812).wav
Peak level 100.0 % Extraction speed 3.8 X Range quality 99.9 % Test CRC 56FC863C Copy CRC 56FC863C Copy OK
No errors occurred
AccurateRip summary
Track 1 accurately ripped (confidence 3) [EE54892C] (AR v2)Track 2 accurately ripped (confidence 2) [EC0D97C6] (AR v2)Track 3 accurately ripped (confidence 2) [D597DEC4] (AR v2)Track 4 accurately ripped (confidence 2) [0AF5EE2F] (AR v2)Track 5 accurately ripped (confidence 2) [785E3052] (AR v2)Track 6 accurately ripped (confidence 1) [634B4938] (AR v2)Track 7 accurately ripped (confidence 1) [DF281911] (AR v2)Track 8 accurately ripped (confidence 2) [845C8FEE] (AR v2)Track 9 accurately ripped (confidence 2) [240DD220] (AR v2)Track 10 accurately ripped (confidence 2) [D0A03C44] (AR v2)Track 11 accurately ripped (confidence 2) [F73CCB7B] (AR v2)Track 12 accurately ripped (confidence 2) [C757EA5C] (AR v2)Track 13 accurately ripped (confidence 2) [CF9ADA78] (AR v2)Track 14 accurately ripped (confidence 2) [7769160E] (AR v2)Track 15 accurately ripped (confidence 2) [204D053B] (AR v2)Track 16 accurately ripped (confidence 2) [0DBF7AA1] (AR v2)Track 17 accurately ripped (confidence 2) [CD2FC1B9] (AR v2)Track 18 accurately ripped (confidence 2) [6FC72FF5] (AR v2)Track 19 accurately ripped (confidence 2) [9A939819] (AR v2)Track 20 accurately ripped (confidence 2) [2D8004F0] (AR v2)Track 21 accurately ripped (confidence 2) [04E2A4F1] (AR v2)Track 22 accurately ripped (confidence 2) [D5B7DAFB] (AR v2)Track 23 accurately ripped (confidence 2) [7EC7185B] (AR v2)Track 24 accurately ripped (confidence 2) [6C78AE52] (AR v2)Track 25 accurately ripped (confidence 2) [9D83CDCE] (AR v2)Track 26 accurately ripped (confidence 2) [3A12A25F] (AR v2)Track 27 accurately ripped (confidence 2) [1144FF79] (AR v2)Track 28 accurately ripped (confidence 2) [02B5B7C9] (AR v2)Track 29 accurately ripped (confidence 2) [9538935A] (AR v2)Track 30 accurately ripped (confidence 2) [88A6A334] (AR v2)Track 31 accurately ripped (confidence 2) [FF8A3A9A] (AR v2)Track 32 accurately ripped (confidence 2) [FA7A5319] (AR v2)Track 33 accurately ripped (confidence 2) [962E4EEA] (AR v2)Track 34 accurately ripped (confidence 2) [885A51AE] (AR v2)Track 35 accurately ripped (confidence 2) [4B016D89] (AR v2)Track 36 accurately ripped (confidence 2) [30A40FD2] (AR v2)Track 37 accurately ripped (confidence 2) [F14A7BEA] (AR v2)Track 38 accurately ripped (confidence 2) [0EBB0741] (AR v2)
All tracks accurately ripped
End of status report
---- CUETools DB Plugin V2.1.4
[CTDB TOCID: wYsjMvpKf20KLKyVOoG8K6iXyeM-] foundSubmit result: wYsjMvpKf20KLKyVOoG8K6iXyeM- has been confirmedTrack | CTDB Status 1 | (1/1) Accurately ripped 2 | (1/1) Accurately ripped 3 | (1/1) Accurately ripped 4 | (1/1) Accurately ripped 5 | (1/1) Accurately ripped 6 | (1/1) Accurately ripped 7 | (1/1) Accurately ripped 8 | (1/1) Accurately ripped 9 | (1/1) Accurately ripped 10 | (1/1) Accurately ripped 11 | (1/1) Accurately ripped 12 | (1/1) Accurately ripped 13 | (1/1) Accurately ripped 14 | (1/1) Accurately ripped 15 | (1/1) Accurately ripped 16 | (1/1) Accurately ripped 17 | (1/1) Accurately ripped 18 | (1/1) Accurately ripped 19 | (1/1) Accurately ripped 20 | (1/1) Accurately ripped 21 | (1/1) Accurately ripped 22 | (1/1) Accurately ripped 23 | (1/1) Accurately ripped 24 | (1/1) Accurately ripped 25 | (1/1) Accurately ripped 26 | (1/1) Accurately ripped 27 | (1/1) Accurately ripped 28 | (1/1) Accurately ripped 29 | (1/1) Accurately ripped 30 | (1/1) Accurately ripped 31 | (1/1) Accurately ripped 32 | (1/1) Accurately ripped 33 | (1/1) Accurately ripped 34 | (1/1) Accurately ripped 35 | (1/1) Accurately ripped 36 | (1/1) Accurately ripped 37 | (1/1) Accurately ripped 38 | (1/1) Accurately ripped
==== Log checksum 15619AF0548EAE39578E79DD6AE2ABA631492A9C05A00ACE7863DDEE1BB61B17 ====

Содержание индексной карты (.CUE)

REM GENRE SoundtrackREM DATE 1993REM DISCID 080F7926REM COMMENT "ExactAudioCopy v1.0b4"PERFORMER "Georges Delerue"TITLE "Les inedits"FILE "Georges Delerue - Les inedits (887 812).flac" WAVE TRACK 01 AUDIO TITLE "L'Ingenu - L'abbe et sa soeur en quete de l'Ingenu" PERFORMER "Georges Delerue" INDEX 00 00:00:00 INDEX 01 00:00:33 TRACK 02 AUDIO TITLE "L'Ingenu - L'Ingenu poursuit son rival" PERFORMER "Georges Delerue" INDEX 00 01:41:40 INDEX 01 01:43:30 TRACK 03 AUDIO TITLE "L'Ingenu - Generique" PERFORMER "Georges Delerue" INDEX 00 02:48:15 INDEX 01 02:49:58 TRACK 04 AUDIO TITLE "L'Ingenu - On abandonne le chateau" PERFORMER "Georges Delerue" INDEX 00 04:44:15 INDEX 01 04:45:23 TRACK 05 AUDIO TITLE "L'Ingenu - L'Ingenu veut acheter la soeur de l'Abbe" PERFORMER "Georges Delerue" INDEX 00 05:39:73 INDEX 01 05:41:58 TRACK 06 AUDIO TITLE "L'Ingenu - A l'eglise" PERFORMER "Georges Delerue" INDEX 00 07:12:40 INDEX 01 07:14:20 TRACK 07 AUDIO TITLE "L'Ingenu - Dans son delire, l'ingenu s'imagine pretre" PERFORMER "Georges Delerue" INDEX 00 08:27:28 INDEX 01 08:28:68 TRACK 08 AUDIO TITLE "L'Ingenu - Generique de fin" PERFORMER "Georges Delerue" INDEX 00 09:36:03 INDEX 01 09:37:45 TRACK 09 AUDIO TITLE "Oscar - Revelation: Jacqueline est bien la fille de Barnier" PERFORMER "Georges Delerue" INDEX 00 12:13:53 INDEX 01 12:18:08 TRACK 10 AUDIO TITLE "Oscar - Generique de fin" PERFORMER "Georges Delerue" INDEX 00 13:18:60 INDEX 01 13:20:25 TRACK 11 AUDIO TITLE "L'Age Ingrat - Generique" PERFORMER "Georges Delerue" INDEX 00 14:34:15 INDEX 01 14:37:65 TRACK 12 AUDIO TITLE "L'Age Ingrat - (mus. No. 3A)" PERFORMER "Georges Delerue" INDEX 00 16:47:70 INDEX 01 16:49:43 TRACK 13 AUDIO TITLE "L'Age Ingrat - (mus. No. 2)" PERFORMER "Georges Delerue" INDEX 00 18:13:40 INDEX 01 18:15:03 TRACK 14 AUDIO TITLE "La Petite Vertu - Claire recouvre la liberte" PERFORMER "Georges Delerue" INDEX 00 20:36:65 INDEX 01 20:40:50 TRACK 15 AUDIO TITLE "La Petite Vertu - Generique" PERFORMER "Georges Delerue" INDEX 00 23:53:68 INDEX 01 23:55:23 TRACK 16 AUDIO TITLE "La Petite Vertu - L'escapade champetre de Claire et Fred" PERFORMER "Georges Delerue" INDEX 00 27:23:03 INDEX 01 27:24:68 TRACK 17 AUDIO TITLE "Les Cracks - Le theme de cracks" PERFORMER "Georges Delerue" INDEX 00 28:54:65 INDEX 01 28:59:38 TRACK 18 AUDIO TITLE "Les Cracks - Recit muet" PERFORMER "Georges Delerue" INDEX 00 30:27:13 INDEX 01 30:28:63 TRACK 19 AUDIO TITLE "Les Cracks - Les gendarmes a la poursuite de l'huissier" PERFORMER "Georges Delerue" INDEX 00 36:26:68 INDEX 01 36:27:68 TRACK 20 AUDIO TITLE "Les Cracks - Les cracks s'assoupissent" PERFORMER "Georges Delerue" INDEX 00 37:25:28 INDEX 01 37:27:03 TRACK 21 AUDIO TITLE "Les Cracks - 'Ne t'eveille pas encore'" PERFORMER "Georges Delerue" INDEX 00 38:00:00 INDEX 01 38:01:00 TRACK 22 AUDIO TITLE "Les Cracks - Semailles" PERFORMER "Georges Delerue" INDEX 00 38:26:65 INDEX 01 38:28:10 TRACK 23 AUDIO TITLE "Les Cracks - Theme des amoureux" PERFORMER "Georges Delerue" INDEX 00 39:18:28 INDEX 01 39:20:28 TRACK 24 AUDIO TITLE "Les Cracks - Controle au sommet du Col du Marteau" PERFORMER "Georges Delerue" INDEX 00 40:23:70 INDEX 01 40:25:08 TRACK 25 AUDIO TITLE "Les Cracks - L'huissier a la poursuite de Duroc" PERFORMER "Georges Delerue" INDEX 00 41:47:10 INDEX 01 41:48:60 TRACK 26 AUDIO TITLE "Les Cracks - L'arrivee d'etapes" PERFORMER "Georges Delerue" INDEX 01 42:48:23 TRACK 27 AUDIO TITLE "Oubliez-Moi Mandoline - Generique" PERFORMER "Georges Delerue" INDEX 00 47:05:68 INDEX 01 47:09:20 TRACK 28 AUDIO TITLE "Oubliez-Moi Mandoline - Theme de Mandoline" PERFORMER "Georges Delerue" INDEX 00 48:10:38 INDEX 01 48:11:40 TRACK 29 AUDIO TITLE "Oubliez-Moi Mandoline - Les retrouvailles de Mireille et Paul" PERFORMER "Georges Delerue" INDEX 00 49:26:53 INDEX 01 49:28:03 TRACK 30 AUDIO TITLE "Les Aveux Les Plus Doux - Catherine et Jean" PERFORMER "Georges Delerue" INDEX 00 50:31:65 INDEX 01 50:36:23 TRACK 31 AUDIO TITLE "Les Aveux Les Plus Doux - Les aveux" PERFORMER "Georges Delerue" INDEX 00 54:00:28 INDEX 01 54:01:50 TRACK 32 AUDIO TITLE "Les Aveux Les Plus Doux - Le cirque Lopez" PERFORMER "Georges Delerue" INDEX 00 55:07:28 INDEX 01 55:09:40 TRACK 33 AUDIO TITLE "Les Aveux Les Plus Doux - Arrestation" PERFORMER "Georges Delerue" INDEX 00 57:09:43 INDEX 01 57:11:65 TRACK 34 AUDIO TITLE "Le Vieil Homme Et L'Enfant - Generique" PERFORMER "Georges Delerue" INDEX 00 59:06:28 INDEX 01 59:10:48 TRACK 35 AUDIO TITLE "Le Vieil Homme Et L'Enfant - A la poursuite de l'oie" PERFORMER "Georges Delerue" INDEX 00 60:11:28 INDEX 01 60:13:00 TRACK 36 AUDIO TITLE "Le Vieil Homme Et L'Enfant - 'Je vais te la faire ton ecole!'" PERFORMER "Georges Delerue" INDEX 00 61:42:28 INDEX 01 61:44:15 TRACK 37 AUDIO TITLE "Le Vieil Homme Et L'Enfant - Pepe imite les Bolcheviques mangeurs d'enfants" PERFORMER "Georges Delerue" INDEX 01 62:55:68 TRACK 38 AUDIO TITLE "Le Vieil Homme Et L'Enfant - Adieux et generique de fin" PERFORMER "Georges Delerue" INDEX 00 64:33:28 INDEX 01 64:34:28
[teatrix.ru].t10309.torrent 
Торрент: Зарегистрирован [ 2015-11-01 20:51 ] · 84AC05EF8D4A85064E755C0A80AC27153788DAFC

Скачать .torrent

Скачать

30 KB

Статус: проверено
Скачан: 0 раз
Размер: 351 MB
terms.php



Быстрый ответ

Имя:

      
Для отправки сообщений необходимо включить JavaScript
Показать сообщения:    

Текущее время: 03-Дек 09:40

Часовой пояс: UTC + 3


Вы можете начинать темы
Вы можете отвечать на сообщения
Вы не можете редактировать свои сообщения
Вы не можете удалять свои сообщения
Вы не можете голосовать в опросах
Вы не можете прикреплять файлы к сообщениям
Вы можете скачивать файлы