(Score) Белая невеста / La reine blanche (by Georges Delerue) - 2013 (1991), FLAC (image+.cue), lossless


Статистика раздачи [Обновить пиров]
Размер:  260 MB   |    Зарегистрирован:  1 год 1 месяц   |    Скачан:  0 раз

Полного источника не было: Никогда

Личеров:  7  [  0 KB/s  ]   Подробная статистика пиров
 
   
 
 
 

[Цитировать]

-Белая невеста / La reine blanche
Composed and Conducted by Georges Delerue
Limited Edition of 750 Copies
- -Жанр: Score | Дата выпуска: 5 апреля 2013
Издатель (лейбл): Disques Cinémusique | Номер по каталогу: DCM 149
Аудиокодек: FLAC | Тип рипа: image+.cue | Битрейт аудио: lossless
Общая продолжительность: 43:07
Источник: Рип оригинального диска из личной коллекции
-
01. Le Sainte-Marie [2:40]
02. Le retour/Jean [1:59]
03. Les retrouvailles [0:59]
04. Lili [2:16]
05. Bamboulas Sambas [1:59]
06. Yvon [1:27]
07. Rouge baiser [2:06]
08. Le jeu de puces [2:19]
09. La kermesse [2:43]
10. Les petits ballons [3:14]
11. L'aveu [3:20]
12. La robe fantôme [2:48]
13. Le pardon [1:07]
14. Le cha-cha de la reine [1:34]
15. La fuite de Jean [1:07]
16. Le gars des îles [3:04]
17. Chez Rita [2:59]
18. Les adieux [1:44]
19. La petite récompense [0:43]
20. L'enfance [2:49]

Лог создания рипа

Exact Audio Copy V1.0 beta 4 from 7. December 2014
EAC extraction logfile from 11. August 2015, 12:05
Georges Delerue / La reine blanche
Used drive : TSSTcorpCDDVDW TS-L633C Adapter: 1 ID: 0
Read mode : SecureUtilize accurate stream : YesDefeat audio cache : YesMake use of C2 pointers : No
Read offset correction : 6Overread into Lead-In and Lead-Out : NoFill up missing offset samples with silence : YesDelete leading and trailing silent blocks : NoNull samples used in CRC calculations : YesUsed interface : Native Win32 interface for Win NT & 2000
Used output format : Internal WAV RoutinesSample format : 44.100 Hz; 16 Bit; Stereo
TOC of the extracted CD
Track | Start | Length | Start sector | End sector --------------------------------------------------------- 1 | 0:00.00 | 2:40.15 | 0 | 12014 2 | 2:40.15 | 1:59.54 | 12015 | 20993 3 | 4:39.69 | 0:59.40 | 20994 | 25458 4 | 5:39.34 | 2:16.14 | 25459 | 35672 5 | 7:55.48 | 1:59.45 | 35673 | 44642 6 | 9:55.18 | 1:27.63 | 44643 | 51230 7 | 11:23.06 | 2:06.51 | 51231 | 60731 8 | 13:29.57 | 2:19.42 | 60732 | 71198 9 | 15:49.24 | 2:43.23 | 71199 | 83446 10 | 18:32.47 | 3:14.20 | 83447 | 98016 11 | 21:46.67 | 3:20.02 | 98017 | 113018 12 | 25:06.69 | 2:48.51 | 113019 | 125669 13 | 27:55.45 | 1:07.35 | 125670 | 130729 14 | 29:03.05 | 1:34.68 | 130730 | 137847 15 | 30:37.73 | 1:07.47 | 137848 | 142919 16 | 31:45.45 | 3:04.15 | 142920 | 156734 17 | 34:49.60 | 2:59.21 | 156735 | 170180 18 | 37:49.06 | 1:44.20 | 170181 | 178000 19 | 39:33.26 | 0:43.68 | 178001 | 181293 20 | 40:17.19 | 2:49.56 | 181294 | 194024
Range status and errors
Selected range
Filename D:\Georges Delerue - CD Collection [by italia57]\Georges Delerue (1991) La reine blanche\Georges Delerue - La reine blanche (DCM 149).wav
Peak level 100.0 % Extraction speed 3.4 X Range quality 100.0 % Test CRC 893CA8CB Copy CRC 893CA8CB Copy OK
No errors occurred
AccurateRip summary
Track 1 accurately ripped (confidence 4) [A6B2E211] (AR v2)Track 2 accurately ripped (confidence 4) [7EE6C987] (AR v2)Track 3 accurately ripped (confidence 4) [E4EC5072] (AR v2)Track 4 accurately ripped (confidence 4) [2F76F2D2] (AR v2)Track 5 accurately ripped (confidence 4) [4B5B6498] (AR v2)Track 6 accurately ripped (confidence 4) [A4B776AB] (AR v2)Track 7 accurately ripped (confidence 4) [F45A348E] (AR v2)Track 8 accurately ripped (confidence 4) [08ECDB7E] (AR v2)Track 9 accurately ripped (confidence 4) [34FAB6BE] (AR v2)Track 10 accurately ripped (confidence 4) [B17968D7] (AR v2)Track 11 accurately ripped (confidence 4) [E83F460A] (AR v2)Track 12 accurately ripped (confidence 4) [018C2E84] (AR v2)Track 13 accurately ripped (confidence 4) [65B0710B] (AR v2)Track 14 accurately ripped (confidence 4) [5C7864EC] (AR v2)Track 15 accurately ripped (confidence 4) [EBDD5E90] (AR v2)Track 16 accurately ripped (confidence 4) [1C3A1F8B] (AR v2)Track 17 accurately ripped (confidence 4) [A903D0C5] (AR v2)Track 18 accurately ripped (confidence 4) [51D441ED] (AR v2)Track 19 accurately ripped (confidence 4) [37B01A89] (AR v2)Track 20 accurately ripped (confidence 4) [C0BE3779] (AR v2)
All tracks accurately ripped
End of status report
---- CUETools DB Plugin V2.1.4
[CTDB TOCID: iIYrNrHHguZHJYQ6UJZmfbCrlVU-] foundSubmit result: iIYrNrHHguZHJYQ6UJZmfbCrlVU- has been confirmedTrack | CTDB Status 1 | (2/2) Accurately ripped 2 | (2/2) Accurately ripped 3 | (2/2) Accurately ripped 4 | (2/2) Accurately ripped 5 | (2/2) Accurately ripped 6 | (2/2) Accurately ripped 7 | (2/2) Accurately ripped 8 | (2/2) Accurately ripped 9 | (2/2) Accurately ripped 10 | (2/2) Accurately ripped 11 | (2/2) Accurately ripped 12 | (2/2) Accurately ripped 13 | (2/2) Accurately ripped 14 | (2/2) Accurately ripped 15 | (2/2) Accurately ripped 16 | (2/2) Accurately ripped 17 | (2/2) Accurately ripped 18 | (2/2) Accurately ripped 19 | (2/2) Accurately ripped 20 | (2/2) Accurately ripped
==== Log checksum C654A410C1E807EA9182D68E1E96D4E6F087711415831D15D71229E8C4E753B5 ====

Содержание индексной карты (.CUE)

REM GENRE SoundtrackREM DATE 1991REM DISCID 180A1B14REM COMMENT "ExactAudioCopy v1.0b4"PERFORMER "Georges Delerue"TITLE "La reine blanche"FILE "Georges Delerue - La reine blanche (DCM 149).flac" WAVE TRACK 01 AUDIO TITLE "Le Sainte-Marie" PERFORMER "Georges Delerue" INDEX 01 00:00:00 TRACK 02 AUDIO TITLE "Le retour - Jean" PERFORMER "Georges Delerue" INDEX 01 02:40:15 TRACK 03 AUDIO TITLE "Les retrouvailles" PERFORMER "Georges Delerue" INDEX 01 04:39:69 TRACK 04 AUDIO TITLE "Lili" PERFORMER "Georges Delerue" INDEX 01 05:39:34 TRACK 05 AUDIO TITLE "Bamboulas Sambas" PERFORMER "Georges Delerue" INDEX 01 07:55:48 TRACK 06 AUDIO TITLE "Yvon" PERFORMER "Georges Delerue" INDEX 01 09:55:18 TRACK 07 AUDIO TITLE "Rouge baiser" PERFORMER "Georges Delerue" INDEX 01 11:23:06 TRACK 08 AUDIO TITLE "Les jeu de puces" PERFORMER "Georges Delerue" INDEX 01 13:29:57 TRACK 09 AUDIO TITLE "La kermesse" PERFORMER "Georges Delerue" INDEX 01 15:49:24 TRACK 10 AUDIO TITLE "Les petits ballons" PERFORMER "Georges Delerue" INDEX 01 18:32:47 TRACK 11 AUDIO TITLE "L'aveu" PERFORMER "Georges Delerue" INDEX 01 21:46:67 TRACK 12 AUDIO TITLE "La robe fantome" PERFORMER "Georges Delerue" INDEX 01 25:06:69 TRACK 13 AUDIO TITLE "Le pardon" PERFORMER "Georges Delerue" INDEX 01 27:55:45 TRACK 14 AUDIO TITLE "Le cha-cha de la reine" PERFORMER "Georges Delerue" INDEX 01 29:03:05 TRACK 15 AUDIO TITLE "La fuite de Jean" PERFORMER "Georges Delerue" INDEX 01 30:37:73 TRACK 16 AUDIO TITLE "Le gars des iles" PERFORMER "Georges Delerue" INDEX 01 31:45:45 TRACK 17 AUDIO TITLE "Chez Rita" PERFORMER "Georges Delerue" INDEX 01 34:49:60 TRACK 18 AUDIO TITLE "Les adieux" PERFORMER "Georges Delerue" INDEX 01 37:49:06 TRACK 19 AUDIO TITLE "La petite recompense" PERFORMER "Georges Delerue" INDEX 01 39:33:26 TRACK 20 AUDIO TITLE "L'enfance" PERFORMER "Georges Delerue" INDEX 01 40:17:19
[teatrix.ru].t10310.torrent 
Торрент: Зарегистрирован [ 2015-11-01 20:51 ] · 63923AB2E1B96A4339D3AFC28F774FA3A2E8F3D2

Скачать .torrent

Скачать

22 KB

Статус: проверено
Скачан: 0 раз
Размер: 260 MB
terms.php



Быстрый ответ

Имя:

      
Для отправки сообщений необходимо включить JavaScript
Показать сообщения:    

Текущее время: 07-Дек 21:24

Часовой пояс: UTC + 3


Вы можете начинать темы
Вы можете отвечать на сообщения
Вы не можете редактировать свои сообщения
Вы не можете удалять свои сообщения
Вы не можете голосовать в опросах
Вы не можете прикреплять файлы к сообщениям
Вы можете скачивать файлы