(Score) VA - La Comédie à la française (by Georges Delerue, Michel Magne, D\'Henri Bourtayre, Raymond Lefevre, Pierre Bachelet) [Écoutez Le Cinéma!] - 2004, FLAC (image+.cue), lossless


Статистика раздачи [Обновить пиров]
Размер:  618 MB   |    Зарегистрирован:  1 год 1 месяц   |    Скачан:  0 раз

Полного источника не было: Никогда

Личеров:  7  [  0 KB/s  ]   Подробная статистика пиров
 
   
 
 
 

[Цитировать]

-Various Artists
La Comédie à la française
- -Жанр: Score | Дата выпуска: 2004
Издатель (лейбл): Universal Music Jazz France | Номер по каталогу: 982 461-7
Аудиокодек: FLAC | Тип рипа: image+.cue | Битрейт аудио: lossless
Общая продолжительность: 66:18
Источник: Рип оригинального диска из личной коллекции
-
★★ Oscar ★★ (1967) [Georges Delerue, Jean Marion]
01. Oscar (Générique) [1:58]
02. Menuet pour Barnier [2:18]
03. Final [2:16]
★★ Méfiez-vous mesdames ★★ (1963) [Michel Magné]
04. Méfiez-vous mesdames (Flirt sentimental) [2:47]
05. Souvenirs de prison [2:52]
★★ La bonne occase ★★ (1964) [Michel Magné]
06. La leçon de conduite [1:30]
07. Mets au point mort [2:25]
08. La bonne occase [1:46]
★★ Mais où est donc passé la 7ème cie? ★★ (1973) [D'Henri Bourtayre]
09. Mais où est donc... (Générique) [4:18]
10. Pas si vite! [1:19]
11. Drôle de guerre [3:47]
12. La 7ème cie aux grandes manœuvres [2:25]
13. Marche de la 7ème cie (Générique fin) [1:38]
★★ La gifle ★★ (1974) [Georges Delerue]
14. La gifle [2:24]
15. Samba et bossa d'Isabelle [4:17]
16. Hélène et Jean [2:58]
17. Isabelle et Rémi [3:00]
★★ Le grand escogriffe ★★ (1975) [Georges Delerue]
18. Le grand escogriffe [3:37]
19. Promenade dans Rome [3:20]
★★ L'intrépide ★★ (1975) [Raymond Lefèvre]
20. L'intrépide [3:19]
21. Sophie et Didier [3:21]
★★ Coup de tête ★★ (1978) [Jean Schultheis, Pierre Bachelet]
22. Coup de tête [2:12]
23. Allez trincamp! [2:25]
24. Coup de tête (Générique fin) [2:47]

Лог создания рипа

Exact Audio Copy V1.0 beta 3 from 29. August 2011
EAC extraction logfile from 6. January 2015, 11:40
Various Artists / La comédie a la française
Used drive : TSSTcorpCDDVDW TS-L633C Adapter: 2 ID: 0
Read mode : SecureUtilize accurate stream : YesDefeat audio cache : YesMake use of C2 pointers : No
Read offset correction : 6Overread into Lead-In and Lead-Out : NoFill up missing offset samples with silence : YesDelete leading and trailing silent blocks : NoNull samples used in CRC calculations : YesUsed interface : Native Win32 interface for Win NT & 2000
Used output format : Internal WAV RoutinesSample format : 44.100 Hz; 16 Bit; Stereo
TOC of the extracted CD
Track | Start | Length | Start sector | End sector --------------------------------------------------------- 1 | 0:00.00 | 2:00.59 | 0 | 9058 2 | 2:00.59 | 2:21.33 | 9059 | 19666 3 | 4:22.17 | 2:20.73 | 19667 | 30239 4 | 6:43.15 | 2:55.11 | 30240 | 43375 5 | 9:38.26 | 2:51.21 | 43376 | 56221 6 | 12:29.47 | 1:33.15 | 56222 | 63211 7 | 14:02.62 | 2:27.49 | 63212 | 74285 8 | 16:30.36 | 1:51.36 | 74286 | 82646 9 | 18:21.72 | 4:20.68 | 82647 | 102214 10 | 22:42.65 | 1:21.49 | 102215 | 108338 11 | 24:04.39 | 3:49.67 | 108339 | 125580 12 | 27:54.31 | 2:27.41 | 125581 | 136646 13 | 30:21.72 | 1:42.62 | 136647 | 144358 14 | 32:04.59 | 2:26.42 | 144359 | 155350 15 | 34:31.26 | 4:20.63 | 155351 | 174913 16 | 38:52.14 | 2:59.58 | 174914 | 188396 17 | 41:51.72 | 3:04.15 | 188397 | 202211 18 | 44:56.12 | 3:39.74 | 202212 | 218710 19 | 48:36.11 | 3:24.66 | 218711 | 234076 20 | 52:01.02 | 3:22.08 | 234077 | 249234 21 | 55:23.10 | 3:24.05 | 249235 | 264539 22 | 58:47.15 | 2:14.71 | 264540 | 274660 23 | 61:02.11 | 2:28.14 | 274661 | 285774 24 | 63:30.25 | 2:47.70 | 285775 | 298369
Range status and errors
Selected range
Filename H:\Georges Delerue - CD Collection [by italia57]\Various Artists - La comedie a la francaise (2004)\Various Artists - La comedie a la francaise (982 461-7).wav
Peak level 95.4 % Extraction speed 4.1 X Range quality 100.0 % Test CRC 972F072D Copy CRC 972F072D Copy OK
No errors occurred
AccurateRip summary
Track 1 cannot be verified as accurate (confidence 2) [6C89430D], AccurateRip returned [DCD29B7C] (AR v2)Track 2 cannot be verified as accurate (confidence 2) [DE1D5943], AccurateRip returned [DBDAAB52] (AR v2)Track 3 cannot be verified as accurate (confidence 2) [19CF9870], AccurateRip returned [673D785B] (AR v2)Track 4 cannot be verified as accurate (confidence 2) [7B638D6B], AccurateRip returned [15CC190F] (AR v2)Track 5 cannot be verified as accurate (confidence 2) [9DCB5129], AccurateRip returned [D393089C] (AR v2)Track 6 cannot be verified as accurate (confidence 2) [A96EB6CA], AccurateRip returned [CAD8D51F] (AR v2)Track 7 cannot be verified as accurate (confidence 2) [4D698C6C], AccurateRip returned [0115AB50] (AR v2)Track 8 cannot be verified as accurate (confidence 2) [7D733870], AccurateRip returned [E526F342] (AR v2)Track 9 cannot be verified as accurate (confidence 2) [4C1300B2], AccurateRip returned [6ACC3FE7] (AR v2)Track 10 cannot be verified as accurate (confidence 2) [5CC4829C], AccurateRip returned [006285A1] (AR v2)Track 11 cannot be verified as accurate (confidence 2) [1A031550], AccurateRip returned [53C2DC50] (AR v2)Track 12 cannot be verified as accurate (confidence 2) [3F237D9B], AccurateRip returned [B2CBB255] (AR v2)Track 13 cannot be verified as accurate (confidence 2) [F07F0817], AccurateRip returned [D1A5E879] (AR v2)Track 14 cannot be verified as accurate (confidence 2) [C387F538], AccurateRip returned [40306ED6] (AR v2)Track 15 cannot be verified as accurate (confidence 2) [7AE702DF], AccurateRip returned [8181C879] (AR v2)Track 16 cannot be verified as accurate (confidence 2) [3FCE2549], AccurateRip returned [A25DF6D2] (AR v2)Track 17 cannot be verified as accurate (confidence 2) [EC84CFE1], AccurateRip returned [F50CB0E7] (AR v2)Track 18 cannot be verified as accurate (confidence 2) [37B243FB], AccurateRip returned [BD821C44] (AR v2)Track 19 cannot be verified as accurate (confidence 2) [83119653], AccurateRip returned [B2048A0F] (AR v2)Track 20 accurately ripped (confidence 1) [A1C139BF] (AR v2)Track 21 cannot be verified as accurate (confidence 2) [B31BBC23], AccurateRip returned [ABE42561] (AR v2)Track 22 cannot be verified as accurate (confidence 2) [0A7B49C0], AccurateRip returned [44BEECC7] (AR v2)Track 23 cannot be verified as accurate (confidence 2) [1A5FF624], AccurateRip returned [A66AA7E0] (AR v2)Track 24 cannot be verified as accurate (confidence 2) [66F40479], AccurateRip returned [03732371] (AR v2)
1 track(s) accurately ripped23 track(s) could not be verified as accurate
Some tracks could not be verified as accurate
End of status report
---- CUETools DB Plugin V2.1.4
[CTDB TOCID: G2J6YU7mdtXynESg1BNPkknG8hk-] foundSubmit result: G2J6YU7mdtXynESg1BNPkknG8hk- has been confirmedTrack | CTDB Status 1 | (2/2) Accurately ripped 2 | (2/2) Accurately ripped 3 | (2/2) Accurately ripped 4 | (2/2) Accurately ripped 5 | (2/2) Accurately ripped 6 | (2/2) Accurately ripped 7 | (2/2) Accurately ripped 8 | (2/2) Accurately ripped 9 | (2/2) Accurately ripped 10 | (2/2) Accurately ripped 11 | (2/2) Accurately ripped 12 | (2/2) Accurately ripped 13 | (2/2) Accurately ripped 14 | (2/2) Accurately ripped 15 | (2/2) Accurately ripped 16 | (2/2) Accurately ripped 17 | (2/2) Accurately ripped 18 | (2/2) Accurately ripped 19 | (2/2) Accurately ripped 20 | (2/2) Accurately ripped 21 | (2/2) Accurately ripped 22 | (2/2) Accurately ripped 23 | (2/2) Accurately ripped 24 | (2/2) Accurately ripped
==== Log checksum 917C1A8D6BAB8EC54CFDB8C4C56CFF691F8FC061D4421A4074F16183AF125C11 ====

Содержание индексной карты (.CUE)

REM GENRE SoundtrackREM DATE 2004REM DISCID 4B0F8A18REM COMMENT "ExactAudioCopy v1.0b3"PERFORMER "Various Artists"TITLE "La comedie a la francaise"FILE "Various Artists - La comedie a la francaise (982 461-7).flac" WAVE TRACK 01 AUDIO TITLE "Oscar - Generique" PERFORMER "Jean Marion" INDEX 01 00:00:00 TRACK 02 AUDIO TITLE "Oscar - Menuet pour Barnier" PERFORMER "Georges Delerue" INDEX 00 01:58:59 INDEX 01 02:00:59 TRACK 03 AUDIO TITLE "Oscar - Final" PERFORMER "Georges Delerue" INDEX 00 04:20:17 INDEX 01 04:22:17 TRACK 04 AUDIO TITLE "Mefiez-vous mesdames - Flirt Sentimental" PERFORMER "Michel Magne" INDEX 00 06:39:15 INDEX 01 06:43:15 TRACK 05 AUDIO TITLE "Mefiez-vous mesdames - Souvenirs de prison" PERFORMER "Michel Magne" INDEX 00 09:36:26 INDEX 01 09:38:26 TRACK 06 AUDIO TITLE "La bonne occase - La lecon de conduite" PERFORMER "Michel Magne" INDEX 00 12:26:47 INDEX 01 12:29:47 TRACK 07 AUDIO TITLE "La bonne occase - Mets au point mort" PERFORMER "Michel Magne" INDEX 00 14:00:62 INDEX 01 14:02:62 TRACK 08 AUDIO TITLE "La bonne occase - La bonne occase" PERFORMER "Michel Magne" INDEX 00 16:28:36 INDEX 01 16:30:36 TRACK 09 AUDIO TITLE "Mais ou est donc passee la 7eme cie ? - Generique" PERFORMER "Armand Migiani" INDEX 00 18:17:72 INDEX 01 18:21:72 TRACK 10 AUDIO TITLE "Mais ou est donc passee la 7eme cie ? - Pas si vite" PERFORMER "Armand Migiani" INDEX 00 22:40:65 INDEX 01 22:42:65 TRACK 11 AUDIO TITLE "Mais ou est donc passee la 7eme cie ? - Drole de guerre" PERFORMER "Armand Migiani" INDEX 00 24:02:40 INDEX 01 24:04:39 TRACK 12 AUDIO TITLE "Mais ou est donc passee la 7eme cie ? - La 7eme cie aux grandes manoeuvres" PERFORMER "Armand Migiani" INDEX 00 27:52:31 INDEX 01 27:54:31 TRACK 13 AUDIO TITLE "Mais ou est donc passee la 7eme cie ? - Marche de la 7eme cie (Generique de fin)" PERFORMER "Armand Migiani" INDEX 00 30:19:72 INDEX 01 30:21:72 TRACK 14 AUDIO TITLE "La gifle - La gifle" PERFORMER "Georges Delerue" INDEX 00 32:00:59 INDEX 01 32:04:59 TRACK 15 AUDIO TITLE "La gifle - Samba et bossa d'Isabelle" PERFORMER "Georges Delerue" INDEX 00 34:29:26 INDEX 01 34:31:26 TRACK 16 AUDIO TITLE "La gifle - Helene et Jean" PERFORMER "Georges Delerue" INDEX 00 38:49:14 INDEX 01 38:52:14 TRACK 17 AUDIO TITLE "La gifle - Isabelle et Remi" PERFORMER "Georges Delerue" INDEX 00 41:50:72 INDEX 01 41:51:72 TRACK 18 AUDIO TITLE "Le grand escogriffe - Le grand escogriffe" PERFORMER "Georges Delerue" INDEX 00 44:53:12 INDEX 01 44:56:12 TRACK 19 AUDIO TITLE "Le grand escogriffe - Promenade dans Rome" PERFORMER "Georges Delerue" INDEX 00 48:34:11 INDEX 01 48:36:11 TRACK 20 AUDIO TITLE "L'Intrepide - L'Intrepide" PERFORMER "Raymond Lefevre" INDEX 00 51:57:02 INDEX 01 52:01:02 TRACK 21 AUDIO TITLE "L'Intrepide - Sophie et Didier" PERFORMER "Raymond Lefevre" INDEX 00 55:21:10 INDEX 01 55:23:10 TRACK 22 AUDIO TITLE "Coup de tete - Coup de tete" PERFORMER "Pierre Bachelet" INDEX 00 58:45:15 INDEX 01 58:47:15 TRACK 23 AUDIO TITLE "Coup de tete - Allez trincamp !" PERFORMER "Pierre Bachelet" INDEX 00 61:00:11 INDEX 01 61:02:11 TRACK 24 AUDIO TITLE "Coup de tete - Generique De Fin" PERFORMER "Pierre Bachelet" INDEX 00 63:28:25 INDEX 01 63:30:25
[teatrix.ru].t10311.torrent 
Торрент: Зарегистрирован [ 2015-11-01 20:51 ] · 60ED0B6582BAB6A19470F06415F1A8B2B8783485

Скачать .torrent

Скачать

26 KB

Статус: проверено
Скачан: 0 раз
Размер: 618 MB
terms.php



Быстрый ответ

Имя:

      
Для отправки сообщений необходимо включить JavaScript
Показать сообщения:    

Текущее время: 09-Дек 18:30

Часовой пояс: UTC + 3


Вы можете начинать темы
Вы можете отвечать на сообщения
Вы не можете редактировать свои сообщения
Вы не можете удалять свои сообщения
Вы не можете голосовать в опросах
Вы не можете прикреплять файлы к сообщениям
Вы можете скачивать файлы