(Score) Игра Престолов: Сезон 5 / Game of Thrones: Season 5 (by Ramin Djawadi) - 2015, FLAC (tracks+.cue), lossless


Статистика раздачи [Обновить пиров]
Размер:  264 MB   |    Зарегистрирован:  1 год 1 месяц   |    Скачан:  0 раз

Полного источника не было: Никогда

Личеров:  4  [  0 KB/s  ]   Подробная статистика пиров
 
   
 
 
 

[Цитировать]

Игра Престолов: Сезон 5 / Game of Thrones: Season 5-- -Жанр: Score || Композитор: Ramin Djawadi || Год выпуска диска: 2015 || Страна-производитель диска: США || Аудио кодек: FLAC (*.flac) || Тип рипа: tracks+.cue || Битрейт аудио: lossless || Продолжительность: 00:58:47 || Источник: What.cd (nazgul68) || Наличие сканов в содержимом раздачи: нет-Треклист:
01. Main Titles [01:45]
02. Blood of the Dragon [01:33]
03. House of Black and White [05:08]
04. Jaws of the Viper [02:31]
05. Hardhome, Pt. 1 [05:07]
06. Hardhome, Pt. 2 [04:32]
07. Mother's Mercy [02:15]
08. Kill the Boy [02:07]
09. Dance of Dragons [03:09]
10. Kneel For No Man [04:45]
11. High Sparrow [03:23]
12. Before the Old Gods [02:38]
13. Atonement [02:54]
14. I Dreamt I Was Old [02:17]
15. The Wars To Come [04:48]
16. Forgive Me [03:18]
17. Son of the Harpy [05:18]
18. Throne For the Game (feat. Bradley Hanan Carter) [01:20]

Лог создания рипа

Exact Audio Copy V1.0 beta 3 from 29. August 2011
EAC extraction logfile from 4. July 2015, 14:03
Ramin Djawadi / Game of Thrones: Season 5
Used drive : HL-DT-STBD-RE BH10LS38 Adapter: 0 ID: 0
Read mode : SecureUtilize accurate stream : YesDefeat audio cache : YesMake use of C2 pointers : No
Read offset correction : 667Overread into Lead-In and Lead-Out : NoFill up missing offset samples with silence : YesDelete leading and trailing silent blocks : NoNull samples used in CRC calculations : YesUsed interface : Native Win32 interface for Win NT & 2000Gap handling : Appended to previous track
Used output format : User Defined EncoderSelected bitrate : 768 kBit/sQuality : HighAdd ID3 tag : NoCommand line compressor : C:\Program Files (x86)\Exact Audio Copy\FLAC\FLAC.EXEAdditional command line options : -8 -V -T "ARTIST=%artist%" -T "TITLE=%title%" -T "ALBUM=%albumtitle%" -T "DATE=%year%" -T "TRACKNUMBER=%tracknr%" -T "GENRE=%genre%" -T "PERFORMER=%albuminterpret%" -T "COMPOSER=%composer%" %haslyrics%--tag-from-file=LYRICS="%lyricsfile%"%haslyrics% -T "ALBUMARTIST=%albumartist%" -T "ALBUM ARTIST=%albumartist%" -T "DISCNUMBER=%cdnumber%" -T "TOTALDISCS=%totalcds%" -T "TOTALTRACKS=%numtracks%" -T "COMMENT=%comment%" %source% -o %dest%
TOC of the extracted CD
Track | Start | Length | Start sector | End sector --------------------------------------------------------- 1 | 0:00.00 | 1:45.13 | 0 | 7887 2 | 1:45.13 | 1:33.08 | 7888 | 14870 3 | 3:18.21 | 5:08.35 | 14871 | 38005 4 | 8:26.56 | 2:31.31 | 38006 | 49361 5 | 10:58.12 | 5:06.56 | 49362 | 72367 6 | 16:04.68 | 4:31.58 | 72368 | 92750 7 | 20:36.51 | 2:14.52 | 92751 | 102852 8 | 22:51.28 | 2:07.28 | 102853 | 112405 9 | 24:58.56 | 3:08.38 | 112406 | 126543 10 | 28:07.19 | 4:45.00 | 126544 | 147918 11 | 32:52.19 | 3:23.00 | 147919 | 163143 12 | 36:15.19 | 2:37.53 | 163144 | 174971 13 | 38:52.72 | 2:54.08 | 174972 | 188029 14 | 41:47.05 | 2:16.41 | 188030 | 198270 15 | 44:03.46 | 4:48.14 | 198271 | 219884 16 | 48:51.60 | 3:17.40 | 219885 | 234699 17 | 52:09.25 | 5:17.63 | 234700 | 258537 18 | 57:27.13 | 1:20.17 | 258538 | 264554
Track 1
Filename C:\Rips\01 - Main Titles.wav
Pre-gap length 0:00:02.00
Peak level 97.7 % Extraction speed 0.9 X Track quality 100.0 % Test CRC B50EC50C Copy CRC B50EC50C Track not present in AccurateRip database Copy OK
Track 2
Filename C:\Rips\02 - Blood of the Dragon.wav
Peak level 98.8 % Extraction speed 0.9 X Track quality 100.0 % Test CRC CFCB3BA1 Copy CRC CFCB3BA1 Track not present in AccurateRip database Copy OK
Track 3
Filename C:\Rips\03 - House of Black and White.wav
Peak level 87.5 % Extraction speed 1.2 X Track quality 100.0 % Test CRC 6131FD44 Copy CRC 6131FD44 Track not present in AccurateRip database Copy OK
Track 4
Filename C:\Rips\04 - Jaws of the Viper.wav
Peak level 85.8 % Extraction speed 1.0 X Track quality 99.9 % Test CRC 0046E904 Copy CRC 0046E904 Track not present in AccurateRip database Copy OK
Track 5
Filename C:\Rips\05 - Hardhome, Pt. 1.wav
Peak level 97.7 % Extraction speed 1.3 X Track quality 99.9 % Test CRC 1316F65B Copy CRC 1316F65B Track not present in AccurateRip database Copy OK
Track 6
Filename C:\Rips\06 - Hardhome, Pt. 2.wav
Peak level 97.7 % Extraction speed 1.6 X Track quality 100.0 % Test CRC 572B65B2 Copy CRC 572B65B2 Track not present in AccurateRip database Copy OK
Track 7
Filename C:\Rips\07 - Mother's Mercy.wav
Peak level 69.0 % Extraction speed 1.4 X Track quality 100.0 % Test CRC 3E537FE0 Copy CRC 3E537FE0 Track not present in AccurateRip database Copy OK
Track 8
Filename C:\Rips\08 - Kill the Boy.wav
Peak level 98.8 % Extraction speed 1.5 X Track quality 100.0 % Test CRC 2E299FFB Copy CRC 2E299FFB Track not present in AccurateRip database Copy OK
Track 9
Filename C:\Rips\09 - Dance of Dragons.wav
Peak level 98.8 % Extraction speed 1.6 X Track quality 100.0 % Test CRC 9734C1E1 Copy CRC 9734C1E1 Track not present in AccurateRip database Copy OK
Track 10
Filename C:\Rips\10 - Kneel For No Man.wav
Peak level 98.8 % Extraction speed 1.8 X Track quality 100.0 % Test CRC D56BCF03 Copy CRC D56BCF03 Track not present in AccurateRip database Copy OK
Track 11
Filename C:\Rips\11 - High Sparrow.wav
Peak level 97.7 % Extraction speed 1.8 X Track quality 100.0 % Test CRC 1D2F20EB Copy CRC 1D2F20EB Track not present in AccurateRip database Copy OK
Track 12
Filename C:\Rips\12 - Before the Old Gods.wav
Peak level 48.2 % Extraction speed 1.5 X Track quality 99.9 % Test CRC 83745086 Copy CRC 83745086 Track not present in AccurateRip database Copy OK
Track 13
Filename C:\Rips\13 - Atonement.wav
Peak level 97.7 % Extraction speed 1.8 X Track quality 100.0 % Test CRC 96DAF731 Copy CRC 96DAF731 Track not present in AccurateRip database Copy OK
Track 14
Filename C:\Rips\14 - I Dreamt I Was Old.wav
Peak level 72.0 % Extraction speed 1.8 X Track quality 100.0 % Test CRC 845B29F6 Copy CRC 845B29F6 Track not present in AccurateRip database Copy OK
Track 15
Filename C:\Rips\15 - The Wars To Come.wav
Peak level 98.8 % Extraction speed 1.9 X Track quality 99.9 % Test CRC 25AE03A9 Copy CRC 25AE03A9 Track not present in AccurateRip database Copy OK
Track 16
Filename C:\Rips\16 - Forgive Me.wav
Peak level 97.7 % Extraction speed 1.8 X Track quality 99.9 % Test CRC 03D3B4CE Copy CRC 03D3B4CE Track not present in AccurateRip database Copy OK
Track 17
Filename C:\Rips\17 - Son of the Harpy.wav
Peak level 98.8 % Extraction speed 2.3 X Track quality 100.0 % Test CRC 420D2AFF Copy CRC 420D2AFF Track not present in AccurateRip database Copy OK
Track 18
Filename C:\Rips\18 - Throne For the Game (feat. Bradley Hanan Carter).wav
Peak level 50.7 % Extraction speed 1.7 X Track quality 100.0 % Test CRC 4E2EE178 Copy CRC 4E2EE178 Track not present in AccurateRip database Copy OK
None of the tracks are present in the AccurateRip database
No errors occurred
End of status report
==== Log checksum 6F78D1732611099A33EB3516DF09D8685CB275AECB6B3EDE139CFE8E1D94B138 ====

Содержание индексной карты (.CUE)

REM GENRE SoundtrackREM DATE 2015REM DISCID F40DC712REM COMMENT "ExactAudioCopy v1.0b3"FILE "01 - Main Titles.wav" WAVE TRACK 01 AUDIO INDEX 01 00:00:00FILE "02 - Blood of the Dragon.wav" WAVE TRACK 02 AUDIO INDEX 01 00:00:00FILE "03 - House of Black and White.wav" WAVE TRACK 03 AUDIO INDEX 01 00:00:00FILE "04 - Jaws of the Viper.wav" WAVE TRACK 04 AUDIO INDEX 01 00:00:00FILE "05 - Hardhome, Pt. 1.wav" WAVE TRACK 05 AUDIO INDEX 01 00:00:00FILE "06 - Hardhome, Pt. 2.wav" WAVE TRACK 06 AUDIO INDEX 01 00:00:00FILE "07 - Mother's Mercy.wav" WAVE TRACK 07 AUDIO INDEX 01 00:00:00FILE "08 - Kill the Boy.wav" WAVE TRACK 08 AUDIO INDEX 01 00:00:00FILE "09 - Dance of Dragons.wav" WAVE TRACK 09 AUDIO INDEX 01 00:00:00FILE "10 - Kneel For No Man.wav" WAVE TRACK 10 AUDIO INDEX 01 00:00:00FILE "11 - High Sparrow.wav" WAVE TRACK 11 AUDIO INDEX 01 00:00:00FILE "12 - Before the Old Gods.wav" WAVE TRACK 12 AUDIO INDEX 01 00:00:00FILE "13 - Atonement.wav" WAVE TRACK 13 AUDIO INDEX 01 00:00:00FILE "14 - I Dreamt I Was Old.wav" WAVE TRACK 14 AUDIO INDEX 01 00:00:00FILE "15 - The Wars To Come.wav" WAVE TRACK 15 AUDIO INDEX 01 00:00:00FILE "16 - Forgive Me.wav" WAVE TRACK 16 AUDIO INDEX 01 00:00:00FILE "17 - Son of the Harpy.wav" WAVE TRACK 17 AUDIO INDEX 01 00:00:00FILE "18 - Throne For the Game (feat. Bradley Hanan Carter).wav" WAVE TRACK 18 AUDIO INDEX 01 00:00:00
-MP3: (Score) Игра Престолов. Сезон 1-5 / Game Of Thrones. Season 1-5 (by Ramin Djawadi) - 2011-2015, MP3, 320 kbps
[teatrix.ru].t10313.torrent 
Торрент: Зарегистрирован [ 2015-11-01 20:51 ] · A3BAC4F3D52334CF6EB501EBB858BBB1FBF4002D

Скачать .torrent

Скачать

12 KB

Статус: проверено
Скачан: 0 раз
Размер: 264 MB
terms.php



Быстрый ответ

Имя:

      
Для отправки сообщений необходимо включить JavaScript
Показать сообщения:    

Текущее время: 09-Дек 02:58

Часовой пояс: UTC + 3


Вы можете начинать темы
Вы можете отвечать на сообщения
Вы не можете редактировать свои сообщения
Вы не можете удалять свои сообщения
Вы не можете голосовать в опросах
Вы не можете прикреплять файлы к сообщениям
Вы можете скачивать файлы