(Score) Лови волну / Catch a Wave (Depapepe, Hiroyuki Sawano) - 2006, FLAC (image+.cue), lossless


Статистика раздачи [Обновить пиров]
Размер:  371 MB   |    Зарегистрирован:  1 год 1 месяц   |    Скачан:  0 раз

Полного источника не было: Никогда

Личеров:  4  [  0 KB/s  ]   Подробная статистика пиров
 
   
 
 
 

[Цитировать]

Лови волну / Catch a Wave
Жанр: Score
Композитор: Depapepe, Hiroyuki Sawano
Год выпуска диска: 2006
Страна-производитель диска: Japan
Издатель (лейбл): SME Records Inc.
Номер по каталогу: SECL 412
Аудиокодек: FLAC (*.flac)
Тип рипа: image+.cue
Битрейт аудио: lossless
Продолжительность: 00:43:50
Источник: найдено в сети
Наличие сканов в содержимом раздачи: да
Треклист:
01. Catch a Wave Theme
02. SUNSHINE SURF!! (CW version)
03. Kakushite Wan Tsu
04. SEISHUN BOY
05. Batafurai
06. Dreams
07. Sanpomichi
08. Ni Nin Dake no Himitsu
09. Inori
10. Rahaina (CW version)
11. Hito Natsu no Koi
12. Surf Battle
13. Take Off

Лог создания рипа

EAC extraction logfile from 25. November 2008, 15:33 for CDDEPAPEPE / キャッチ アウェーブ オリジナル•サウンドトラック
Used drive : TSSTcorpCD/DVDW SH-W163A Adapter: 2 ID: 2Read mode : Secure with NO C2, accurate stream, disable cacheRead offset correction : 6Overread into Lead-In and Lead-Out : No
Used output format : E:\program files\CD压缩\FLAC\flac.exe (User Defined Encoder) 320 kBit/s Additional command line options : -V -5 -T "album=%g" -T "artist=%a" -T "tracknumber=%N" -T "title=%t" -T "date=%y" -T "genre=%m" -T "comment=" %s
Other options : Fill up missing offset samples with silence : Yes Delete leading and trailing silent blocks : No Installed external ASPI interface
Range status and errorsSelected range Filename G:\My Music\[OST]\[06.05.24]キャッチ アウェーブ (flac+cue)\SECL-412.flac.wav
Peak level 100.0 % Range quality 100.0 % CRC 1E4CAEC7 Copy OK
No errors occured
End of status report

Содержание индексной карты (.CUE)

REM GENRE SoundtrackREM DATE 2006PERFORMER "Depapepe"TITLE "Catch a Wave Original Soundtrack"FILE "Catch a Wave Original Soundtrack.flac" WAVE TRACK 01 AUDIO TITLE "Catch a Wave Theme" PERFORMER "Depapepe" ISRC JPTa00600681 INDEX 01 00:00:00 TRACK 02 AUDIO TITLE "SUNSHINE SURF!! (CW version)" PERFORMER "Depapepe" ISRC JPTa00600682 INDEX 00 02:13:13 INDEX 01 02:15:42 TRACK 03 AUDIO TITLE "Kakushite Wan Tsu" PERFORMER "Depapepe" ISRC JPTa00600683 INDEX 00 07:51:55 INDEX 01 07:55:47 TRACK 04 AUDIO TITLE "SEISHUN BOY" PERFORMER "Depapepe" ISRC JPTa00600684 INDEX 00 09:10:59 INDEX 01 09:13:65 TRACK 05 AUDIO TITLE "Batafurai" PERFORMER "Depapepe" ISRC JPTa00500605 INDEX 00 11:17:03 INDEX 01 11:21:41 TRACK 06 AUDIO TITLE "Dreams" PERFORMER "Depapepe" ISRC JPTa00600685 INDEX 00 14:40:19 INDEX 01 14:44:62 TRACK 07 AUDIO TITLE "Sanpomichi" PERFORMER "Depapepe" ISRC JPTa00600686 INDEX 00 17:27:12 INDEX 01 17:31:41 TRACK 08 AUDIO TITLE "Ni Nin Dake no Himitsu" PERFORMER "Depapepe" ISRC JPTa00600687 INDEX 00 19:36:41 INDEX 01 19:40:30 TRACK 09 AUDIO TITLE "Inori" PERFORMER "Depapepe" ISRC JPTa00600688 INDEX 00 22:00:42 INDEX 01 22:04:68 TRACK 10 AUDIO TITLE "Rahaina (CW version)" PERFORMER "Depapepe" ISRC JPTa00600689 INDEX 00 24:27:01 INDEX 01 24:30:65 TRACK 11 AUDIO TITLE "Hito Natsu no Koi" PERFORMER "Depapepe" ISRC JPTa00600690 INDEX 00 30:29:21 INDEX 01 30:32:38 TRACK 12 AUDIO TITLE "Surf Battle" PERFORMER "Depapepe, Hiroyuki Sawano" ISRC JPTa00600691 INDEX 00 33:22:30 INDEX 01 33:25:59 TRACK 13 AUDIO TITLE "Take Off" PERFORMER "Depapepe" ISRC JPTa00600692 INDEX 00 39:23:29 INDEX 01 39:25:54

Лог проверки качества

AUDIOCHECKER v2.0 beta (build 457) - by Dester - opdester@freemail.hu~~~~~~~~~~~~~~~~~~~~~~~~~~~~~~~~~~-=== НЕ РЕДАКТИРУЙТЕ ЭТОТ ФАЙЛ! ===-
Путь: ...\Catch a Wave Original Soundtrack [FLAC]
1 -=- Catch a Wave Original Soundtrack.flac -=- CDDA (99%)
183856484
[teatrix.ru].t10314.torrent 
Торрент: Зарегистрирован [ 2015-11-01 20:51 ] · 3D3B1535BA14BE64BB155039FD8A60A47F994E78

Скачать .torrent

Скачать

16 KB

Статус: проверено
Скачан: 0 раз
Размер: 371 MB
terms.php



Быстрый ответ

Имя:

      
Для отправки сообщений необходимо включить JavaScript
Показать сообщения:    

Текущее время: 10-Дек 13:51

Часовой пояс: UTC + 3


Вы можете начинать темы
Вы можете отвечать на сообщения
Вы не можете редактировать свои сообщения
Вы не можете удалять свои сообщения
Вы не можете голосовать в опросах
Вы не можете прикреплять файлы к сообщениям
Вы можете скачивать файлы