(Score) Десятка / "10" / Ten (by Henry Mancini) - 2013 (1979), FLAC (image+.cue), lossless


Статистика раздачи [Обновить пиров]
Размер:  327 MB   |    Зарегистрирован:  1 год 1 месяц   |    Скачан:  0 раз

Полного источника не было: Никогда

Личеров:  2  [  0 KB/s  ]   Подробная статистика пиров
 
   
 
 
 

[Цитировать]

Десятка / "10" / Ten Жанр: Score
Композитор: Henry Mancini
Год выпуска диска: 2013
Год выпуска фильма: 1979
Издатель (лейбл): Reel Gone Music/Warner Bros.
Номер по каталогу: RGM-0148
Аудиокодек: FLAC (*.flac)
Тип рипа: image+.cue
Битрейт аудио: lossless
Продолжительность: 39:15
Rip by flac jacket
Наличие сканов в содержимом раздачи: да
Треклист:
01. Don't Call It Love (Main Title) (Instrumental) (1:22)
02. He Pleases Me (3:30)
03. Keyboard Harmony (3:18)
04. It's Easy To Say (With Chorus) (2:45)
05. Something For Jenny (2:51)
06. Don't Call It Love (With Chorus) (3:02)
07. Get It On (With Chorus) (5:17)
08. It's Easy To Say (Duet) (3:06)
09. The Hot Sand Mexican Band (3:10)
10. I Have An Ear for Love (2:09)
11. It's Easy To Say (Instrumental) (3:45)
12. Ravel's Bolero (4:59)
 

Лог создания рипа

Exact Audio Copy V1.0 beta 2 from 29. April 2011
EAC extraction logfile from 22. October 2014, 20:47
Henry Mancini / "10" (Original Soundtrack) [2013 Warner Remaster]
Used drive : HL-DT-STBD-RE BH14NS40 Adapter: 0 ID: 2
Read mode : SecureUtilize accurate stream : YesDefeat audio cache : YesMake use of C2 pointers : No
Read offset correction : 6Overread into Lead-In and Lead-Out : NoFill up missing offset samples with silence : YesDelete leading and trailing silent blocks : NoNull samples used in CRC calculations : YesUsed interface : Native Win32 interface for Win NT & 2000
Used output format : User Defined EncoderSelected bitrate : 1024 kBit/sQuality : HighAdd ID3 tag : NoCommand line compressor : C:\Program Files (x86)\Exact Audio Copy\Flac\flac.exeAdditional command line options : -V -5 -T "artist=%albumartist%" -T "title=%title%" -T "album=%albumtitle%" -T "date=%year%" -T "genre=%genre%" -T "tracknumber=%tracknr%" %source%
TOC of the extracted CD
Track | Start | Length | Start sector | End sector --------------------------------------------------------- 1 | 0:00.00 | 1:22.25 | 0 | 6174 2 | 1:22.25 | 3:30.21 | 6175 | 21945 3 | 4:52.46 | 3:18.31 | 21946 | 36826 4 | 8:11.02 | 2:45.03 | 36827 | 49204 5 | 10:56.05 | 2:51.08 | 49205 | 62037 6 | 13:47.13 | 3:01.64 | 62038 | 75676 7 | 16:49.02 | 5:17.03 | 75677 | 99454 8 | 22:06.05 | 3:05.73 | 99455 | 113402 9 | 25:12.03 | 3:10.09 | 113403 | 127661 10 | 28:22.12 | 2:09.32 | 127662 | 137368 11 | 30:31.44 | 3:44.57 | 137369 | 154225 12 | 34:16.26 | 4:59.11 | 154226 | 176661
Range status and errors
Selected range
Filename C:\EAC\Henry Mancini - (1979) ''10'' (Original Soundtrack) [2013 Warner Remaster]\Henry Mancini - ''10'' (Original Soundtrack) [2013 Warner Remaster].wav
Peak level 100.0 % Extraction speed 5.1 X Range quality 100.0 % Test CRC EFD0FFA6 Copy CRC EFD0FFA6 Copy OK
No errors occurred
AccurateRip summary
Track 1 accurately ripped (confidence 3) [8F62EF80] (AR v2)Track 2 accurately ripped (confidence 3) [A1B42EAC] (AR v2)Track 3 accurately ripped (confidence 3) [FDF4CDCC] (AR v2)Track 4 accurately ripped (confidence 3) [93C7365E] (AR v2)Track 5 accurately ripped (confidence 3) [DEDD1D97] (AR v2)Track 6 accurately ripped (confidence 3) [3E1D4FF9] (AR v2)Track 7 accurately ripped (confidence 3) [90DDF426] (AR v2)Track 8 accurately ripped (confidence 3) [9AD292C4] (AR v2)Track 9 accurately ripped (confidence 3) [305B3218] (AR v2)Track 10 accurately ripped (confidence 3) [394CF9FA] (AR v2)Track 11 accurately ripped (confidence 3) [17E4933B] (AR v2)Track 12 accurately ripped (confidence 3) [62D12E6A] (AR v2)
All tracks accurately ripped
End of status report
==== Log checksum 8130236F64C3050423132FC0B17E58142A6D4F71F443B340FFC1687117A8C927 ====
[teatrix.ru].t10315.torrent 
Торрент: Зарегистрирован [ 2015-11-01 20:51 ] · 7F3A5F9472805C415F39BC7B30CA98A56E0FD502

Скачать .torrent

Скачать

8 KB

Статус: проверено
Скачан: 0 раз
Размер: 327 MB
terms.php



Быстрый ответ

Имя:

      
Для отправки сообщений необходимо включить JavaScript
Показать сообщения:    

Текущее время: 05-Дек 23:39

Часовой пояс: UTC + 3


Вы можете начинать темы
Вы можете отвечать на сообщения
Вы не можете редактировать свои сообщения
Вы не можете удалять свои сообщения
Вы не можете голосовать в опросах
Вы не можете прикреплять файлы к сообщениям
Вы можете скачивать файлы