(Score) Бэтмeн / Batman // Бэтмен возвращается / Batman Returns [The Danny Elfman Batman Collection, 4 CD] (by Danny Elfman) - 2014 (1989, 1992) [FLAC (tracks+.cue) lossless


Статистика раздачи [Обновить пиров]
Размер:  1.73 GB   |    Зарегистрирован:  1 год 1 месяц   |    Скачан:  0 раз

Полного источника не было: Никогда

Личеров:  2  [  0 KB/s  ]   Подробная статистика пиров
 
   
 
 
 

[Цитировать]

The Danny Elfman Batman Collection (4 CD)-Жанр: Score
Композитор: Danny Elfman
Год выпуска диска: 2014
Год выпуска фильма: 1989 (Batman), 1992 (Batman Returns)
Производитель диска: WEA Manufacturing, USA
Издатель (лейбл): La-La Land Records
Номер по каталогу: LLLCD 1327-Аудиокодек: FLAC (*.flac)
Тип рипа: tracks+.cue
Битрейт аудио: lossless
Продолжительность: 04:46:34
Источник: собственный рип
Наличие сканов в содержимом раздачи: да, 600dpi, в т.ч. буклет 48 стр.-Доп. инфо: Лимитированное издание, 3000 копий. Переиздание двух Expanded Archival Collection, которые вышли в 2010 г. Скор 1989 г. - с новым ремастерингом!
Ссылки - Batman (1989): Кинопоиск | IMDB | Wikipedia | SoundtrackCollector
Ссылки - Batman Returns (1992): Кинопоиск | IMDB | Wikipedia | SoundtrackCollector

ТреклистCD 1 - Batman (1989) - Original Score (Film Version)

01. Main Title [0:02:48.11]
02. Family / First Batman / Roof Fight [0:03:26.11]
03. Jack vs. Eckhardt [0:01:38.28]
04. Up Building / Card Snap [0:01:55.42]
05. Bat Zone / Axis Set-Up [0:01:53.57]
06. Shootout [0:05:42.23]
07. Dinner Transition / Kitchen Dinner / Surgery [0:02:59.24]
08. Face-Off / Beddy Bye [0:03:59.00]
09. Roasted Dude [0:01:03.70]
10. Vicki Spies (Flowers) [0:01:57.10]
11. Clown Attack [0:02:00.05]
12. Photos / Beautiful Dreamer [0:02:31.21]
13. Men at Work [0:00:34.48]
14. Paper Spin / Alicia's Mask [0:00:32.16]
15. Vicki Gets a Gift [0:01:14.01]
16. Alicia's Unmasking [0:01:10.04]
17. Batman to the Rescue / Batmobile Charge / Street Fight [0:04:26.00]
18. Descent Into Mystery [0:01:34.12]
19. Paper Throw [0:02:50.24]
20. The Joker's Poem [0:00:59.13]
21. Sad Pictures [0:00:38.66]
22. Dream / Challenge / Tender Bat Cave [0:04:28.09]
23. Charge of the Batmobile [0:01:46.16]
24. Joker Flies to Gotham (unused) / Batwing I [0:00:36.07]
25. Batwing II / Batwing III [0:06:03.17]
26. Cathedral Chase [0:05:08.12]
27. Waltz to the Death [0:03:58.39]
28. Showdown I / Showdown II [0:05:06.27]
29. Finale [0:01:49.34]
30. End Credits [0:01:29.20]

CD 2 - Batman (1989) - OST Tracks, Bonus Cues

01. The Batman Theme [0:02:37.20]
02. Roof Fight [0:01:22.24]
03. First Confrontation [0:04:43.15]
04. Kitchen / Surgery / Face-Off [0:03:09.17]
05. Flowers [0:01:50.74]
06. Clown Attack [0:01:45.63]
07. Batman to the Rescue [0:03:56.53]
08. Roasted Dude [0:01:01.47]
09. Photos / Beautiful Dreamer [0:02:30.52]
10. Descent Into Mystery [0:01:33.10]
11. The Bat Cave [0:02:34.64]
12. The Joker's Poem [0:00:58.74]
13. Childhood Remembered [0:02:42.48]
14. Love Theme [0:01:29.65]
15. Charge of the Batmobile [0:01:41.25]
16. Attack of the Batwing [0:04:44.56]
17. Up the Cathedral [0:05:04.49]
18. Waltz to the Death [0:03:55.65]
19. The Final Confrontation [0:03:47.51]
20. Finale [0:01:45.40]
21. Batman Theme Reprise [0:01:30.44]
22. News Theme [0:00:19.18]
23. Joker's Commercial [0:01:24.39]
24. Joker's Muzak (unused) [0:01:16.11]
25. Main Title (alternate 1) [0:02:42.56]
26. Photos / Beautiful Dreamer (alternate) [0:02:30.50]
27. Batman to the Rescue (original ending) [0:00:51.70]
28. Charge of the Batmobile (film edit) [0:01:50.55]
29. Main Title (alternate 2) [0:04:53.45]

CD 3 - Batman Returns (1992) - The Score

01. Birth Of A Penguin / Main Title [0:05:40.29]
02. Penguin Spies [0:01:11.45]
03. Shadow Of Doom / Clown Attack - Introducing The Bat [0:05:03.56]
04. Intro / The Zoo - The Lair [0:06:02.33]
05. Caught In The Act / Uh-Oh Max [0:02:00.70]
06. Kitty Party / Selina Transforms [0:05:32.25]
07. Penguin's Grand Deed [0:01:52.28]
08. The List Begins [0:00:47.55]
09. The Cemetery [0:02:58.03]
10. Catwoman Saves Joan / The New Woman [0:02:05.32]
11. Penguin's Surprise [0:01:45.59]
12. Bad, Bad Dog / Batman Vs. Circus - Selina's Shopping Spree [0:05:44.31]
13. Cat Chase [0:02:14.58]
14. Candidate Cobblepot [0:01:00.72]
15. The Plan / Kidnapping [0:02:34.08]
16. Sore Spots / Batman's Closet [0:03:24.63]
17. The Plot Unfolds [0:01:17.53]
18. Roof Top Encounters [0:04:51.32]
19. Batman's Wild Ride [0:04:21.28]
20. Fall From Grace [0:04:19.09]
21. Revealed / Party Crasher [0:03:18.39]

CD 4 - Batman Returns (1992) - The Score Continued

01. Umbrella Source / The Children's Hour - War [0:07:55.09]
02. Final Confrontation / Finale [0:09:17.52]
03. A Shadow Of Doubt / End Credits [0:06:17.51]
04. Siouxsie And The Banshees / Face To Face [0:04:24.23]
05. The Zoo (Alternate) [0:01:02.40]
06. The List Begins (Alternate) [0:00:47.59]
07. Cat Chase (Alternate Ending) [0:02:15.45]
08. Roof Top Encounters (Original) [0:04:51.40]
09. Fall From Grace (Alternate Ending) [0:04:20.06]
10. The Lair, Part I [0:00:57.40]
11. The Lair, Part II [0:04:53.52]
12. Selina Transforms, Part I [0:01:12.52]
13. Selina Transforms, Part II [0:04:17.20]
14. Batman Vs. The Circus [0:02:37.25]
15. Cat Suite [0:05:45.06]
16. A Shadow Of Doubt (Alternate) / End Credits (Alternate) [0:07:08.34]
17. Rick James / Super Freak [0:03:23.37]

Лог создания рипаCD 1

Exact Audio Copy V1.0 beta 3 from 29. August 2011
EAC extraction logfile from 7. June 2015, 14:38
Danny Elfman / Batman Collection - CD 01
Used drive : PLEXTOR CD-R PX-230A Adapter: 3 ID: 0
Read mode : SecureUtilize accurate stream : YesDefeat audio cache : YesMake use of C2 pointers : No
Read offset correction : 738Overread into Lead-In and Lead-Out : NoFill up missing offset samples with silence : YesDelete leading and trailing silent blocks : NoNull samples used in CRC calculations : YesUsed interface : Native Win32 interface for Win NT & 2000Gap handling : Appended to previous track
Used output format : User Defined EncoderSelected bitrate : 1024 kBit/sQuality : HighAdd ID3 tag : NoCommand line compressor : C:\Program Files (x86)\Exact Audio Copy\FLAC\FLAC.EXEAdditional command line options : -6 -V -T "ARTIST=%artist%" -T "TITLE=%title%" -T "ALBUM=%albumtitle%" -T "DATE=%year%"-T "TRACKNUMBER=%tracknr%" -T "GENRE=%genre%" -T "COMMENT=%comment%" -T "ALBUMARTIST=%albuminterpret%" -T "COMPOSER=%composer%"-T "DISCNUMBER=%cdnumber%" -T "TOTALDISCS=%totalcds%" -T "TOTALTRACKS=%numtracks%" %source% -o %dest%
TOC of the extracted CD
Track | Start | Length | Start sector | End sector --------------------------------------------------------- 1 | 0:00.00 | 2:48.11 | 0 | 12610 2 | 2:48.11 | 3:26.11 | 12611 | 28071 3 | 6:14.22 | 1:38.28 | 28072 | 35449 4 | 7:52.50 | 1:55.42 | 35450 | 44116 5 | 9:48.17 | 1:53.57 | 44117 | 52648 6 | 11:41.74 | 5:42.23 | 52649 | 78321 7 | 17:24.22 | 2:59.24 | 78322 | 91770 8 | 20:23.46 | 3:59.00 | 91771 | 109695 9 | 24:22.46 | 1:03.70 | 109696 | 114490 10 | 25:26.41 | 1:57.10 | 114491 | 123275 11 | 27:23.51 | 2:00.05 | 123276 | 132280 12 | 29:23.56 | 2:31.21 | 132281 | 143626 13 | 31:55.02 | 0:34.48 | 143627 | 146224 14 | 32:29.50 | 0:32.16 | 146225 | 148640 15 | 33:01.66 | 1:14.01 | 148641 | 154191 16 | 34:15.67 | 1:10.04 | 154192 | 159445 17 | 35:25.71 | 4:26.00 | 159446 | 179395 18 | 39:51.71 | 1:34.12 | 179396 | 186457 19 | 41:26.08 | 2:50.24 | 186458 | 199231 20 | 44:16.32 | 0:59.13 | 199232 | 203669 21 | 45:15.45 | 0:38.66 | 203670 | 206585 22 | 45:54.36 | 4:28.09 | 206586 | 226694 23 | 50:22.45 | 1:46.16 | 226695 | 234660 24 | 52:08.61 | 0:36.07 | 234661 | 237367 25 | 52:44.68 | 6:03.17 | 237368 | 264609 26 | 58:48.10 | 5:08.12 | 264610 | 287721 27 | 63:56.22 | 3:58.39 | 287722 | 305610 28 | 67:54.61 | 5:06.27 | 305611 | 328587 29 | 73:01.13 | 1:49.34 | 328588 | 336796 30 | 74:50.47 | 1:29.20 | 336797 | 343491
Track 1
Filename C:\Music\01 - Danny Elfman - Main Title.wav
Pre-gap length 0:00:02.00
Peak level 99.6 % Extraction speed 4.9 X Track quality 100.0 % Test CRC D3C0A66A Copy CRC D3C0A66A Accurately ripped (confidence 13) [613C59CA] (AR v2) Copy OK
Track 2
Filename C:\Music\02 - Danny Elfman - Family , First Batman , Roof Fight.wav
Pre-gap length 0:00:02.00
Peak level 99.7 % Extraction speed 4.6 X Track quality 99.9 % Test CRC 884FDDBF Copy CRC 884FDDBF Accurately ripped (confidence 13) [F3937BFD] (AR v2) Copy OK
Track 3
Filename C:\Music\03 - Danny Elfman - Jack vs. Eckhardt.wav
Pre-gap length 0:00:02.00
Peak level 60.9 % Extraction speed 4.5 X Track quality 100.0 % Test CRC 50419774 Copy CRC 50419774 Accurately ripped (confidence 13) [71633C5A] (AR v2) Copy OK
Track 4
Filename C:\Music\04 - Danny Elfman - Up Building , Card Snap.wav
Pre-gap length 0:00:02.00
Peak level 93.1 % Extraction speed 4.5 X Track quality 100.0 % Test CRC 0F4E16A6 Copy CRC 0F4E16A6 Accurately ripped (confidence 13) [154051DD] (AR v2) Copy OK
Track 5
Filename C:\Music\05 - Danny Elfman - Bat Zone , Axis Set-Up.wav
Pre-gap length 0:00:02.00
Peak level 73.7 % Extraction speed 4.7 X Track quality 100.0 % Test CRC 9CA3F261 Copy CRC 9CA3F261 Accurately ripped (confidence 13) [9BF7682D] (AR v2) Copy OK
Track 6
Filename C:\Music\06 - Danny Elfman - Shootout.wav
Pre-gap length 0:00:02.00
Peak level 99.8 % Extraction speed 5.1 X Track quality 99.9 % Test CRC 2FC57031 Copy CRC 2FC57031 Accurately ripped (confidence 13) [DD5F69E2] (AR v2) Copy OK
Track 7
Filename C:\Music\07 - Danny Elfman - Dinner Transition , Kitchen Dinner , Surgery.wav
Pre-gap length 0:00:02.00
Peak level 93.9 % Extraction speed 5.1 X Track quality 100.0 % Test CRC 3EFDD322 Copy CRC 3EFDD322 Accurately ripped (confidence 13) [ED0750C5] (AR v2) Copy OK
Track 8
Filename C:\Music\08 - Danny Elfman - Face-Off , Beddy Bye.wav
Pre-gap length 0:00:02.00
Peak level 97.8 % Extraction speed 5.4 X Track quality 100.0 % Test CRC 3C3ED2B1 Copy CRC 3C3ED2B1 Accurately ripped (confidence 13) [37D147E0] (AR v2) Copy OK
Track 9
Filename C:\Music\09 - Danny Elfman - Roasted Dude.wav
Pre-gap length 0:00:02.00
Peak level 44.9 % Extraction speed 3.9 X Track quality 100.0 % Test CRC D1611EB3 Copy CRC D1611EB3 Accurately ripped (confidence 13) [C6D38646] (AR v2) Copy OK
Track 10
Filename C:\Music\10 - Danny Elfman - Vicki Spies (Flowers).wav
Pre-gap length 0:00:02.00
Peak level 85.0 % Extraction speed 4.7 X Track quality 100.0 % Test CRC 1160766B Copy CRC 1160766B Accurately ripped (confidence 13) [54CE8CC1] (AR v2) Copy OK
Track 11
Filename C:\Music\11 - Danny Elfman - Clown Attack.wav
Pre-gap length 0:00:02.00
Peak level 90.0 % Extraction speed 4.7 X Track quality 100.0 % Test CRC A6F17F64 Copy CRC A6F17F64 Accurately ripped (confidence 13) [ECB04326] (AR v2) Copy OK
Track 12
Filename C:\Music\12 - Danny Elfman - Photos , Beautiful Dreamer.wav
Pre-gap length 0:00:02.00
Peak level 87.7 % Extraction speed 5.0 X Track quality 100.0 % Test CRC 1583C264 Copy CRC 1583C264 Accurately ripped (confidence 13) [650249FC] (AR v2) Copy OK
Track 13
Filename C:\Music\13 - Danny Elfman - Men at Work.wav
Pre-gap length 0:00:02.00
Peak level 99.0 % Extraction speed 2.9 X Track quality 100.0 % Test CRC 9E8FF5D1 Copy CRC 9E8FF5D1 Accurately ripped (confidence 13) [B70CB7E6] (AR v2) Copy OK
Track 14
Filename C:\Music\14 - Danny Elfman - Paper Spin , Alicia's Mask.wav
Pre-gap length 0:00:02.00
Peak level 74.3 % Extraction speed 1.8 X Track quality 99.6 % Test CRC 247BD716 Copy CRC 247BD716 Accurately ripped (confidence 13) [B179111A] (AR v2) Copy OK
Track 15
Filename C:\Music\15 - Danny Elfman - Vicki Gets a Gift.wav
Pre-gap length 0:00:02.00
Peak level 99.6 % Extraction speed 3.1 X Track quality 99.8 % Test CRC 55DB77A7 Copy CRC 55DB77A7 Accurately ripped (confidence 13) [52F21B11] (AR v2) Copy OK
Track 16
Filename C:\Music\16 - Danny Elfman - Alicia's Unmasking.wav
Pre-gap length 0:00:02.00
Peak level 95.5 % Extraction speed 3.0 X Track quality 99.8 % Test CRC 1C9507C1 Copy CRC 1C9507C1 Accurately ripped (confidence 13) [CCDD9FAC] (AR v2) Copy OK
Track 17
Filename C:\Music\17 - Danny Elfman - Batman to the Rescue , Batmobile Charge , Street Fight.wav
Pre-gap length 0:00:02.00
Peak level 99.5 % Extraction speed 5.4 X Track quality 100.0 % Test CRC FE094B2A Copy CRC FE094B2A Accurately ripped (confidence 13) [7BC468E7] (AR v2) Copy OK
Track 18
Filename C:\Music\18 - Danny Elfman - Descent Into Mystery.wav
Pre-gap length 0:00:02.00
Peak level 99.9 % Extraction speed 4.4 X Track quality 100.0 % Test CRC 4144EA7F Copy CRC 4144EA7F Accurately ripped (confidence 13) [2EEB9C23] (AR v2) Copy OK
Track 19
Filename C:\Music\19 - Danny Elfman - Paper Throw.wav
Pre-gap length 0:00:02.00
Peak level 99.7 % Extraction speed 4.3 X Track quality 99.9 % Test CRC 892DDB6C Copy CRC 892DDB6C Accurately ripped (confidence 13) [2F5A18F2] (AR v2) Copy OK
Track 20
Filename C:\Music\20 - Danny Elfman - The Joker's Poem.wav
Pre-gap length 0:00:02.00
Peak level 99.6 % Extraction speed 3.8 X Track quality 100.0 % Test CRC 16ADF761 Copy CRC 16ADF761 Accurately ripped (confidence 13) [365A852D] (AR v2) Copy OK
Track 21
Filename C:\Music\21 - Danny Elfman - Sad Pictures.wav
Pre-gap length 0:00:02.00
Peak level 26.2 % Extraction speed 2.9 X Track quality 100.0 % Test CRC 02A41757 Copy CRC 02A41757 Accurately ripped (confidence 13) [2FEB6F14] (AR v2) Copy OK
Track 22
Filename C:\Music\22 - Danny Elfman - Dream , Challenge , Tender Bat Cave.wav
Pre-gap length 0:00:02.00
Peak level 56.5 % Extraction speed 5.4 X Track quality 100.0 % Test CRC 9A757553 Copy CRC 9A757553 Accurately ripped (confidence 13) [A3D681C9] (AR v2) Copy OK
Track 23
Filename C:\Music\23 - Danny Elfman - Charge of the Batmobile.wav
Pre-gap length 0:00:02.00
Peak level 99.8 % Extraction speed 3.6 X Track quality 99.8 % Test CRC 58D9F761 Copy CRC 58D9F761 Accurately ripped (confidence 13) [232D68CE] (AR v2) Copy OK
Track 24
Filename C:\Music\24 - Danny Elfman - Joker Flies to Gotham (unused) , Batwing I.wav
Pre-gap length 0:00:02.00
Peak level 99.4 % Extraction speed 2.9 X Track quality 100.0 % Test CRC 252D2EEE Copy CRC 252D2EEE Accurately ripped (confidence 13) [68D03BE7] (AR v2) Copy OK
Track 25
Filename C:\Music\25 - Danny Elfman - Batwing II , Batwing III.wav
Pre-gap length 0:00:02.00
Peak level 99.5 % Extraction speed 5.1 X Track quality 99.9 % Test CRC 257B1219 Copy CRC 257B1219 Accurately ripped (confidence 13) [11AD10EB] (AR v2) Copy OK
Track 26
Filename C:\Music\26 - Danny Elfman - Cathedral Chase.wav
Pre-gap length 0:00:02.00
Peak level 99.0 % Extraction speed 5.5 X Track quality 100.0 % Test CRC AD888064 Copy CRC AD888064 Accurately ripped (confidence 12) [6B1EB5BA] (AR v2) Copy OK
Track 27
Filename C:\Music\27 - Danny Elfman - Waltz to the Death.wav
Pre-gap length 0:00:02.00
Peak level 99.7 % Extraction speed 5.3 X Track quality 100.0 % Test CRC 6C3AE582 Copy CRC 6C3AE582 Accurately ripped (confidence 13) [23B86C33] (AR v2) Copy OK
Track 28
Filename C:\Music\28 - Danny Elfman - Showdown I , Showdown II.wav
Pre-gap length 0:00:02.00
Peak level 99.6 % Extraction speed 5.4 X Track quality 100.0 % Test CRC 47C8BB84 Copy CRC 47C8BB84 Accurately ripped (confidence 13) [541B5921] (AR v2) Copy OK
Track 29
Filename C:\Music\29 - Danny Elfman - Finale.wav
Pre-gap length 0:00:02.00
Peak level 99.9 % Extraction speed 4.5 X Track quality 100.0 % Test CRC FAB559D8 Copy CRC FAB559D8 Accurately ripped (confidence 13) [ADE1B22D] (AR v2) Copy OK
Track 30
Filename C:\Music\30 - Danny Elfman - End Credits.wav
Pre-gap length 0:00:02.00
Peak level 99.6 % Extraction speed 4.0 X Track quality 100.0 % Test CRC AB3B285C Copy CRC AB3B285C Accurately ripped (confidence 13) [7581C90B] (AR v2) Copy OK
All tracks accurately ripped
No errors occurred
End of status report
==== Log checksum AEA8500DFCC4870C60E68805FF9A0F6087B92CAD369F5DB022DD3BCD372FE385 ====

CD 2

Exact Audio Copy V1.0 beta 3 from 29. August 2011
EAC extraction logfile from 7. June 2015, 15:16
Danny Elfman / Batman Collection - CD 02
Used drive : PLEXTOR CD-R PX-230A Adapter: 3 ID: 0
Read mode : SecureUtilize accurate stream : YesDefeat audio cache : YesMake use of C2 pointers : No
Read offset correction : 738Overread into Lead-In and Lead-Out : NoFill up missing offset samples with silence : YesDelete leading and trailing silent blocks : NoNull samples used in CRC calculations : YesUsed interface : Native Win32 interface for Win NT & 2000Gap handling : Appended to previous track
Used output format : User Defined EncoderSelected bitrate : 1024 kBit/sQuality : HighAdd ID3 tag : NoCommand line compressor : C:\Program Files (x86)\Exact Audio Copy\FLAC\FLAC.EXEAdditional command line options : -6 -V -T "ARTIST=%artist%" -T "TITLE=%title%" -T "ALBUM=%albumtitle%" -T "DATE=%year%"-T "TRACKNUMBER=%tracknr%" -T "GENRE=%genre%" -T "COMMENT=%comment%" -T "ALBUMARTIST=%albuminterpret%" -T "COMPOSER=%composer%"-T "DISCNUMBER=%cdnumber%" -T "TOTALDISCS=%totalcds%" -T "TOTALTRACKS=%numtracks%" %source% -o %dest%
TOC of the extracted CD
Track | Start | Length | Start sector | End sector --------------------------------------------------------- 1 | 0:00.00 | 2:37.20 | 0 | 11794 2 | 2:37.20 | 1:22.24 | 11795 | 17968 3 | 3:59.44 | 4:43.15 | 17969 | 39208 4 | 8:42.59 | 3:09.17 | 39209 | 53400 5 | 11:52.01 | 1:50.74 | 53401 | 61724 6 | 13:43.00 | 1:45.63 | 61725 | 69662 7 | 15:28.63 | 3:56.53 | 69663 | 87415 8 | 19:25.41 | 1:01.47 | 87416 | 92037 9 | 20:27.13 | 2:30.52 | 92038 | 103339 10 | 22:57.65 | 1:33.10 | 103340 | 110324 11 | 24:31.00 | 2:34.64 | 110325 | 121938 12 | 27:05.64 | 0:58.74 | 121939 | 126362 13 | 28:04.63 | 2:42.48 | 126363 | 138560 14 | 30:47.36 | 1:29.65 | 138561 | 145300 15 | 32:17.26 | 1:41.25 | 145301 | 152900 16 | 33:58.51 | 4:44.56 | 152901 | 174256 17 | 38:43.32 | 5:04.49 | 174257 | 197105 18 | 43:48.06 | 3:55.65 | 197106 | 214795 19 | 47:43.71 | 3:47.51 | 214796 | 231871 20 | 51:31.47 | 1:45.40 | 231872 | 239786 21 | 53:17.12 | 1:30.44 | 239787 | 246580 22 | 54:47.56 | 0:19.18 | 246581 | 248023 23 | 55:06.74 | 1:24.39 | 248024 | 254362 24 | 56:31.38 | 1:16.11 | 254363 | 260073 25 | 57:47.49 | 2:42.56 | 260074 | 272279 26 | 60:30.30 | 2:30.50 | 272280 | 283579 27 | 63:01.05 | 0:51.70 | 283580 | 287474 28 | 63:53.00 | 1:50.55 | 287475 | 295779 29 | 65:43.55 | 4:53.45 | 295780 | 317799
Track 1
Filename C:\Music\01 - Danny Elfman - The Batman Theme.wav
Pre-gap length 0:00:02.00
Peak level 99.2 % Extraction speed 4.8 X Track quality 100.0 % Test CRC 6BF30208 Copy CRC 6BF30208 Accurately ripped (confidence 12) [F4D19CD2] (AR v2) Copy OK
Track 2
Filename C:\Music\02 - Danny Elfman - Roof Fight.wav
Peak level 88.1 % Extraction speed 3.3 X Track quality 99.8 % Test CRC 5D38ABEE Copy CRC 5D38ABEE Accurately ripped (confidence 12) [E148C9D6] (AR v2) Copy OK
Track 3
Filename C:\Music\03 - Danny Elfman - First Confrontation.wav
Pre-gap length 0:00:01.52
Peak level 98.1 % Extraction speed 5.0 X Track quality 99.9 % Test CRC B6545567 Copy CRC B6545567 Accurately ripped (confidence 12) [370802EE] (AR v2) Copy OK
Track 4
Filename C:\Music\04 - Danny Elfman - Kitchen , Surgery , Face-Off.wav
Peak level 96.2 % Extraction speed 4.5 X Track quality 99.9 % Test CRC 2106E643 Copy CRC 2106E643 Accurately ripped (confidence 11) [0CB33E3D] (AR v2) Copy OK
Track 5
Filename C:\Music\05 - Danny Elfman - Flowers.wav
Pre-gap length 0:00:01.35
Peak level 49.4 % Extraction speed 4.7 X Track quality 100.0 % Test CRC 6B9948B8 Copy CRC 6B9948B8 Accurately ripped (confidence 12) [16E388C8] (AR v2) Copy OK
Track 6
Filename C:\Music\06 - Danny Elfman - Clown Attack.wav
Peak level 86.8 % Extraction speed 4.6 X Track quality 100.0 % Test CRC 478F0C78 Copy CRC 478F0C78 Accurately ripped (confidence 12) [86AB9E46] (AR v2) Copy OK
Track 7
Filename C:\Music\07 - Danny Elfman - Batman to the Rescue.wav
Pre-gap length 0:00:00.57
Peak level 99.2 % Extraction speed 4.8 X Track quality 99.9 % Test CRC 0C96570E Copy CRC 0C96570E Accurately ripped (confidence 12) [679E3802] (AR v2) Copy OK
Track 8
Filename C:\Music\08 - Danny Elfman - Roasted Dude.wav
Peak level 42.8 % Extraction speed 3.9 X Track quality 100.0 % Test CRC A4ADB9A4 Copy CRC A4ADB9A4 Accurately ripped (confidence 12) [0EF7F8BC] (AR v2) Copy OK
Track 9
Filename C:\Music\09 - Danny Elfman - Photos , Beautiful Dreamer.wav
Pre-gap length 0:00:00.17
Peak level 56.9 % Extraction speed 4.2 X Track quality 99.9 % Test CRC 77CDD943 Copy CRC 77CDD943 Accurately ripped (confidence 12) [CE890CD2] (AR v2) Copy OK
Track 10
Filename C:\Music\10 - Danny Elfman - Descent Into Mystery.wav
Pre-gap length 0:00:02.50
Peak level 91.9 % Extraction speed 4.4 X Track quality 100.0 % Test CRC 9FF9CF69 Copy CRC 9FF9CF69 Accurately ripped (confidence 12) [4ABB6FA1] (AR v2) Copy OK
Track 11
Filename C:\Music\11 - Danny Elfman - The Bat Cave.wav
Pre-gap length 0:00:01.40
Peak level 87.4 % Extraction speed 5.0 X Track quality 100.0 % Test CRC 6F41031F Copy CRC 6F41031F Accurately ripped (confidence 12) [B37B83FD] (AR v2) Copy OK
Track 12
Filename C:\Music\12 - Danny Elfman - The Joker's Poem.wav
Peak level 82.8 % Extraction speed 3.8 X Track quality 100.0 % Test CRC 9C1CE67D Copy CRC 9C1CE67D Accurately ripped (confidence 12) [77ED62B6] (AR v2) Copy OK
Track 13
Filename C:\Music\13 - Danny Elfman - Childhood Remembered.wav
Pre-gap length 0:00:01.50
Peak level 46.0 % Extraction speed 4.2 X Track quality 99.9 % Test CRC 6627DF3B Copy CRC 6627DF3B Accurately ripped (confidence 12) [2D024625] (AR v2) Copy OK
Track 14
Filename C:\Music\14 - Danny Elfman - Love Theme.wav
Peak level 22.2 % Extraction speed 4.4 X Track quality 100.0 % Test CRC D2D8762A Copy CRC D2D8762A Accurately ripped (confidence 12) [4A759A11] (AR v2) Copy OK
Track 15
Filename C:\Music\15 - Danny Elfman - Charge of the Batmobile.wav
Peak level 99.3 % Extraction speed 4.5 X Track quality 100.0 % Test CRC 1957501F Copy CRC 1957501F Accurately ripped (confidence 12) [4EEDD549] (AR v2) Copy OK
Track 16
Filename C:\Music\16 - Danny Elfman - Attack of the Batwing.wav
Peak level 99.5 % Extraction speed 5.5 X Track quality 100.0 % Test CRC 9BAA525E Copy CRC 9BAA525E Accurately ripped (confidence 12) [A3D88819] (AR v2) Copy OK
Track 17
Filename C:\Music\17 - Danny Elfman - Up the Cathedral.wav
Peak level 91.4 % Extraction speed 5.5 X Track quality 100.0 % Test CRC 3CAF8166 Copy CRC 3CAF8166 Accurately ripped (confidence 12) [7244469C] (AR v2) Copy OK
Track 18
Filename C:\Music\18 - Danny Elfman - Waltz to the Death.wav
Peak level 75.0 % Extraction speed 5.3 X Track quality 100.0 % Test CRC E16B927E Copy CRC E16B927E Accurately ripped (confidence 12) [4360319B] (AR v2) Copy OK
Track 19
Filename C:\Music\19 - Danny Elfman - The Final Confrontation.wav
Peak level 89.0 % Extraction speed 5.3 X Track quality 100.0 % Test CRC FE2A57BA Copy CRC FE2A57BA Accurately ripped (confidence 12) [0A34B2CD] (AR v2) Copy OK
Track 20
Filename C:\Music\20 - Danny Elfman - Finale.wav
Peak level 98.2 % Extraction speed 4.6 X Track quality 100.0 % Test CRC 2212CA39 Copy CRC 2212CA39 Accurately ripped (confidence 12) [AA3E2871] (AR v2) Copy OK
Track 21
Filename C:\Music\21 - Danny Elfman - Batman Theme Reprise.wav
Peak level 96.4 % Extraction speed 4.3 X Track quality 100.0 % Test CRC 952C6357 Copy CRC 952C6357 Accurately ripped (confidence 12) [1FB60FA9] (AR v2) Copy OK
Track 22
Filename C:\Music\22 - Danny Elfman - News Theme.wav
Pre-gap length 0:00:04.00
Peak level 99.7 % Extraction speed 1.2 X Track quality 99.4 % Test CRC 882AE0A6 Copy CRC 882AE0A6 Accurately ripped (confidence 12) [F7EC9E8B] (AR v2) Copy OK
Track 23
Filename C:\Music\23 - Danny Elfman - Joker's Commercial.wav
Pre-gap length 0:00:02.00
Peak level 91.6 % Extraction speed 4.3 X Track quality 100.0 % Test CRC F470AFF2 Copy CRC F470AFF2 Accurately ripped (confidence 12) [B8452B93] (AR v2) Copy OK
Track 24
Filename C:\Music\24 - Danny Elfman - Joker's Muzak (unused).wav
Pre-gap length 0:00:02.00
Peak level 56.2 % Extraction speed 4.1 X Track quality 100.0 % Test CRC 18145A57 Copy CRC 18145A57 Accurately ripped (confidence 12) [A41CACD4] (AR v2) Copy OK
Track 25
Filename C:\Music\25 - Danny Elfman - Main Title (alternate 1).wav
Pre-gap length 0:00:04.00
Peak level 99.8 % Extraction speed 5.0 X Track quality 100.0 % Test CRC 9AF9A009 Copy CRC 9AF9A009 Accurately ripped (confidence 12) [76AC4551] (AR v2) Copy OK
Track 26
Filename C:\Music\26 - Danny Elfman - Photos , Beautiful Dreamer (alternate).wav
Pre-gap length 0:00:02.00
Peak level 99.0 % Extraction speed 4.9 X Track quality 100.0 % Test CRC BE59F900 Copy CRC BE59F900 Accurately ripped (confidence 12) [B0E67BD5] (AR v2) Copy OK
Track 27
Filename C:\Music\27 - Danny Elfman - Batman to the Rescue (original ending).wav
Pre-gap length 0:00:02.00
Peak level 93.3 % Extraction speed 3.5 X Track quality 100.0 % Test CRC 4B1EB571 Copy CRC 4B1EB571 Accurately ripped (confidence 12) [7D546B82] (AR v2) Copy OK
Track 28
Filename C:\Music\28 - Danny Elfman - Charge of the Batmobile (film edit).wav
Pre-gap length 0:00:02.00
Peak level 97.6 % Extraction speed 4.5 X Track quality 100.0 % Test CRC 0B777E2A Copy CRC 0B777E2A Accurately ripped (confidence 12) [73745D83] (AR v2) Copy OK
Track 29
Filename C:\Music\29 - Danny Elfman - Main Title (alternate 2).wav
Pre-gap length 0:00:02.00
Peak level 99.9 % Extraction speed 5.3 X Track quality 100.0 % Test CRC A6C715E7 Copy CRC A6C715E7 Accurately ripped (confidence 12) [B2C74E1F] (AR v2) Copy OK
All tracks accurately ripped
No errors occurred
End of status report
==== Log checksum AD24FC0D32FDCDF43A6E3AB90EAF20AB49BFFD77ADF2F68567C9025F3F7F0A85 ====

CD 3

Exact Audio Copy V1.0 beta 3 from 29. August 2011
EAC extraction logfile from 7. June 2015, 15:47
Danny Elfman / Batman Collection - CD 03
Used drive : PLEXTOR CD-R PX-230A Adapter: 3 ID: 0
Read mode : SecureUtilize accurate stream : YesDefeat audio cache : YesMake use of C2 pointers : No
Read offset correction : 738Overread into Lead-In and Lead-Out : NoFill up missing offset samples with silence : YesDelete leading and trailing silent blocks : NoNull samples used in CRC calculations : YesUsed interface : Native Win32 interface for Win NT & 2000Gap handling : Appended to previous track
Used output format : User Defined EncoderSelected bitrate : 1024 kBit/sQuality : HighAdd ID3 tag : NoCommand line compressor : C:\Program Files (x86)\Exact Audio Copy\FLAC\FLAC.EXEAdditional command line options : -6 -V -T "ARTIST=%artist%" -T "TITLE=%title%" -T "ALBUM=%albumtitle%" -T "DATE=%year%"-T "TRACKNUMBER=%tracknr%" -T "GENRE=%genre%" -T "COMMENT=%comment%" -T "ALBUMARTIST=%albuminterpret%" -T "COMPOSER=%composer%"-T "DISCNUMBER=%cdnumber%" -T "TOTALDISCS=%totalcds%" -T "TOTALTRACKS=%numtracks%" %source% -o %dest%
TOC of the extracted CD
Track | Start | Length | Start sector | End sector --------------------------------------------------------- 1 | 0:00.00 | 5:40.29 | 0 | 25528 2 | 5:40.29 | 1:11.45 | 25529 | 30898 3 | 6:51.74 | 5:03.56 | 30899 | 53679 4 | 11:55.55 | 6:02.33 | 53680 | 80862 5 | 17:58.13 | 2:00.70 | 80863 | 89932 6 | 19:59.08 | 5:32.25 | 89933 | 114857 7 | 25:31.33 | 1:52.28 | 114858 | 123285 8 | 27:23.61 | 0:47.55 | 123286 | 126865 9 | 28:11.41 | 2:58.03 | 126866 | 140218 10 | 31:09.44 | 2:05.32 | 140219 | 149625 11 | 33:15.01 | 1:45.59 | 149626 | 157559 12 | 35:00.60 | 5:44.31 | 157560 | 183390 13 | 40:45.16 | 2:14.58 | 183391 | 193498 14 | 42:59.74 | 1:00.72 | 193499 | 198070 15 | 44:00.71 | 2:34.08 | 198071 | 209628 16 | 46:35.04 | 3:24.63 | 209629 | 224991 17 | 49:59.67 | 1:17.53 | 224992 | 230819 18 | 51:17.45 | 4:51.32 | 230820 | 252676 19 | 56:09.02 | 4:21.28 | 252677 | 272279 20 | 60:30.30 | 4:19.09 | 272280 | 291713 21 | 64:49.39 | 3:18.39 | 291714 | 306602
Track 1
Filename C:\Music\01 - Danny Elfman - Birth Of A Penguin , Main Title.wav
Pre-gap length 0:00:02.00
Peak level 99.0 % Extraction speed 5.5 X Track quality 100.0 % Test CRC E399E017 Copy CRC E399E017 Accurately ripped (confidence 26) [7405B285] (AR v2) Copy OK
Track 2
Filename C:\Music\02 - Danny Elfman - Penguin Spies.wav
Pre-gap length 0:00:02.00
Peak level 99.6 % Extraction speed 4.1 X Track quality 100.0 % Test CRC DE4B76A5 Copy CRC DE4B76A5 Accurately ripped (confidence 27) [97883375] (AR v2) Copy OK
Track 3
Filename C:\Music\03 - Danny Elfman - Shadow Of Doom , Clown Attack - Introducing The Bat.wav
Pre-gap length 0:00:02.00
Peak level 99.7 % Extraction speed 5.1 X Track quality 99.9 % Test CRC E417AE21 Copy CRC E417AE21 Accurately ripped (confidence 27) [1974A350] (AR v2) Copy OK
Track 4
Filename C:\Music\04 - Danny Elfman - Intro , The Zoo - The Lair.wav
Pre-gap length 0:00:02.00
Peak level 81.7 % Extraction speed 5.7 X Track quality 100.0 % Test CRC 2C99AE41 Copy CRC 2C99AE41 Accurately ripped (confidence 27) [834D4951] (AR v2) Copy OK
Track 5
Filename C:\Music\05 - Danny Elfman - Caught In The Act , Uh-Oh Max.wav
Pre-gap length 0:00:02.00
Peak level 51.4 % Extraction speed 4.8 X Track quality 100.0 % Test CRC 52CAA27B Copy CRC 52CAA27B Accurately ripped (confidence 27) [BCC41AEB] (AR v2) Copy OK
Track 6
Filename C:\Music\06 - Danny Elfman - Kitty Party , Selina Transforms.wav
Pre-gap length 0:00:02.00
Peak level 96.0 % Extraction speed 5.1 X Track quality 99.9 % Test CRC 2F4BCA53 Copy CRC 2F4BCA53 Accurately ripped (confidence 27) [C963C3F7] (AR v2) Copy OK
Track 7
Filename C:\Music\07 - Danny Elfman - Penguin's Grand Deed.wav
Pre-gap length 0:00:02.00
Peak level 84.2 % Extraction speed 4.7 X Track quality 100.0 % Test CRC C54A34EB Copy CRC C54A34EB Accurately ripped (confidence 27) [552CCAE5] (AR v2) Copy OK
Track 8
Filename C:\Music\08 - Danny Elfman - The List Begins.wav
Pre-gap length 0:00:02.00
Peak level 66.4 % Extraction speed 3.5 X Track quality 100.0 % Test CRC 0A5E75A2 Copy CRC 0A5E75A2 Accurately ripped (confidence 27) [92642683] (AR v2) Copy OK
Track 9
Filename C:\Music\09 - Danny Elfman - The Cemetery.wav
Pre-gap length 0:00:02.00
Peak level 99.6 % Extraction speed 5.2 X Track quality 100.0 % Test CRC 2CA6DBBF Copy CRC 2CA6DBBF Accurately ripped (confidence 27) [0E0FE6E3] (AR v2) Copy OK
Track 10
Filename C:\Music\10 - Danny Elfman - Catwoman Saves Joan , The New Woman.wav
Pre-gap length 0:00:02.00
Peak level 99.8 % Extraction speed 4.8 X Track quality 100.0 % Test CRC D6DE3664 Copy CRC D6DE3664 Accurately ripped (confidence 27) [BE198713] (AR v2) Copy OK
Track 11
Filename C:\Music\11 - Danny Elfman - Penguin's Surprise.wav
Pre-gap length 0:00:02.00
Peak level 88.6 % Extraction speed 4.6 X Track quality 100.0 % Test CRC 86C7AB5E Copy CRC 86C7AB5E Accurately ripped (confidence 27) [23E0BD69] (AR v2) Copy OK
Track 12
Filename C:\Music\12 - Danny Elfman - Bad, Bad Dog , Batman Vs. Circus - Selina's Shopping Spree.wav
Pre-gap length 0:00:02.00
Peak level 99.9 % Extraction speed 5.6 X Track quality 100.0 % Test CRC E15B7E44 Copy CRC E15B7E44 Accurately ripped (confidence 26) [27F61605] (AR v2) Copy OK
Track 13
Filename C:\Music\13 - Danny Elfman - Cat Chase.wav
Pre-gap length 0:00:02.00
Peak level 99.2 % Extraction speed 4.0 X Track quality 99.9 % Test CRC 6ACFEA68 Copy CRC 6ACFEA68 Accurately ripped (confidence 27) [F5A47429] (AR v2) Copy OK
Track 14
Filename C:\Music\14 - Danny Elfman - Candidate Cobblepot.wav
Pre-gap length 0:00:02.00
Peak level 39.0 % Extraction speed 3.8 X Track quality 100.0 % Test CRC DA6B509C Copy CRC DA6B509C Accurately ripped (confidence 27) [18A71513] (AR v2) Copy OK
Track 15
Filename C:\Music\15 - Danny Elfman - The Plan , Kidnapping.wav
Pre-gap length 0:00:02.00
Peak level 54.8 % Extraction speed 5.0 X Track quality 100.0 % Test CRC E38F3D40 Copy CRC E38F3D40 Accurately ripped (confidence 27) [0A2E4753] (AR v2) Copy OK
Track 16
Filename C:\Music\16 - Danny Elfman - Sore Spots , Batman's Closet.wav
Pre-gap length 0:00:02.00
Peak level 99.5 % Extraction speed 4.6 X Track quality 99.9 % Test CRC 1F73D93E Copy CRC 1F73D93E Accurately ripped (confidence 27) [F53C1357] (AR v2) Copy OK
Track 17
Filename C:\Music\17 - Danny Elfman - The Plot Unfolds.wav
Pre-gap length 0:00:02.00
Peak level 83.7 % Extraction speed 3.1 X Track quality 99.8 % Test CRC BF915D67 Copy CRC BF915D67 Accurately ripped (confidence 27) [0E83309E] (AR v2) Copy OK
Track 18
Filename C:\Music\18 - Danny Elfman - Roof Top Encounters.wav
Pre-gap length 0:00:02.00
Peak level 99.5 % Extraction speed 5.5 X Track quality 100.0 % Test CRC 7CF5C173 Copy CRC 7CF5C173 Accurately ripped (confidence 27) [C5069DC6] (AR v2) Copy OK
Track 19
Filename C:\Music\19 - Danny Elfman - Batman's Wild Ride.wav
Pre-gap length 0:00:02.00
Peak level 92.8 % Extraction speed 5.4 X Track quality 100.0 % Test CRC F1932101 Copy CRC F1932101 Accurately ripped (confidence 27) [C6E62B6D] (AR v2) Copy OK
Track 20
Filename C:\Music\20 - Danny Elfman - Fall From Grace.wav
Pre-gap length 0:00:02.00
Peak level 98.9 % Extraction speed 5.3 X Track quality 100.0 % Test CRC B6507BEC Copy CRC B6507BEC Accurately ripped (confidence 27) [66B1C4B9] (AR v2) Copy OK
Track 21
Filename C:\Music\21 - Danny Elfman - Revealed , Party Crasher.wav
Pre-gap length 0:00:02.00
Peak level 99.9 % Extraction speed 5.0 X Track quality 100.0 % Test CRC 18DF6087 Copy CRC 18DF6087 Accurately ripped (confidence 26) [9C95C425] (AR v2) Copy OK
All tracks accurately ripped
No errors occurred
End of status report
==== Log checksum BB53D826EA184A25E8250314A328EF74E8DD992D3CCDEBB96C9F9EC513C71077 ====

CD 4

Exact Audio Copy V1.0 beta 3 from 29. August 2011
EAC extraction logfile from 7. June 2015, 16:54
Danny Elfman / Batman Collection - CD 04
Used drive : PLEXTOR CD-R PX-230A Adapter: 3 ID: 0
Read mode : SecureUtilize accurate stream : YesDefeat audio cache : YesMake use of C2 pointers : No
Read offset correction : 738Overread into Lead-In and Lead-Out : NoFill up missing offset samples with silence : YesDelete leading and trailing silent blocks : NoNull samples used in CRC calculations : YesUsed interface : Native Win32 interface for Win NT & 2000Gap handling : Appended to previous track
Used output format : User Defined EncoderSelected bitrate : 1024 kBit/sQuality : HighAdd ID3 tag : NoCommand line compressor : C:\Program Files (x86)\Exact Audio Copy\FLAC\FLAC.EXEAdditional command line options : -6 -V -T "ARTIST=%artist%" -T "TITLE=%title%" -T "ALBUM=%albumtitle%" -T "DATE=%year%"-T "TRACKNUMBER=%tracknr%" -T "GENRE=%genre%" -T "COMMENT=%comment%" -T "ALBUMARTIST=%albuminterpret%" -T "COMPOSER=%composer%"-T "DISCNUMBER=%cdnumber%" -T "TOTALDISCS=%totalcds%" -T "TOTALTRACKS=%numtracks%" %source% -o %dest%
TOC of the extracted CD
Track | Start | Length | Start sector | End sector --------------------------------------------------------- 1 | 0:00.00 | 7:55.09 | 0 | 35633 2 | 7:55.09 | 9:17.52 | 35634 | 77460 3 | 17:12.61 | 6:17.51 | 77461 | 105786 4 | 23:30.37 | 4:24.23 | 105787 | 125609 5 | 27:54.60 | 1:02.40 | 125610 | 130299 6 | 28:57.25 | 0:47.59 | 130300 | 133883 7 | 29:45.09 | 2:15.45 | 133884 | 144053 8 | 32:00.54 | 4:51.40 | 144054 | 165918 9 | 36:52.19 | 4:20.06 | 165919 | 185424 10 | 41:12.25 | 0:57.40 | 185425 | 189739 11 | 42:09.65 | 4:53.52 | 189740 | 211766 12 | 47:03.42 | 1:12.52 | 211767 | 217218 13 | 48:16.19 | 4:17.20 | 217219 | 236513 14 | 52:33.39 | 2:37.25 | 236514 | 248313 15 | 55:10.64 | 5:45.06 | 248314 | 274194 16 | 60:55.70 | 7:08.34 | 274195 | 306328 17 | 68:04.29 | 3:23.37 | 306329 | 321590
Track 1
Filename C:\Music\01 - Danny Elfman - Umbrella Source , The Children's Hour - War.wav
Pre-gap length 0:00:02.00
Peak level 98.8 % Extraction speed 5.7 X Track quality 100.0 % Test CRC 72E6360B Copy CRC 72E6360B Accurately ripped (confidence 5) [26341289] (AR v2) Copy OK
Track 2
Filename C:\Music\02 - Danny Elfman - Final Confrontation , Finale.wav
Pre-gap length 0:00:02.00
Peak level 99.9 % Extraction speed 5.4 X Track quality 100.0 % Test CRC C2AB2439 Copy CRC C2AB2439 Accurately ripped (confidence 5) [896EB2F8] (AR v2) Copy OK
Track 3
Filename C:\Music\03 - Danny Elfman - A Shadow Of Doubt , End Credits.wav
Pre-gap length 0:00:02.00
Peak level 94.9 % Extraction speed 5.7 X Track quality 100.0 % Test CRC A3B992AA Copy CRC A3B992AA Accurately ripped (confidence 5) [68166882] (AR v2) Copy OK
Track 4
Filename C:\Music\04 - Danny Elfman - Siouxsie And The Banshees , Face To Face.wav
Pre-gap length 0:00:02.00
Peak level 99.2 % Extraction speed 5.3 X Track quality 100.0 % Test CRC 09D35B80 Copy CRC 09D35B80 Accurately ripped (confidence 5) [DF92D49D] (AR v2) Copy OK
Track 5
Filename C:\Music\05 - Danny Elfman - The Zoo (Alternate).wav
Pre-gap length 0:00:06.00
Peak level 97.2 % Extraction speed 3.9 X Track quality 100.0 % Test CRC 5BCF3BB8 Copy CRC 5BCF3BB8 Accurately ripped (confidence 5) [AD805964] (AR v2) Copy OK
Track 6
Filename C:\Music\06 - Danny Elfman - The List Begins (Alternate).wav
Pre-gap length 0:00:02.00
Peak level 44.6 % Extraction speed 2.5 X Track quality 99.7 % Test CRC 32E3D0FA Copy CRC 32E3D0FA Accurately ripped (confidence 5) [D00730EA] (AR v2) Copy OK
Track 7
Filename C:\Music\07 - Danny Elfman - Cat Chase (Alternate Ending).wav
Pre-gap length 0:00:02.00
Peak level 99.9 % Extraction speed 4.9 X Track quality 100.0 % Test CRC 87B4D1A3 Copy CRC 87B4D1A3 Accurately ripped (confidence 5) [CC3DE8D7] (AR v2) Copy OK
Track 8
Filename C:\Music\08 - Danny Elfman - Roof Top Encounters (Original).wav
Pre-gap length 0:00:02.00
Peak level 97.3 % Extraction speed 5.4 X Track quality 100.0 % Test CRC 42B28051 Copy CRC 42B28051 Accurately ripped (confidence 5) [CAE15343] (AR v2) Copy OK
Track 9
Filename C:\Music\09 - Danny Elfman - Fall From Grace (Alternate Ending).wav
Pre-gap length 0:00:02.00
Peak level 93.3 % Extraction speed 5.4 X Track quality 100.0 % Test CRC 273CC5D3 Copy CRC 273CC5D3 Accurately ripped (confidence 5) [7D8C8B4D] (AR v2) Copy OK
Track 10
Filename C:\Music\10 - Danny Elfman - The Lair, Part I.wav
Pre-gap length 0:00:03.00
Peak level 83.5 % Extraction speed 3.8 X Track quality 100.0 % Test CRC AE30F0A9 Copy CRC AE30F0A9 Accurately ripped (confidence 5) [482356E2] (AR v2) Copy OK
Track 11
Filename C:\Music\11 - Danny Elfman - The Lair, Part II.wav
Peak level 79.4 % Extraction speed 5.5 X Track quality 100.0 % Test CRC 8974399B Copy CRC 8974399B Accurately ripped (confidence 5) [F87AA79C] (AR v2) Copy OK
Track 12
Filename C:\Music\12 - Danny Elfman - Selina Transforms, Part I.wav
Pre-gap length 0:00:02.00
Peak level 88.6 % Extraction speed 3.0 X Track quality 99.8 % Test CRC 8D6DC8DF Copy CRC 8D6DC8DF Accurately ripped (confidence 5) [89F31009] (AR v2) Copy OK
Track 13
Filename C:\Music\13 - Danny Elfman - Selina Transforms, Part II.wav
Peak level 78.7 % Extraction speed 4.8 X Track quality 99.9 % Test CRC BC31C679 Copy CRC BC31C679 Accurately ripped (confidence 5) [DD03D419] (AR v2) Copy OK
Track 14
Filename C:\Music\14 - Danny Elfman - Batman Vs. The Circus.wav
Pre-gap length 0:00:02.00
Peak level 99.8 % Extraction speed 4.1 X Track quality 99.9 % Test CRC ABD29F2B Copy CRC ABD29F2B Accurately ripped (confidence 5) [5E725226] (AR v2) Copy OK
Track 15
Filename C:\Music\15 - Danny Elfman - Cat Suite.wav
Pre-gap length 0:00:02.00
Peak level 99.6 % Extraction speed 5.5 X Track quality 100.0 % Test CRC 7F3D461C Copy CRC 7F3D461C Accurately ripped (confidence 5) [3762233C] (AR v2) Copy OK
Track 16
Filename C:\Music\16 - Danny Elfman - A Shadow Of Doubt (Alternate) , End Credits (Alternate).wav
Pre-gap length 0:00:02.00
Peak level 87.7 % Extraction speed 5.6 X Track quality 100.0 % Test CRC 4427E2D3 Copy CRC 4427E2D3 Accurately ripped (confidence 4) [B6081874] (AR v2) Copy OK
Track 17
Filename C:\Music\17 - Danny Elfman - Rick James , Super Freak.wav
Pre-gap length 0:00:06.00
Peak level 84.8 % Extraction speed 5.0 X Track quality 100.0 % Test CRC 7E46129F Copy CRC 7E46129F Accurately ripped (confidence 5) [C3E33D2A] (AR v2) Copy OK
All tracks accurately ripped
No errors occurred
End of status report
==== Log checksum 22D3F166ECE2A206EC51FC9BF80DCB337D04C9C58E040EFD52EBC253FF1D1273 ====

Содержание индексной карты (.CUE)CD 1

REM GENRE SoundtrackREM DATE 2014REM DISCID C211E31EREM COMMENT "ExactAudioCopy v1.0b3"PERFORMER "Danny Elfman"TITLE "Batman Collection - CD 01"FILE "01 - Danny Elfman - Main Title.wav" WAVE TRACK 01 AUDIO TITLE "Main Title" PERFORMER "Danny Elfman" FLAGS DCP INDEX 01 00:00:00 TRACK 02 AUDIO TITLE "Family / First Batman / Roof Fight" PERFORMER "Danny Elfman" FLAGS DCP INDEX 00 02:46:11FILE "02 - Danny Elfman - Family , First Batman , Roof Fight.wav" WAVE INDEX 01 00:00:00 TRACK 03 AUDIO TITLE "Jack vs. Eckhardt" PERFORMER "Danny Elfman" FLAGS DCP INDEX 00 03:24:11FILE "03 - Danny Elfman - Jack vs. Eckhardt.wav" WAVE INDEX 01 00:00:00 TRACK 04 AUDIO TITLE "Up Building / Card Snap" PERFORMER "Danny Elfman" FLAGS DCP INDEX 00 01:36:28FILE "04 - Danny Elfman - Up Building , Card Snap.wav" WAVE INDEX 01 00:00:00 TRACK 05 AUDIO TITLE "Bat Zone / Axis Set-Up" PERFORMER "Danny Elfman" FLAGS DCP INDEX 00 01:53:42FILE "05 - Danny Elfman - Bat Zone , Axis Set-Up.wav" WAVE INDEX 01 00:00:00 TRACK 06 AUDIO TITLE "Shootout" PERFORMER "Danny Elfman" FLAGS DCP INDEX 00 01:51:57FILE "06 - Danny Elfman - Shootout.wav" WAVE INDEX 01 00:00:00 TRACK 07 AUDIO TITLE "Dinner Transition / Kitchen Dinner / Surgery" PERFORMER "Danny Elfman" FLAGS DCP INDEX 00 05:40:23FILE "07 - Danny Elfman - Dinner Transition , Kitchen Dinner , Surgery.wav" WAVE INDEX 01 00:00:00 TRACK 08 AUDIO TITLE "Face-Off / Beddy Bye" PERFORMER "Danny Elfman" FLAGS DCP INDEX 00 02:57:24FILE "08 - Danny Elfman - Face-Off , Beddy Bye.wav" WAVE INDEX 01 00:00:00 TRACK 09 AUDIO TITLE "Roasted Dude" PERFORMER "Danny Elfman" FLAGS DCP INDEX 00 03:57:00FILE "09 - Danny Elfman - Roasted Dude.wav" WAVE INDEX 01 00:00:00 TRACK 10 AUDIO TITLE "Vicki Spies (Flowers)" PERFORMER "Danny Elfman" FLAGS DCP INDEX 00 01:01:70FILE "10 - Danny Elfman - Vicki Spies (Flowers).wav" WAVE INDEX 01 00:00:00 TRACK 11 AUDIO TITLE "Clown Attack" PERFORMER "Danny Elfman" FLAGS DCP INDEX 00 01:55:10FILE "11 - Danny Elfman - Clown Attack.wav" WAVE INDEX 01 00:00:00 TRACK 12 AUDIO TITLE "Photos / Beautiful Dreamer" PERFORMER "Danny Elfman" FLAGS DCP INDEX 00 01:58:05FILE "12 - Danny Elfman - Photos , Beautiful Dreamer.wav" WAVE INDEX 01 00:00:00 TRACK 13 AUDIO TITLE "Men at Work" PERFORMER "Danny Elfman" FLAGS DCP INDEX 00 02:29:21FILE "13 - Danny Elfman - Men at Work.wav" WAVE INDEX 01 00:00:00 TRACK 14 AUDIO TITLE "Paper Spin / Alicia's Mask" PERFORMER "Danny Elfman" FLAGS DCP INDEX 00 00:32:48FILE "14 - Danny Elfman - Paper Spin , Alicia's Mask.wav" WAVE INDEX 01 00:00:00 TRACK 15 AUDIO TITLE "Vicki Gets a Gift" PERFORMER "Danny Elfman" FLAGS DCP INDEX 00 00:30:16FILE "15 - Danny Elfman - Vicki Gets a Gift.wav" WAVE INDEX 01 00:00:00 TRACK 16 AUDIO TITLE "Alicia's Unmasking" PERFORMER "Danny Elfman" FLAGS DCP INDEX 00 01:12:01FILE "16 - Danny Elfman - Alicia's Unmasking.wav" WAVE INDEX 01 00:00:00 TRACK 17 AUDIO TITLE "Batman to the Rescue / Batmobile Charge / Street Fight" PERFORMER "Danny Elfman" FLAGS DCP INDEX 00 01:08:04FILE "17 - Danny Elfman - Batman to the Rescue , Batmobile Charge , Street Fight.wav" WAVE INDEX 01 00:00:00 TRACK 18 AUDIO TITLE "Descent Into Mystery" PERFORMER "Danny Elfman" FLAGS DCP INDEX 00 04:24:00FILE "18 - Danny Elfman - Descent Into Mystery.wav" WAVE INDEX 01 00:00:00 TRACK 19 AUDIO TITLE "Paper Throw" PERFORMER "Danny Elfman" FLAGS DCP INDEX 00 01:32:12FILE "19 - Danny Elfman - Paper Throw.wav" WAVE INDEX 01 00:00:00 TRACK 20 AUDIO TITLE "The Joker's Poem" PERFORMER "Danny Elfman" FLAGS DCP INDEX 00 02:48:24FILE "20 - Danny Elfman - The Joker's Poem.wav" WAVE INDEX 01 00:00:00 TRACK 21 AUDIO TITLE "Sad Pictures" PERFORMER "Danny Elfman" FLAGS DCP INDEX 00 00:57:13FILE "21 - Danny Elfman - Sad Pictures.wav" WAVE INDEX 01 00:00:00 TRACK 22 AUDIO TITLE "Dream / Challenge / Tender Bat Cave" PERFORMER "Danny Elfman" FLAGS DCP INDEX 00 00:36:66FILE "22 - Danny Elfman - Dream , Challenge , Tender Bat Cave.wav" WAVE INDEX 01 00:00:00 TRACK 23 AUDIO TITLE "Charge of the Batmobile" PERFORMER "Danny Elfman" FLAGS DCP INDEX 00 04:26:09FILE "23 - Danny Elfman - Charge of the Batmobile.wav" WAVE INDEX 01 00:00:00 TRACK 24 AUDIO TITLE "Joker Flies to Gotham (unused) / Batwing I" PERFORMER "Danny Elfman" FLAGS DCP INDEX 00 01:44:16FILE "24 - Danny Elfman - Joker Flies to Gotham (unused) , Batwing I.wav" WAVE INDEX 01 00:00:00 TRACK 25 AUDIO TITLE "Batwing II / Batwing III" PERFORMER "Danny Elfman" FLAGS DCP INDEX 00 00:34:07FILE "25 - Danny Elfman - Batwing II , Batwing III.wav" WAVE INDEX 01 00:00:00 TRACK 26 AUDIO TITLE "Cathedral Chase" PERFORMER "Danny Elfman" FLAGS DCP INDEX 00 06:01:17FILE "26 - Danny Elfman - Cathedral Chase.wav" WAVE INDEX 01 00:00:00 TRACK 27 AUDIO TITLE "Waltz to the Death" PERFORMER "Danny Elfman" FLAGS DCP INDEX 00 05:06:12FILE "27 - Danny Elfman - Waltz to the Death.wav" WAVE INDEX 01 00:00:00 TRACK 28 AUDIO TITLE "Showdown I / Showdown II" PERFORMER "Danny Elfman" FLAGS DCP INDEX 00 03:56:39FILE "28 - Danny Elfman - Showdown I , Showdown II.wav" WAVE INDEX 01 00:00:00 TRACK 29 AUDIO TITLE "Finale" PERFORMER "Danny Elfman" FLAGS DCP INDEX 00 05:04:27FILE "29 - Danny Elfman - Finale.wav" WAVE INDEX 01 00:00:00 TRACK 30 AUDIO TITLE "End Credits" PERFORMER "Danny Elfman" FLAGS DCP INDEX 00 01:47:34FILE "30 - Danny Elfman - End Credits.wav" WAVE INDEX 01 00:00:00

CD 2

REM GENRE SoundtrackREM DATE 2014REM DISCID CA108D1DREM COMMENT "ExactAudioCopy v1.0b3"PERFORMER "Danny Elfman"TITLE "Batman Collection - CD 02"FILE "01 - Danny Elfman - The Batman Theme.wav" WAVE TRACK 01 AUDIO TITLE "The Batman Theme" PERFORMER "Danny Elfman" FLAGS DCP INDEX 01 00:00:00FILE "02 - Danny Elfman - Roof Fight.wav" WAVE TRACK 02 AUDIO TITLE "Roof Fight" PERFORMER "Danny Elfman" FLAGS DCP INDEX 01 00:00:00 TRACK 03 AUDIO TITLE "First Confrontation" PERFORMER "Danny Elfman" FLAGS DCP INDEX 00 01:20:47FILE "03 - Danny Elfman - First Confrontation.wav" WAVE INDEX 01 00:00:00FILE "04 - Danny Elfman - Kitchen , Surgery , Face-Off.wav" WAVE TRACK 04 AUDIO TITLE "Kitchen / Surgery / Face-Off" PERFORMER "Danny Elfman" FLAGS DCP INDEX 01 00:00:00 TRACK 05 AUDIO TITLE "Flowers" PERFORMER "Danny Elfman" FLAGS DCP INDEX 00 03:07:57FILE "05 - Danny Elfman - Flowers.wav" WAVE INDEX 01 00:00:00FILE "06 - Danny Elfman - Clown Attack.wav" WAVE TRACK 06 AUDIO TITLE "Clown Attack" PERFORMER "Danny Elfman" FLAGS DCP INDEX 01 00:00:00 TRACK 07 AUDIO TITLE "Batman to the Rescue" PERFORMER "Danny Elfman" FLAGS DCP INDEX 00 01:45:06FILE "07 - Danny Elfman - Batman to the Rescue.wav" WAVE INDEX 01 00:00:00FILE "08 - Danny Elfman - Roasted Dude.wav" WAVE TRACK 08 AUDIO TITLE "Roasted Dude" PERFORMER "Danny Elfman" FLAGS DCP INDEX 01 00:00:00 TRACK 09 AUDIO TITLE "Photos / Beautiful Dreamer" PERFORMER "Danny Elfman" FLAGS DCP INDEX 00 01:01:30FILE "09 - Danny Elfman - Photos , Beautiful Dreamer.wav" WAVE INDEX 01 00:00:00 TRACK 10 AUDIO TITLE "Descent Into Mystery" PERFORMER "Danny Elfman" FLAGS DCP INDEX 00 02:28:02FILE "10 - Danny Elfman - Descent Into Mystery.wav" WAVE INDEX 01 00:00:00 TRACK 11 AUDIO TITLE "The Bat Cave" PERFORMER "Danny Elfman" FLAGS DCP INDEX 00 01:31:45FILE "11 - Danny Elfman - The Bat Cave.wav" WAVE INDEX 01 00:00:00FILE "12 - Danny Elfman - The Joker's Poem.wav" WAVE TRACK 12 AUDIO TITLE "The Joker's Poem" PERFORMER "Danny Elfman" FLAGS DCP INDEX 01 00:00:00 TRACK 13 AUDIO TITLE "Childhood Remembered" PERFORMER "Danny Elfman" FLAGS DCP INDEX 00 00:57:24FILE "13 - Danny Elfman - Childhood Remembered.wav" WAVE INDEX 01 00:00:00FILE "14 - Danny Elfman - Love Theme.wav" WAVE TRACK 14 AUDIO TITLE "Love Theme" PERFORMER "Danny Elfman" FLAGS DCP INDEX 01 00:00:00FILE "15 - Danny Elfman - Charge of the Batmobile.wav" WAVE TRACK 15 AUDIO TITLE "Charge of the Batmobile" PERFORMER "Danny Elfman" FLAGS DCP INDEX 01 00:00:00FILE "16 - Danny Elfman - Attack of the Batwing.wav" WAVE TRACK 16 AUDIO TITLE "Attack of the Batwing" PERFORMER "Danny Elfman" FLAGS DCP INDEX 01 00:00:00FILE "17 - Danny Elfman - Up the Cathedral.wav" WAVE TRACK 17 AUDIO TITLE "Up the Cathedral" PERFORMER "Danny Elfman" FLAGS DCP INDEX 01 00:00:00FILE "18 - Danny Elfman - Waltz to the Death.wav" WAVE TRACK 18 AUDIO TITLE "Waltz to the Death" PERFORMER "Danny Elfman" FLAGS DCP INDEX 01 00:00:00FILE "19 - Danny Elfman - The Final Confrontation.wav" WAVE TRACK 19 AUDIO TITLE "The Final Confrontation" PERFORMER "Danny Elfman" FLAGS DCP INDEX 01 00:00:00FILE "20 - Danny Elfman - Finale.wav" WAVE TRACK 20 AUDIO TITLE "Finale" PERFORMER "Danny Elfman" FLAGS DCP INDEX 01 00:00:00FILE "21 - Danny Elfman - Batman Theme Reprise.wav" WAVE TRACK 21 AUDIO TITLE "Batman Theme Reprise" PERFORMER "Danny Elfman" FLAGS DCP INDEX 01 00:00:00 TRACK 22 AUDIO TITLE "News Theme" PERFORMER "Danny Elfman" FLAGS DCP INDEX 00 01:26:44FILE "22 - Danny Elfman - News Theme.wav" WAVE INDEX 01 00:00:00 TRACK 23 AUDIO TITLE "Joker's Commercial" PERFORMER "Danny Elfman" FLAGS DCP INDEX 00 00:17:18FILE "23 - Danny Elfman - Joker's Commercial.wav" WAVE INDEX 01 00:00:00 TRACK 24 AUDIO TITLE "Joker's Muzak (unused)" PERFORMER "Danny Elfman" FLAGS DCP INDEX 00 01:22:39FILE "24 - Danny Elfman - Joker's Muzak (unused).wav" WAVE INDEX 01 00:00:00 TRACK 25 AUDIO TITLE "Main Title (alternate 1)" PERFORMER "Danny Elfman" FLAGS DCP INDEX 00 01:12:11FILE "25 - Danny Elfman - Main Title (alternate 1).wav" WAVE INDEX 01 00:00:00 TRACK 26 AUDIO TITLE "Photos / Beautiful Dreamer (alternate)" PERFORMER "Danny Elfman" FLAGS DCP INDEX 00 02:40:56FILE "26 - Danny Elfman - Photos , Beautiful Dreamer (alternate).wav" WAVE INDEX 01 00:00:00 TRACK 27 AUDIO TITLE "Batman to the Rescue (original ending)" PERFORMER "Danny Elfman" FLAGS DCP INDEX 00 02:28:50FILE "27 - Danny Elfman - Batman to the Rescue (original ending).wav" WAVE INDEX 01 00:00:00 TRACK 28 AUDIO TITLE "Charge of the Batmobile (film edit)" PERFORMER "Danny Elfman" FLAGS DCP INDEX 00 00:49:70FILE "28 - Danny Elfman - Charge of the Batmobile (film edit).wav" WAVE INDEX 01 00:00:00 TRACK 29 AUDIO TITLE "Main Title (alternate 2)" PERFORMER "Danny Elfman" FLAGS DCP INDEX 00 01:48:55FILE "29 - Danny Elfman - Main Title (alternate 2).wav" WAVE INDEX 01 00:00:00

CD 3

REM GENRE SoundtrackREM DATE 2014REM DISCID 1F0FF815REM COMMENT "ExactAudioCopy v1.0b3"PERFORMER "Danny Elfman"TITLE "Batman Collection - CD 03"FILE "01 - Danny Elfman - Birth Of A Penguin , Main Title.wav" WAVE TRACK 01 AUDIO TITLE "Birth Of A Penguin / Main Title" PERFORMER "Danny Elfman" FLAGS DCP INDEX 01 00:00:00 TRACK 02 AUDIO TITLE "Penguin Spies" PERFORMER "Danny Elfman" FLAGS DCP INDEX 00 05:38:29FILE "02 - Danny Elfman - Penguin Spies.wav" WAVE INDEX 01 00:00:00 TRACK 03 AUDIO TITLE "Shadow Of Doom / Clown Attack - Introducing The Bat" PERFORMER "Danny Elfman" FLAGS DCP INDEX 00 01:09:45FILE "03 - Danny Elfman - Shadow Of Doom , Clown Attack - Introducing The Bat.wav" WAVE INDEX 01 00:00:00 TRACK 04 AUDIO TITLE "Intro / The Zoo - The Lair" PERFORMER "Danny Elfman" FLAGS DCP INDEX 00 05:01:56FILE "04 - Danny Elfman - Intro , The Zoo - The Lair.wav" WAVE INDEX 01 00:00:00 TRACK 05 AUDIO TITLE "Caught In The Act / Uh-Oh Max" PERFORMER "Danny Elfman" FLAGS DCP INDEX 00 06:00:33FILE "05 - Danny Elfman - Caught In The Act , Uh-Oh Max.wav" WAVE INDEX 01 00:00:00 TRACK 06 AUDIO TITLE "Kitty Party / Selina Transforms" PERFORMER "Danny Elfman" FLAGS DCP INDEX 00 01:58:70FILE "06 - Danny Elfman - Kitty Party , Selina Transforms.wav" WAVE INDEX 01 00:00:00 TRACK 07 AUDIO TITLE "Penguin's Grand Deed" PERFORMER "Danny Elfman" FLAGS DCP INDEX 00 05:30:25FILE "07 - Danny Elfman - Penguin's Grand Deed.wav" WAVE INDEX 01 00:00:00 TRACK 08 AUDIO TITLE "The List Begins" PERFORMER "Danny Elfman" FLAGS DCP INDEX 00 01:50:28FILE "08 - Danny Elfman - The List Begins.wav" WAVE INDEX 01 00:00:00 TRACK 09 AUDIO TITLE "The Cemetery" PERFORMER "Danny Elfman" FLAGS DCP INDEX 00 00:45:55FILE "09 - Danny Elfman - The Cemetery.wav" WAVE INDEX 01 00:00:00 TRACK 10 AUDIO TITLE "Catwoman Saves Joan / The New Woman" PERFORMER "Danny Elfman" FLAGS DCP INDEX 00 02:56:03FILE "10 - Danny Elfman - Catwoman Saves Joan , The New Woman.wav" WAVE INDEX 01 00:00:00 TRACK 11 AUDIO TITLE "Penguin's Surprise" PERFORMER "Danny Elfman" FLAGS DCP INDEX 00 02:03:32FILE "11 - Danny Elfman - Penguin's Surprise.wav" WAVE INDEX 01 00:00:00 TRACK 12 AUDIO TITLE "Bad, Bad Dog / Batman Vs. Circus - Selina's Shopping Spree" PERFORMER "Danny Elfman" FLAGS DCP INDEX 00 01:43:59FILE "12 - Danny Elfman - Bad, Bad Dog , Batman Vs. Circus - Selina's Shopping Spree.wav" WAVE INDEX 01 00:00:00 TRACK 13 AUDIO TITLE "Cat Chase" PERFORMER "Danny Elfman" FLAGS DCP INDEX 00 05:42:31FILE "13 - Danny Elfman - Cat Chase.wav" WAVE INDEX 01 00:00:00 TRACK 14 AUDIO TITLE "Candidate Cobblepot" PERFORMER "Danny Elfman" FLAGS DCP INDEX 00 02:12:58FILE "14 - Danny Elfman - Candidate Cobblepot.wav" WAVE INDEX 01 00:00:00 TRACK 15 AUDIO TITLE "The Plan / Kidnapping" PERFORMER "Danny Elfman" FLAGS DCP INDEX 00 00:58:72FILE "15 - Danny Elfman - The Plan , Kidnapping.wav" WAVE INDEX 01 00:00:00 TRACK 16 AUDIO TITLE "Sore Spots / Batman's Closet" PERFORMER "Danny Elfman" FLAGS DCP INDEX 00 02:32:08FILE "16 - Danny Elfman - Sore Spots , Batman's Closet.wav" WAVE INDEX 01 00:00:00 TRACK 17 AUDIO TITLE "The Plot Unfolds" PERFORMER "Danny Elfman" FLAGS DCP INDEX 00 03:22:63FILE "17 - Danny Elfman - The Plot Unfolds.wav" WAVE INDEX 01 00:00:00 TRACK 18 AUDIO TITLE "Roof Top Encounters" PERFORMER "Danny Elfman" FLAGS DCP INDEX 00 01:15:53FILE "18 - Danny Elfman - Roof Top Encounters.wav" WAVE INDEX 01 00:00:00 TRACK 19 AUDIO TITLE "Batman's Wild Ride" PERFORMER "Danny Elfman" FLAGS DCP INDEX 00 04:49:32FILE "19 - Danny Elfman - Batman's Wild Ride.wav" WAVE INDEX 01 00:00:00 TRACK 20 AUDIO TITLE "Fall From Grace" PERFORMER "Danny Elfman" FLAGS DCP INDEX 00 04:19:28FILE "20 - Danny Elfman - Fall From Grace.wav" WAVE INDEX 01 00:00:00 TRACK 21 AUDIO TITLE "Revealed / Party Crasher" PERFORMER "Danny Elfman" FLAGS DCP INDEX 00 04:17:09FILE "21 - Danny Elfman - Revealed , Party Crasher.wav" WAVE INDEX 01 00:00:00

CD 4

REM GENRE SoundtrackREM DATE 2014REM DISCID 0110BF11REM COMMENT "ExactAudioCopy v1.0b3"PERFORMER "Danny Elfman"TITLE "Batman Collection - CD 04"FILE "01 - Danny Elfman - Umbrella Source , The Children's Hour - War.wav" WAVE TRACK 01 AUDIO TITLE "Umbrella Source / The Children's Hour - War" PERFORMER "Danny Elfman" FLAGS DCP INDEX 01 00:00:00 TRACK 02 AUDIO TITLE "Final Confrontation / Finale" PERFORMER "Danny Elfman" FLAGS DCP INDEX 00 07:53:09FILE "02 - Danny Elfman - Final Confrontation , Finale.wav" WAVE INDEX 01 00:00:00 TRACK 03 AUDIO TITLE "A Shadow Of Doubt / End Credits" PERFORMER "Danny Elfman" FLAGS DCP INDEX 00 09:15:52FILE "03 - Danny Elfman - A Shadow Of Doubt , End Credits.wav" WAVE INDEX 01 00:00:00 TRACK 04 AUDIO TITLE "Siouxsie And The Banshees / Face To Face" PERFORMER "Danny Elfman" FLAGS DCP INDEX 00 06:15:51FILE "04 - Danny Elfman - Siouxsie And The Banshees , Face To Face.wav" WAVE INDEX 01 00:00:00 TRACK 05 AUDIO TITLE "The Zoo (Alternate)" PERFORMER "Danny Elfman" FLAGS DCP INDEX 00 04:18:23FILE "05 - Danny Elfman - The Zoo (Alternate).wav" WAVE INDEX 01 00:00:00 TRACK 06 AUDIO TITLE "The List Begins (Alternate)" PERFORMER "Danny Elfman" FLAGS DCP INDEX 00 01:00:40FILE "06 - Danny Elfman - The List Begins (Alternate).wav" WAVE INDEX 01 00:00:00 TRACK 07 AUDIO TITLE "Cat Chase (Alternate Ending)" PERFORMER "Danny Elfman" FLAGS DCP INDEX 00 00:45:59FILE "07 - Danny Elfman - Cat Chase (Alternate Ending).wav" WAVE INDEX 01 00:00:00 TRACK 08 AUDIO TITLE "Roof Top Encounters (Original)" PERFORMER "Danny Elfman" FLAGS DCP INDEX 00 02:13:45FILE "08 - Danny Elfman - Roof Top Encounters (Original).wav" WAVE INDEX 01 00:00:00 TRACK 09 AUDIO TITLE "Fall From Grace (Alternate Ending)" PERFORMER "Danny Elfman" FLAGS DCP INDEX 00 04:49:40FILE "09 - Danny Elfman - Fall From Grace (Alternate Ending).wav" WAVE INDEX 01 00:00:00 TRACK 10 AUDIO TITLE "The Lair, Part I" PERFORMER "Danny Elfman" FLAGS DCP INDEX 00 04:17:06FILE "10 - Danny Elfman - The Lair, Part I.wav" WAVE INDEX 01 00:00:00FILE "11 - Danny Elfman - The Lair, Part II.wav" WAVE TRACK 11 AUDIO TITLE "The Lair, Part II" PERFORMER "Danny Elfman" FLAGS DCP INDEX 01 00:00:00 TRACK 12 AUDIO TITLE "Selina Transforms, Part I" PERFORMER "Danny Elfman" FLAGS DCP INDEX 00 04:51:52FILE "12 - Danny Elfman - Selina Transforms, Part I.wav" WAVE INDEX 01 00:00:00FILE "13 - Danny Elfman - Selina Transforms, Part II.wav" WAVE TRACK 13 AUDIO TITLE "Selina Transforms, Part II" PERFORMER "Danny Elfman" FLAGS DCP INDEX 01 00:00:00 TRACK 14 AUDIO TITLE "Batman Vs. The Circus" PERFORMER "Danny Elfman" FLAGS DCP INDEX 00 04:15:20FILE "14 - Danny Elfman - Batman Vs. The Circus.wav" WAVE INDEX 01 00:00:00 TRACK 15 AUDIO TITLE "Cat Suite" PERFORMER "Danny Elfman" FLAGS DCP INDEX 00 02:35:25FILE "15 - Danny Elfman - Cat Suite.wav" WAVE INDEX 01 00:00:00 TRACK 16 AUDIO TITLE "A Shadow Of Doubt (Alternate) / End Credits (Alternate)" PERFORMER "Danny Elfman" FLAGS DCP INDEX 00 05:43:06FILE "16 - Danny Elfman - A Shadow Of Doubt (Alternate) , End Credits (Alternate).wav" WAVE INDEX 01 00:00:00 TRACK 17 AUDIO TITLE "Rick James / Super Freak" PERFORMER "Danny Elfman" FLAGS DCP INDEX 00 07:02:34FILE "17 - Danny Elfman - Rick James , Super Freak.wav" WAVE INDEX 01 00:00:00
[teatrix.ru].t10316.torrent 
Торрент: Зарегистрирован [ 2015-11-01 20:51 ] · 8DA13C2DED7CD31889C1D00AECC3CB7F71106FF2

Скачать .torrent

Скачать

29 KB

Статус: проверено
Скачан: 0 раз
Размер: 1.73 GB
terms.php



Быстрый ответ

Имя:

      
Для отправки сообщений необходимо включить JavaScript
Показать сообщения:    

Текущее время: 11-Дек 05:19

Часовой пояс: UTC + 3


Вы можете начинать темы
Вы можете отвечать на сообщения
Вы не можете редактировать свои сообщения
Вы не можете удалять свои сообщения
Вы не можете голосовать в опросах
Вы не можете прикреплять файлы к сообщениям
Вы можете скачивать файлы