(Score) Мстители: Эра Альтрона / Avengers: Age of Ultron (by Brian Tyler & Danny Elfman) [WEB][24bit] - 2015, FLAC (tracks), lossless


Статистика раздачи [Обновить пиров]
Размер:  833 MB   |    Зарегистрирован:  1 год 1 месяц   |    Скачан:  0 раз

Полного источника не было: Никогда

Личеров:  2  [  0 KB/s  ]   Подробная статистика пиров
 
   
 
 
 

[Цитировать]

Avengers: Age of Ultron / Мстители: Эра Альтрона
Original Motion Picture Soundtrack
- Жанр: Score | Композиторы: Brian Tyler & Danny Elfman
Год выпуска диска: 2015 | Издатель: Hollywood Records
Аудиокодек: FLAC (*.flac) | Тип рипа: tracks | Битрейт аудио: lossless
Разрядность: 24bit / 44.1kHz | Количество каналов: 2.0
Продолжительность: 01:17:43 | Наличие сканов: Sleeve
- - 01. Avengers: Age of Ultron Title (0:44)02. Heroes (2:07)
03. Rise Together (2:24)04. Breaking and Entering (3:04)
05. It Begins (2:43)06. Birth of Ultron (3:06)07. Ultron-Twins (4:14)
08. Hulkbuster (4:33)09. Can You Stop This Thing? (1:04)
10. Sacrifice (2:42)11. Farmhouse (4:03)12. The Vault (2:58)
13. The Mission (2:48)14. Seoul Searching (2:48)
15. Inevitability-One Good Eye (5:08)16. Ultron Wakes (1:43)
17. Vision (3:48)18. The Battle (4:25)19. Wish You Were Here (1:37)
20. The Farm (1:14)21. Darkest of Intentions (2:27)22. Fighting Back (2:33)
23. Avengers Unite (1:08)24. Keys to the Past (1:49)
25. Uprising (2:32)26. Outlook (2:39)27. The Last One (2:14)
28. Nothing Lasts Forever (1:58)
29. New Avengers - Avengers: Age of Ultron (3:10)
О релизе

Composed by:
Brian Tyler (01, 03, 04, 06, 08, 10, 12-14, 17-19, 21, 22, 24-27)
Danny Elfman (02, 05, 07, 09, 11, 15, 16, 20, 23, 28, 29)
-
Soundtrack with original score composed by Brian Tyler and Danny Elfman for the Marvel film Avengers: Age of Ultron. Film features full Avengers cast including Robert Downey Jr., Chris Hemsworth, Chris Evans, Scarlett Johansson, Tom Hiddleston, Elizabeth Olsen, Jeremy Renner, Mark Ruffalo and more!
Brian Tyler has scored over 70 films and recently won Film Composer of the Year at the 2014 Cue Awards. He has composed and conducted the scores for the Marvel hits Marvel s "Iron Man 3" and Marvel's "Thor: The Dark World," "Now You See Me," "The Expendables," "Furious 7," "Teenage Mutant Ninja Turtles," "Rambo," and "Eagle Eye" produced by Steven Spielberg. A three-time Emmy nominee, for television he scores the series "Scorpion," "Hawaii Five-O" and "Sleepy Hollow." Tyler created the new theme music for ESPN's NFL studio shows. He was nominated for a 2014 BAFTA Games Award. He is currently scoring the film "Truth" starring Cate Blanchett as Mary Mapes and Robert Redford as Dan Rather.
Danny Elfman has received Oscar nominations for his scores for Gus Van Sant's "Good Will Hunting" and "Milk," Tim Burton's "Big Fish," and Barry Sonnenfeld's "Men in Black." Movie audiences worldwide have also heard Danny Elfman's unique sound and style in over 80 film scores, including David O. Russell's "Silver Linings Playbook" and "American Hustle" and Rob Marshall's Academy Award-winning "Chicago." For more than 25 years, Tim Burton and Elfman have collaborated on some of the cinema's most beloved and recognizable films and soundtracks, including "Beetlejuice," "Batman," "Edward Scissorhands," and more recently "Alice in Wonderland" and "Big Eyes." Elfman also collaborated with director Sam Raimi for "Oz The Great and Powerful" after composing original scores for the filmmaker's blockbuster hits including "Spider-Man" and "Spider-Man 2." Due later this year, Elfman also scored the independent Sundance film "The End of the Tour."

ОтчётыДинамический диапазон

foobar2000 1.2.2 / Dynamic Range Meter 1.1.1log date: 2015-05-28 09:45:32
--------------------------------------------------------------------------------Analyzed: Brian Tyler / Avengers: Age of Ultron (Original Motion Picture Soundtrack) (1-18) Danny Elfman / Avengers: Age of Ultron (Original Motion Picture Soundtrack) (19-29)--------------------------------------------------------------------------------
DR Peak RMS Duration Track--------------------------------------------------------------------------------DR7 -0.29 dB -11.75 dB 0:44 ?-Avengers: Age of Ultron TitleDR9 -0.15 dB -10.96 dB 2:24 ?-Rise TogetherDR9 -0.14 dB -14.31 dB 3:04 ?-Breaking and EnteringDR8 -0.33 dB -13.05 dB 3:06 ?-Birth of UltronDR8 -0.07 dB -11.87 dB 4:33 ?-HulkbusterDR6 -0.15 dB -10.66 dB 2:42 ?-SacrificeDR8 -0.16 dB -12.93 dB 2:58 ?-The VaultDR11 -0.46 dB -14.52 dB 2:48 ?-The MissionDR8 0.00 dB -9.87 dB 2:48 ?-Seoul SearchingDR12 -1.50 dB -19.24 dB 3:48 ?-VisionDR8 -0.19 dB -11.55 dB 4:25 ?-The BattleDR11 -0.36 dB -16.40 dB 1:37 ?-Wish You Were HereDR9 -0.04 dB -13.09 dB 2:27 ?-Darkest of IntentionsDR7 -0.13 dB -10.33 dB 2:33 ?-Fighting BackDR11 -0.35 dB -16.24 dB 1:49 ?-Keys to the PastDR9 0.00 dB -11.61 dB 2:32 ?-UprisingDR9 -0.06 dB -11.87 dB 2:39 ?-OutlookDR11 -4.33 dB -21.53 dB 2:14 ?-The Last OneDR8 -0.14 dB -11.73 dB 2:07 ?-HeroesDR8 -0.19 dB -11.70 dB 2:43 ?-It BeginsDR13 -0.56 dB -18.47 dB 4:14 ?-Ultron-TwinsDR8 -0.28 dB -11.89 dB 1:04 ?-Can You Stop This Thing?DR13 -0.63 dB -22.76 dB 4:03 ?-FarmhouseDR9 -0.10 dB -12.41 dB 5:08 ?-Inevitability-One Good EyeDR11 -0.22 dB -17.68 dB 1:43 ?-Ultron WakesDR11 -0.39 dB -16.66 dB 1:14 ?-The FarmDR8 -0.24 dB -9.68 dB 1:08 ?-Avengers UniteDR10 -0.26 dB -18.07 dB 1:58 ?-Nothing Lasts ForeverDR8 -0.23 dB -11.55 dB 3:10 ?-New Avengers - Avengers: Age of Ultron--------------------------------------------------------------------------------
Number of tracks: 29Official DR value: DR9
Samplerate: 44100 HzChannels: 2Bits per sample: 24Bitrate: 1576 kbpsCodec: FLAC================================================================================

Скриншот спектра частот

Доп. информация

При скачивании, если необходимо, переименуйте папку, в которой будет находиться альбомБольшая просьба к скачавшим поддерживать раздачу! Помогайте другим, ведь вам тоже может понадобиться помощь!Не забываем говорить "Спасибо"!Комментарии приветствуются!
[teatrix.ru].t10317.torrent 
Торрент: Зарегистрирован [ 2015-11-01 20:51 ] · 75CF6179C503086BB9EB207ECE583C62123A4840

Скачать .torrent

Скачать

18 KB

Статус: проверено
Скачан: 0 раз
Размер: 833 MB
terms.php



Быстрый ответ

Имя:

      
Для отправки сообщений необходимо включить JavaScript
Показать сообщения:    

Текущее время: 11-Дек 07:09

Часовой пояс: UTC + 3


Вы можете начинать темы
Вы можете отвечать на сообщения
Вы не можете редактировать свои сообщения
Вы не можете удалять свои сообщения
Вы не можете голосовать в опросах
Вы не можете прикреплять файлы к сообщениям
Вы можете скачивать файлы