(Soundtrack) Трансильвания / TranSylvania (Tony Gatlif & VA) - 2006, FLAC (tracks+.cue), lossless


Статистика раздачи [Обновить пиров]
Размер:  451 MB   |    Зарегистрирован:  1 год 1 месяц   |    Скачан:  0 раз

Полного источника не было: Никогда

Личеров:  2  [  0 KB/s  ]   Подробная статистика пиров
 
   
 
 
 

[Цитировать]

Трансильвания / TranSylvania
Жанр: Soundtrack
Композитор: Tony Gatlif & VA
Год выпуска диска: 2006
Страна-производитель диска: France
Издатель (лейбл): Naïve
Номер по каталогу: NV 810311
Аудиокодек: FLAC (*.flac)
Тип рипа: tracks+.cue
Битрейт аудио: lossless
Продолжительность: 01:03:24
Источник: скачано с сети
Наличие сканов в содержимом раздачи: да
Треклист:
01. Tchiki Tchiki
Beata Palya
02. Fureur
Beata Palya
03. Mahala (instrumental)
Artistes Variés
04. Le Vent
Beata Palya
05. Le Chant du Pope
Chœur (Artistes Variés)
06. Mamaliga
Alexandra Beaujard
07. Doina Ciorba
Sandu Ciorba
08. La Fête des Masques
Natuca Iusco
09. Je t'ai Cherché
Beata Palya
10. Le Tzigane Heureux (instrumental)
Artistes Variés
11. Déchirant (instrumental)
Artistes Variés
12. Tchiki Ciorba
Sandu Ciorba
13. Le Regret (instrumental)
Artistes Variés
14. Fureur Intrumental (instrumental)
Artistes Variés
15. Promesse Live (instrumental)
Artistes Variés
16. Le Souffle (instrumental)
Artistes Variés
17. Libre Zingarina
Chœur (Artistes Variés)
18. Promesse
Beata Palya

Лог создания рипа

Exact Audio Copy V0.99 prebeta 4 from 23. January 2008
EAC extraction logfile from 28. July 2010, 18:50
Various / TranSylvania
Used drive : Optiarc DVD RW AD-7200A Adapter: 3 ID: 0
Read mode : SecureUtilize accurate stream : YesDefeat audio cache : YesMake use of C2 pointers : No
Read offset correction : 48Overread into Lead-In and Lead-Out : NoFill up missing offset samples with silence : YesDelete leading and trailing silent blocks : NoNull samples used in CRC calculations : YesUsed interface : Installed external ASPI interfaceGap handling : Appended to previous track
Used output format : User Defined EncoderSelected bitrate : 256 kBit/sQuality : HighAdd ID3 tag : NoCommand line compressor : C:\Program Files\Exact Audio Copy\Flac\flac.exeAdditional command line options : -8 -V -T "ARTIST=%a" -T "TITLE=%t" -T "ALBUM=%g" -T "DATE=%y" -T "TRACKNUMBER=%n" -T "GENRE=%m" -T "COMMENT=EAC FLAC -8" %s
TOC of the extracted CD
Track | Start | Length | Start sector | End sector --------------------------------------------------------- 1 | 0:00.00 | 3:35.41 | 0 | 16165 2 | 3:35.41 | 3:29.35 | 16166 | 31875 3 | 7:05.01 | 2:43.24 | 31876 | 44124 4 | 9:48.25 | 5:01.21 | 44125 | 66720 5 | 14:49.46 | 2:38.14 | 66721 | 78584 6 | 17:27.60 | 3:14.38 | 78585 | 93172 7 | 20:42.23 | 3:16.06 | 93173 | 107878 8 | 23:58.29 | 3:23.58 | 107879 | 123161 9 | 27:22.12 | 3:23.72 | 123162 | 138458 10 | 30:46.09 | 2:34.22 | 138459 | 150030 11 | 33:20.31 | 3:56.63 | 150031 | 167793 12 | 37:17.19 | 3:13.61 | 167794 | 182329 13 | 40:31.05 | 4:23.53 | 182330 | 202107 14 | 44:54.58 | 5:10.30 | 202108 | 225387 15 | 50:05.13 | 3:12.00 | 225388 | 239787 16 | 53:17.13 | 2:01.32 | 239788 | 248894 17 | 55:18.45 | 4:34.61 | 248895 | 269505 18 | 59:53.31 | 3:47.04 | 269506 | 286534
Track 1
Filename E:\Rips\01 - Beata Palya - Tchiki Tchiki.wav
Pre-gap length 0:00:02.00
Peak level 100.0 % Track quality 100.0 % Test CRC 002DB292 Copy CRC 002DB292 Accurately ripped (confidence 3) [728CE043] Copy OK
Track 2
Filename E:\Rips\02 - Beata Palya - Fureur.wav
Peak level 100.0 % Track quality 100.0 % Test CRC 01793584 Copy CRC 01793584 Accurately ripped (confidence 3) [C8595688] Copy OK
Track 3
Filename E:\Rips\03 - Instrumental - Mahala.wav
Pre-gap length 0:00:01.25
Peak level 100.0 % Track quality 100.0 % Test CRC 9351EC56 Copy CRC 9351EC56 Accurately ripped (confidence 3) [8083704C] Copy OK
Track 4
Filename E:\Rips\04 - Beata Palya - Le Vent.wav
Pre-gap length 0:00:01.62
Peak level 100.0 % Track quality 100.0 % Test CRC 13C7DFA5 Copy CRC 13C7DFA5 Accurately ripped (confidence 3) [EC926122] Copy OK
Track 5
Filename E:\Rips\05 - Choeur - Le Chant Du Pope.wav
Peak level 100.0 % Track quality 100.0 % Test CRC 2D2A63D9 Copy CRC 2D2A63D9 Accurately ripped (confidence 3) [A423577B] Copy OK
Track 6
Filename E:\Rips\06 - Alexandra Beaujard - Mamaliga.wav
Peak level 100.0 % Track quality 100.0 % Test CRC D8C9BECF Copy CRC D8C9BECF Accurately ripped (confidence 3) [1753F72E] Copy OK
Track 7
Filename E:\Rips\07 - Sandu Ciorba - Doina Ciorba.wav
Peak level 98.8 % Track quality 100.0 % Test CRC DA8A7659 Copy CRC DA8A7659 Accurately ripped (confidence 3) [FD820300] Copy OK
Track 8
Filename E:\Rips\08 - Nituca Iusco - La Fete Des Masques.wav
Pre-gap length 0:00:01.12
Peak level 100.0 % Track quality 100.0 % Test CRC AA692E43 Copy CRC AA692E43 Accurately ripped (confidence 3) [A9312C92] Copy OK
Track 9
Filename E:\Rips\09 - Beata Palya - Je T'ai Cherche.wav
Peak level 98.8 % Track quality 100.0 % Test CRC 6AE528A2 Copy CRC 6AE528A2 Accurately ripped (confidence 3) [EAFE417D] Copy OK
Track 10
Filename E:\Rips\10 - Instrumental - Le Tzigane Heureux.wav
Peak level 100.0 % Track quality 100.0 % Test CRC 52264472 Copy CRC 52264472 Accurately ripped (confidence 3) [D28D5247] Copy OK
Track 11
Filename E:\Rips\11 - Instrumental - Dechirant.wav
Pre-gap length 0:00:04.37
Peak level 99.2 % Track quality 100.0 % Test CRC A859CDD4 Copy CRC A859CDD4 Accurately ripped (confidence 3) [8D8BCC1C] Copy OK
Track 12
Filename E:\Rips\12 - Sandu Ciorba - Tchiki Ciorba.wav
Peak level 100.0 % Track quality 100.0 % Test CRC 53844386 Copy CRC 53844386 Accurately ripped (confidence 3) [1388DAB4] Copy OK
Track 13
Filename E:\Rips\13 - Instrumental - Le Regret.wav
Pre-gap length 0:00:01.06
Peak level 100.0 % Track quality 100.0 % Test CRC 28EA6229 Copy CRC 28EA6229 Accurately ripped (confidence 3) [118B6273] Copy OK
Track 14
Filename E:\Rips\14 - Instrumental - Fureur Instrumental.wav
Pre-gap length 0:00:01.16
Peak level 100.0 % Track quality 100.0 % Test CRC 1DFD7B33 Copy CRC 1DFD7B33 Accurately ripped (confidence 3) [6258C438] Copy OK
Track 15
Filename E:\Rips\15 - Instrumental - Promesse Live.wav
Pre-gap length 0:00:01.40
Peak level 100.0 % Track quality 100.0 % Test CRC 839EE98A Copy CRC 839EE98A Accurately ripped (confidence 3) [3D04A4ED] Copy OK
Track 16
Filename E:\Rips\16 - Instrumental - Le Souffle.wav
Pre-gap length 0:00:02.64
Peak level 84.9 % Track quality 100.0 % Test CRC C79A726E Copy CRC C79A726E Accurately ripped (confidence 3) [641FE930] Copy OK
Track 17
Filename E:\Rips\17 - Choeur - Libre Zingarina.wav
Peak level 98.7 % Track quality 100.0 % Test CRC B2AC9022 Copy CRC B2AC9022 Accurately ripped (confidence 3) [2A4847E8] Copy OK
Track 18
Filename E:\Rips\18 - Beata Palya - Promesse.wav
Pre-gap length 0:00:01.08
Peak level 100.0 % Track quality 100.0 % Test CRC 57168395 Copy CRC 57168395 Accurately ripped (confidence 3) [D75CF3C5] Copy OK
All tracks accurately ripped
No errors occurred
End of status report

Содержание индексной карты (.CUE)

REM GENRE SoundtrackREM DATE 2006REM DISCID F40EEC12REM COMMENT "ExactAudioCopy v0.99pb4"PERFORMER "Tony Gatlif et Artistes Varies"TITLE "TranSylvania"FILE "01. Tchiki Tchiki.wav" WAVE TRACK 01 AUDIO TITLE "Tchiki Tchiki" PERFORMER "Beata Palya" INDEX 01 00:00:00FILE "02. Fureur.wav" WAVE TRACK 02 AUDIO TITLE "Fureur" PERFORMER "Beata Palya" INDEX 01 00:00:00 TRACK 03 AUDIO TITLE "Mahala" PERFORMER "Artistes Varies" INDEX 00 03:28:16FILE "03. Mahala.wav" WAVE INDEX 01 00:00:00 TRACK 04 AUDIO TITLE "Le Vent" PERFORMER "Beata Palya" INDEX 00 02:41:52FILE "04. Le Vent.wav" WAVE INDEX 01 00:00:00FILE "05. Le Chant Du Pope.wav" WAVE TRACK 05 AUDIO TITLE "Le Chant Du Pope" PERFORMER "Artistes Varies" INDEX 01 00:00:00FILE "06. Mamaliga.wav" WAVE TRACK 06 AUDIO TITLE "Mamaliga" PERFORMER "Alexandra Beaujard" INDEX 01 00:00:00FILE "07. Doina Ciorba.wav" WAVE TRACK 07 AUDIO TITLE "Doina Ciorba" PERFORMER "Sandu Ciorba" INDEX 01 00:00:00 TRACK 08 AUDIO TITLE "La Fete Des Masques" PERFORMER "Nituca Iusco" INDEX 00 03:14:72FILE "08. La Fete Des Masques.wav" WAVE INDEX 01 00:00:00FILE "09. Je t'ai Cherche.wav" WAVE TRACK 09 AUDIO TITLE "Je t'ai Cherche" PERFORMER "Beata Palya" INDEX 01 00:00:00FILE "10. Le Tzigane Heureux.wav" WAVE TRACK 10 AUDIO TITLE "Le Tzigane Heureux" PERFORMER "Artistes Varies" INDEX 01 00:00:00 TRACK 11 AUDIO TITLE "Dechirant" PERFORMER "Artistes Varies" INDEX 00 02:29:69FILE "11. Dechirant.wav" WAVE INDEX 01 00:00:00FILE "12. Tchiki Ciorba.wav" WAVE TRACK 12 AUDIO TITLE "Tchiki Ciorba" PERFORMER "Sandu Ciorba" INDEX 01 00:00:00 TRACK 13 AUDIO TITLE "Le Regret" PERFORMER "Artistes Varies" INDEX 00 03:12:56FILE "13. Le Regret.wav" WAVE INDEX 01 00:00:00 TRACK 14 AUDIO TITLE "Fureur Instrumental" PERFORMER "Artistes Varies" INDEX 00 04:22:41FILE "14. Fureur Instrumental.wav" WAVE INDEX 01 00:00:00 TRACK 15 AUDIO TITLE "Promesse Live" PERFORMER "Artistes Varies" INDEX 00 05:09:00FILE "15. Promesse Live.wav" WAVE INDEX 01 00:00:00 TRACK 16 AUDIO TITLE "Le Souffle" PERFORMER "Artistes Varies" INDEX 00 03:09:27FILE "16. Le Souffle.wav" WAVE INDEX 01 00:00:00FILE "17. Libre Zingarina.wav" WAVE TRACK 17 AUDIO TITLE "Libre Zingarina" PERFORMER "Artistes Varies" INDEX 01 00:00:00 TRACK 18 AUDIO TITLE "Promesse" PERFORMER "Beata Palya" INDEX 00 04:33:55FILE "18. Promesse.wav" WAVE INDEX 01 00:00:00

Лог проверки качества

AUDIOCHECKER v2.0 beta (build 457) - by Dester - opdester@freemail.hu~~~~~~~~~~~~~~~~~~~~~~~~~~~~~~~~~~-=== НЕ РЕДАКТИРУЙТЕ ЭТОТ ФАЙЛ! ===-
Путь: ...\Tony Gatlif - B.O.F. TranSylvania - 2006 [FLAC]
01 -=- 01. Tchiki Tchiki.flac -=- CDDA (100%)02 -=- 02. Fureur.flac -=- CDDA (100%)03 -=- 03. Mahala.flac -=- CDDA (100%)04 -=- 04. Le Vent.flac -=- CDDA (99%)05 -=- 05. Le Chant Du Pope.flac -=- CDDA (100%)06 -=- 06. Mamaliga.flac -=- CDDA (100%)07 -=- 07. Doina Ciorba.flac -=- CDDA (100%)08 -=- 08. La Fete Des Masques.flac -=- CDDA (100%)09 -=- 09. Je t'ai Cherche.flac -=- CDDA (99%)10 -=- 10. Le Tzigane Heureux.flac -=- CDDA (100%)11 -=- 11. Dechirant.flac -=- CDDA (100%)12 -=- 12. Tchiki Ciorba.flac -=- CDDA (99%)13 -=- 13. Le Regret.flac -=- CDDA (100%)14 -=- 14. Fureur Instrumental.flac -=- CDDA (100%)15 -=- 15. Promesse Live.flac -=- CDDA (100%)16 -=- 16. Le Souffle.flac -=- CDDA (99%)17 -=- 17. Libre Zingarina.flac -=- CDDA (76%)18 -=- 18. Promesse.flac -=- CDDA (100%)
Сводка 98,44% CDDA
204884932

Скриншот спектра частот

Доп. информация: Скачено с сети. Названия треков привёл в соответствие с треклистом, который есть на обложке диска.
В CUE-файле и тэгах изменил названия композиций и исполнителей.
[teatrix.ru].t10320.torrent 
Торрент: Зарегистрирован [ 2015-11-01 20:51 ] · 1D3AAD94E69158FCB4280CA15986F6780CAC4BCD

Скачать .torrent

Скачать

20 KB

Статус: проверено
Скачан: 0 раз
Размер: 451 MB
terms.php



Быстрый ответ

Имя:

      
Для отправки сообщений необходимо включить JavaScript
Показать сообщения:    

Текущее время: 11-Дек 07:14

Часовой пояс: UTC + 3


Вы можете начинать темы
Вы можете отвечать на сообщения
Вы не можете редактировать свои сообщения
Вы не можете удалять свои сообщения
Вы не можете голосовать в опросах
Вы не можете прикреплять файлы к сообщениям
Вы можете скачивать файлы