(Soundtrack) Чудеса своего рода / Some Kind Of Wonderful - 1990 (1987), FLAC (tracks), lossless


Статистика раздачи [Обновить пиров]
Размер:  233 MB   |    Зарегистрирован:  1 год 1 месяц   |    Скачан:  1 раз

Полного источника не было: 3 месяца 8 дней

Личеров:  2  [  0 KB/s  ]   Подробная статистика пиров
 
   
 
 
 

[Цитировать]

Чудеса своего рода / Some Kind Of Wonderful-- -Жанр: Soundtrack || Год выпуска диска: 1990 || Год выпуска фильма: 1987 || Страна-производитель диска: США || Аудио кодек: FLAC (*.flac) || Тип рипа: tracks || Битрейт аудио: lossless || Продолжительность: 00:37:02 || Источник: What.cd(deceptica) || Наличие сканов в содержимом раздачи: нет-Треклист:
01. Do Anything - Pete Shelley [03:45]
02. Brilliant Mind - Furniture [04:13]
03. Cry Like This - Blue Room [04:08]
04. I Go Crazy - Flesh for Lulu [03:55]
05. She Loves Me - Stephen Duffy [03:43]
06. Hardest Walk - The Jesus and Mary Chain [03:14]
07. Shyest Time - The Apartments [03:37]
08. Miss Amanda Jones - March Violets [03:18]
09. Can't Help Falling in Love - Lick the Tins [03:10]
10. Turn to the Sky - March Violets [03:59]

Лог создания рипа

Exact Audio Copy V1.0 beta 3 from 29. August 2011
EAC extraction logfile from 20. March 2012, 18:15
Various Artists / Some Kind Of Wonderful
Used drive : HL-DT-STBD-RE BH10LS30 Adapter: 5 ID: 0
Read mode : SecureUtilize accurate stream : YesDefeat audio cache : YesMake use of C2 pointers : No
Read offset correction : 667Overread into Lead-In and Lead-Out : NoFill up missing offset samples with silence : YesDelete leading and trailing silent blocks : NoNull samples used in CRC calculations : YesUsed interface : Installed external ASPI interfaceGap handling : Appended to previous track
Used output format : User Defined EncoderSelected bitrate : 1024 kBit/sQuality : HighAdd ID3 tag : NoCommand line compressor : C:\Program Files\Exact Audio Copy\Flac\flac.exeAdditional command line options : -8 -V -T "ARTIST=%artist%" -T "TITLE=%title%" -T "ALBUM=%albumtitle%" -T "DATE=%year%" -T "TRACKNUMBER=%tracknr%" -T "GENRE=%genre%" -T "PERFORMER=%albuminterpret%" -T "COMPOSER=%composer%" %haslyrics%--tag-from-file=LYRICS="%lyricsfile%"%haslyrics% -T "ALBUMARTIST=%albumartist%" -T "DISCNUMBER=%cdnumber%" -T "TOTALDISCS=%totalcds%" -T "TOTALTRACKS=%numtracks%" -T "COMMENT=%comment%" %source% -o %dest%
TOC of the extracted CD
Track | Start | Length | Start sector | End sector --------------------------------------------------------- 1 | 0:00.33 | 3:44.50 | 33 | 16882 2 | 3:45.08 | 4:13.27 | 16883 | 35884 3 | 7:58.35 | 4:08.00 | 35885 | 54484 4 | 12:06.35 | 3:55.35 | 54485 | 72144 5 | 16:01.70 | 3:42.63 | 72145 | 88857 6 | 19:44.58 | 3:13.47 | 88858 | 103379 7 | 22:58.30 | 3:36.68 | 103380 | 119647 8 | 26:35.23 | 3:18.35 | 119648 | 134532 9 | 29:53.58 | 3:10.10 | 134533 | 148792 10 | 33:03.68 | 3:58.42 | 148793 | 166684
Track 1
Filename I:\Music\EAC\Various Artists - 1987- Some Kind Of Wonderful\01 - Pete Shelley - Do Anything.wav
Pre-gap length 0:00:02.33
Peak level 98.4 % Extraction speed 4.6 X Track quality 100.0 % Test CRC A417915A Copy CRC A417915A Accurately ripped (confidence 5) [41FA9ED0] (AR v1) Copy OK
Track 2
Filename I:\Music\EAC\Various Artists - 1987- Some Kind Of Wonderful\02 - Furniture - Brilliant Mind.wav
Pre-gap length 0:00:02.00
Peak level 97.8 % Extraction speed 5.2 X Track quality 100.0 % Test CRC 03D9E4EB Copy CRC 03D9E4EB Accurately ripped (confidence 5) [167953C3] (AR v1) Copy OK
Track 3
Filename I:\Music\EAC\Various Artists - 1987- Some Kind Of Wonderful\03 - Blue Room - Cry Like This.wav
Pre-gap length 0:00:02.00
Peak level 96.8 % Extraction speed 4.7 X Track quality 99.9 % Test CRC 7AB59195 Copy CRC 7AB59195 Accurately ripped (confidence 5) [89650131] (AR v1) Copy OK
Track 4
Filename I:\Music\EAC\Various Artists - 1987- Some Kind Of Wonderful\04 - Flesh For Lulu - I Go Crazy.wav
Pre-gap length 0:00:02.00
Peak level 99.4 % Extraction speed 6.0 X Track quality 100.0 % Test CRC 7038FA48 Copy CRC 7038FA48 Accurately ripped (confidence 5) [F5265538] (AR v1) Copy OK
Track 5
Filename I:\Music\EAC\Various Artists - 1987- Some Kind Of Wonderful\05 - Stephen Duffy - She Loves Me.wav
Pre-gap length 0:00:02.00
Peak level 100.0 % Extraction speed 6.3 X Track quality 100.0 % Test CRC FBDB7211 Copy CRC FBDB7211 Accurately ripped (confidence 5) [4C5B5C00] (AR v1) Copy OK
Track 6
Filename I:\Music\EAC\Various Artists - 1987- Some Kind Of Wonderful\06 - The Jesus And Mary Chain - The Hardest Walk.wav
Pre-gap length 0:00:02.00
Peak level 100.0 % Extraction speed 6.4 X Track quality 100.0 % Test CRC 38E9B990 Copy CRC 38E9B990 Accurately ripped (confidence 5) [4B93ECAE] (AR v1) Copy OK
Track 7
Filename I:\Music\EAC\Various Artists - 1987- Some Kind Of Wonderful\07 - The Apartments - The Shyest Time.wav
Pre-gap length 0:00:02.00
Peak level 96.8 % Extraction speed 6.8 X Track quality 100.0 % Test CRC BB9241DD Copy CRC BB9241DD Accurately ripped (confidence 5) [64702280] (AR v1) Copy OK
Track 8
Filename I:\Music\EAC\Various Artists - 1987- Some Kind Of Wonderful\08 - The March Violets - Miss Amanda Jones.wav
Pre-gap length 0:00:02.00
Peak level 99.3 % Extraction speed 7.0 X Track quality 100.0 % Test CRC 43EEDE61 Copy CRC 43EEDE61 Accurately ripped (confidence 5) [FA42FEA5] (AR v1) Copy OK
Track 9
Filename I:\Music\EAC\Various Artists - 1987- Some Kind Of Wonderful\09 - Lick The Tins - Can't Help Falling In Love.wav
Pre-gap length 0:00:02.00
Peak level 94.3 % Extraction speed 5.9 X Track quality 100.0 % Test CRC 9DCE182D Copy CRC 9DCE182D Accurately ripped (confidence 5) [4F799849] (AR v1) Copy OK
Track 10
Filename I:\Music\EAC\Various Artists - 1987- Some Kind Of Wonderful\10 - The March Violets - Turn To The Sky.wav
Pre-gap length 0:00:02.00
Peak level 99.6 % Extraction speed 7.6 X Track quality 100.0 % Test CRC 8ECFF4E5 Copy CRC 8ECFF4E5 Accurately ripped (confidence 5) [D253CCCF] (AR v1) Copy OK
All tracks accurately ripped
No errors occurred
End of status report
==== Log checksum AE763E968CB0D915E56A85DEA42E1D10AE711BBA868DFB384F33FC60D84C0383 ====
[teatrix.ru].t10321.torrent 
Торрент: Зарегистрирован [ 2015-11-01 20:51 ] · AF28149648A0042A0DBB909D08A54E8C2B415FFC

Скачать .torrent

Скачать

20 KB

Статус: проверено
Скачан: 1 раз
Размер: 233 MB
terms.php



Быстрый ответ

Имя:

      
Для отправки сообщений необходимо включить JavaScript
Показать сообщения:    

Текущее время: 03-Дек 18:42

Часовой пояс: UTC + 3


Вы можете начинать темы
Вы можете отвечать на сообщения
Вы не можете редактировать свои сообщения
Вы не можете удалять свои сообщения
Вы не можете голосовать в опросах
Вы не можете прикреплять файлы к сообщениям
Вы можете скачивать файлы