(Score) Двойник Флинта / In Like Flint // Парень по кличке Флинт / Our Man Flint (by Jerry Goldsmith) - 1998 (1967, 1966), FLAC (tracks+.cue), lossless


Статистика раздачи [Обновить пиров]
Размер:  378 MB   |    Зарегистрирован:  1 год 1 месяц   |    Скачан:  0 раз

Полного источника не было: Никогда

 
   
 
 
 

[Цитировать]

Двойник Флинта / In Like Flint // Парень по кличке Флинт / Our Man Flint-Жанр: Score
Композитор: Jerry Goldsmith
Год выпуска диска: 1998
Год выпуска фильма: 1967, 1966
Производитель диска: USA
Издатель (лейбл): Varèse Sarabande
Номер по каталогу: VSD-5935-Аудиокодек: FLAC (*.flac)
Тип рипа: tracks+.cue
Битрейт аудио: lossless
Продолжительность: 01:04:58
Источник: собственный рип
Наличие сканов в содержимом раздачи: да, 600dpi-Ссылки - In like Flint (1967): Кинопоиск | IMDB | Wikipedia | SoundtrackCollector
Ссылки - Our Man Flint (1966): Кинопоиск | IMDB | Wikipedia | SoundtrackCollector

Треклист

01. Where The Bad Guys Are Gals [0:02:42.65]
02. The Golf Lesson [0:01:19.72]
03. Get Flint [0:03:10.25]
04. Ahh, Your Father's Bob-lip [0:02:38.25]
05. Uninvited Guest [0:01:03.28]
06. Mince & Cook Until Tender [0:02:37.32]
07. Ballet Music [0:01:16.20]
08. Odin, Dva, Tri, Kick [0:04:07.63]
09. The Deep Freeze [0:03:01.50]
10. Ladies Will Kindly Remove Their Hats [0:02:23.10]
11. Your Zowie Face [0:02:11.72]
12. Westward Ho [0:05:35.18]
13. Lost in Space [0:02:23.47]
14. Flint is Alive [0:01:21.58]
15. End Titles (Your Zowie Face) [0:01:44.05]
Tracks 01-15 from 'In Like Flint'
16. Our Man Flint [0:01:54.20]
17. The Quest [0:02:12.42]
18. Man Does Not Live by Bread Alone [0:02:22.08]
19. New York Skyline [0:04:28.55]
20. A Bit of Research [0:01:42.00]
21. Tell Me More About That Volcano [0:02:27.60]
22. Take Some Risks, Mr. Flint [0:01:27.55]
23. In Like Flint [0:01:27.67]
24. The Boilermaker [0:01:05.68]
25. Never Mind, You'd Love It [0:01:31.42]
26. You're A Foolish Man, Mr. Flint [0:02:06.58]
27. It's Gotta Be A World's Record [0:02:32.25]
28. End Titles [0:01:59.62]
Tracks 16-28 from 'Our Man Flint'

Лог создания рипа

Exact Audio Copy V1.0 beta 3 from 29. August 2011
EAC extraction logfile from 29. March 2015, 13:09
Jerry Goldsmith / In Like Flint / Our Man Flint
Used drive : PLEXTOR CD-R PX-230A Adapter: 3 ID: 0
Read mode : SecureUtilize accurate stream : YesDefeat audio cache : YesMake use of C2 pointers : No
Read offset correction : 738Overread into Lead-In and Lead-Out : NoFill up missing offset samples with silence : YesDelete leading and trailing silent blocks : NoNull samples used in CRC calculations : YesUsed interface : Native Win32 interface for Win NT & 2000Gap handling : Appended to previous track
Used output format : User Defined EncoderSelected bitrate : 768 kBit/sQuality : HighAdd ID3 tag : NoCommand line compressor : C:\Program Files (x86)\Exact Audio Copy\FLAC\FLAC.EXEAdditional command line options : -6 -V -T "ARTIST=%artist%" -T "TITLE=%title%" -T "ALBUM=%albumtitle%" -T "DATE=%year%"-T "TRACKNUMBER=%tracknr%" -T "GENRE=%genre%" -T "COMMENT=%comment%" -T "ALBUMARTIST=%albuminterpret%" -T "COMPOSER=%composer%"-T "DISCNUMBER=%cdnumber%" -T "TOTALDISCS=%totalcds%" -T "TOTALTRACKS=%numtracks%" %source% -o %dest%
TOC of the extracted CD
Track | Start | Length | Start sector | End sector --------------------------------------------------------- 1 | 0:00.00 | 2:42.65 | 0 | 12214 2 | 2:42.65 | 1:19.72 | 12215 | 18211 3 | 4:02.62 | 3:10.25 | 18212 | 32486 4 | 7:13.12 | 2:38.25 | 32487 | 44361 5 | 9:51.37 | 1:03.28 | 44362 | 49114 6 | 10:54.65 | 2:37.32 | 49115 | 60921 7 | 13:32.22 | 1:16.20 | 60922 | 66641 8 | 14:48.42 | 4:07.63 | 66642 | 85229 9 | 18:56.30 | 3:01.50 | 85230 | 98854 10 | 21:58.05 | 2:23.10 | 98855 | 109589 11 | 24:21.15 | 2:11.72 | 109590 | 119486 12 | 26:33.12 | 5:35.18 | 119487 | 144629 13 | 32:08.30 | 2:23.47 | 144630 | 155401 14 | 34:32.02 | 1:21.58 | 155402 | 161534 15 | 35:53.60 | 1:44.05 | 161535 | 169339 16 | 37:37.65 | 1:54.20 | 169340 | 177909 17 | 39:32.10 | 2:12.42 | 177910 | 187851 18 | 41:44.52 | 2:22.08 | 187852 | 198509 19 | 44:06.60 | 4:28.55 | 198510 | 218664 20 | 48:35.40 | 1:42.00 | 218665 | 226314 21 | 50:17.40 | 2:27.60 | 226315 | 237399 22 | 52:45.25 | 1:27.55 | 237400 | 243979 23 | 54:13.05 | 1:27.67 | 243980 | 250571 24 | 55:40.72 | 1:05.68 | 250572 | 255514 25 | 56:46.65 | 1:31.42 | 255515 | 262381 26 | 58:18.32 | 2:06.58 | 262382 | 271889 27 | 60:25.15 | 2:32.25 | 271890 | 283314 28 | 62:57.40 | 1:59.62 | 283315 | 292301
Track 1
Filename C:\Music\01 - Jerry Goldsmith - Where The Bad Guys Are Gals.wav
Pre-gap length 0:00:02.00
Peak level 95.2 % Extraction speed 4.8 X Track quality 100.0 % Test CRC FFCBE905 Copy CRC FFCBE905 Cannot be verified as accurate (confidence 7) [1877BE03], AccurateRip returned [45E1B5E9] (AR v2) Copy OK
Track 2
Filename C:\Music\02 - Jerry Goldsmith - The Golf Lesson.wav
Pre-gap length 0:00:00.58
Peak level 78.9 % Extraction speed 4.2 X Track quality 100.0 % Test CRC CC15129E Copy CRC CC15129E Cannot be verified as accurate (confidence 7) [E4404D18], AccurateRip returned [272DC3B5] (AR v2) Copy OK
Track 3
Filename C:\Music\03 - Jerry Goldsmith - Get Flint.wav
Pre-gap length 0:00:00.30
Peak level 71.2 % Extraction speed 5.3 X Track quality 100.0 % Test CRC A0A17299 Copy CRC A0A17299 Cannot be verified as accurate (confidence 7) [047A356A], AccurateRip returned [831A94F8] (AR v2) Copy OK
Track 4
Filename C:\Music\04 - Jerry Goldsmith - Ahh, Your Father's Bob-lip.wav
Peak level 58.8 % Extraction speed 4.2 X Track quality 99.9 % Test CRC 41C826A9 Copy CRC 41C826A9 Cannot be verified as accurate (confidence 7) [E362756F], AccurateRip returned [BF768BAB] (AR v2) Copy OK
Track 5
Filename C:\Music\05 - Jerry Goldsmith - Uninvited Guest.wav
Pre-gap length 0:00:00.25
Peak level 95.0 % Extraction speed 2.8 X Track quality 99.8 % Test CRC 87A03ABD Copy CRC 87A03ABD Cannot be verified as accurate (confidence 7) [61C80325], AccurateRip returned [1EDFB108] (AR v2) Copy OK
Track 6
Filename C:\Music\06 - Jerry Goldsmith - Mince & Cook Until Tender.wav
Peak level 95.8 % Extraction speed 5.1 X Track quality 100.0 % Test CRC E865C01A Copy CRC E865C01A Cannot be verified as accurate (confidence 7) [FC0D850E], AccurateRip returned [2F5DD0B0] (AR v2) Copy OK
Track 7
Filename C:\Music\07 - Jerry Goldsmith - Ballet Music.wav
Peak level 95.7 % Extraction speed 4.1 X Track quality 100.0 % Test CRC F240CACF Copy CRC F240CACF Cannot be verified as accurate (confidence 7) [CFDCEC7C], AccurateRip returned [C70B4197] (AR v2) Copy OK
Track 8
Filename C:\Music\08 - Jerry Goldsmith - Odin, Dva, Tri, Kick.wav
Pre-gap length 0:00:01.67
Peak level 95.4 % Extraction speed 5.4 X Track quality 100.0 % Test CRC DD249616 Copy CRC DD249616 Cannot be verified as accurate (confidence 7) [D851F07C], AccurateRip returned [F45AEE32] (AR v2) Copy OK
Track 9
Filename C:\Music\09 - Jerry Goldsmith - The Deep Freeze.wav
Pre-gap length 0:00:01.33
Peak level 95.4 % Extraction speed 5.2 X Track quality 100.0 % Test CRC A0A1D24E Copy CRC A0A1D24E Cannot be verified as accurate (confidence 7) [07FD3E38], AccurateRip returned [CDE09475] (AR v2) Copy OK
Track 10
Filename C:\Music\10 - Jerry Goldsmith - Ladies Will Kindly Remove Their Hats.wav
Pre-gap length 0:00:00.43
Peak level 59.7 % Extraction speed 4.9 X Track quality 100.0 % Test CRC 1A1E48E6 Copy CRC 1A1E48E6 Cannot be verified as accurate (confidence 7) [D0D630E5], AccurateRip returned [C83365B1] (AR v2) Copy OK
Track 11
Filename C:\Music\11 - Jerry Goldsmith - Your Zowie Face.wav
Pre-gap length 0:00:00.65
Peak level 88.3 % Extraction speed 4.9 X Track quality 100.0 % Test CRC 7A3F55F8 Copy CRC 7A3F55F8 Cannot be verified as accurate (confidence 7) [5F891EB3], AccurateRip returned [DFCEFF3C] (AR v2) Copy OK
Track 12
Filename C:\Music\12 - Jerry Goldsmith - Westward Ho.wav
Peak level 96.0 % Extraction speed 5.6 X Track quality 100.0 % Test CRC D2A953A6 Copy CRC D2A953A6 Cannot be verified as accurate (confidence 7) [3CACDDD2], AccurateRip returned [53407A1A] (AR v2) Copy OK
Track 13
Filename C:\Music\13 - Jerry Goldsmith - Lost in Space.wav
Peak level 95.0 % Extraction speed 4.9 X Track quality 100.0 % Test CRC BEFF08AA Copy CRC BEFF08AA Cannot be verified as accurate (confidence 7) [2381FC9F], AccurateRip returned [1A0A8B00] (AR v2) Copy OK
Track 14
Filename C:\Music\14 - Jerry Goldsmith - Flint is Alive.wav
Pre-gap length 0:00:00.17
Peak level 40.0 % Extraction speed 4.2 X Track quality 100.0 % Test CRC 6E55F29B Copy CRC 6E55F29B Cannot be verified as accurate (confidence 7) [9395808C], AccurateRip returned [E655E1D8] (AR v2) Copy OK
Track 15
Filename C:\Music\15 - Jerry Goldsmith - End Titles (Your Zowie Face).wav
Pre-gap length 0:00:01.20
Peak level 95.1 % Extraction speed 4.5 X Track quality 100.0 % Test CRC 3DA0271E Copy CRC 3DA0271E Cannot be verified as accurate (confidence 7) [9F282835], AccurateRip returned [53C49199] (AR v2) Copy OK
Track 16
Filename C:\Music\16 - Jerry Goldsmith - Our Man Flint.wav
Pre-gap length 0:00:05.48
Peak level 95.4 % Extraction speed 4.7 X Track quality 100.0 % Test CRC BF0595A6 Copy CRC BF0595A6 Cannot be verified as accurate (confidence 7) [EF48D313], AccurateRip returned [1151CC40] (AR v2) Copy OK
Track 17
Filename C:\Music\17 - Jerry Goldsmith - The Quest.wav
Pre-gap length 0:00:01.38
Peak level 62.9 % Extraction speed 4.8 X Track quality 100.0 % Test CRC 62FE62E2 Copy CRC 62FE62E2 Cannot be verified as accurate (confidence 7) [750903A7], AccurateRip returned [C604D359] (AR v2) Copy OK
Track 18
Filename C:\Music\18 - Jerry Goldsmith - Man Does Not Live by Bread Alone.wav
Peak level 64.6 % Extraction speed 4.0 X Track quality 99.9 % Test CRC 452CBC73 Copy CRC 452CBC73 Cannot be verified as accurate (confidence 7) [2E23E1D9], AccurateRip returned [C594F9A7] (AR v2) Copy OK
Track 19
Filename C:\Music\19 - Jerry Goldsmith - New York Skyline.wav
Pre-gap length 0:00:00.10
Peak level 95.0 % Extraction speed 4.7 X Track quality 100.0 % Test CRC 8CA405CC Copy CRC 8CA405CC Cannot be verified as accurate (confidence 7) [63576959], AccurateRip returned [F2D07552] (AR v2) Copy OK
Track 20
Filename C:\Music\20 - Jerry Goldsmith - A Bit of Research.wav
Peak level 94.7 % Extraction speed 4.4 X Track quality 100.0 % Test CRC 96906421 Copy CRC 96906421 Cannot be verified as accurate (confidence 7) [FD4F78C6], AccurateRip returned [F9C9CEBC] (AR v2) Copy OK
Track 21
Filename C:\Music\21 - Jerry Goldsmith - Tell Me More About That Volcano.wav
Pre-gap length 0:00:00.63
Peak level 53.2 % Extraction speed 4.9 X Track quality 100.0 % Test CRC 02FEAE51 Copy CRC 02FEAE51 Cannot be verified as accurate (confidence 7) [9675F734], AccurateRip returned [3F00BC04] (AR v2) Copy OK
Track 22
Filename C:\Music\22 - Jerry Goldsmith - Take Some Risks, Mr. Flint.wav
Peak level 51.1 % Extraction speed 4.2 X Track quality 100.0 % Test CRC E101271F Copy CRC E101271F Cannot be verified as accurate (confidence 7) [7A277B7A], AccurateRip returned [FAB31E37] (AR v2) Copy OK
Track 23
Filename C:\Music\23 - Jerry Goldsmith - In Like Flint.wav
Pre-gap length 0:00:01.58
Peak level 35.0 % Extraction speed 4.0 X Track quality 100.0 % Test CRC 756FA01A Copy CRC 756FA01A Cannot be verified as accurate (confidence 7) [9E4148A4], AccurateRip returned [9CBEF675] (AR v2) Copy OK
Track 24
Filename C:\Music\24 - Jerry Goldsmith - The Boilermaker.wav
Peak level 95.6 % Extraction speed 3.9 X Track quality 100.0 % Test CRC 169FA505 Copy CRC 169FA505 Cannot be verified as accurate (confidence 7) [AFDD61B7], AccurateRip returned [DE6CEF12] (AR v2) Copy OK
Track 25
Filename C:\Music\25 - Jerry Goldsmith - Never Mind, You'd Love It.wav
Pre-gap length 0:00:01.60
Peak level 36.7 % Extraction speed 4.3 X Track quality 100.0 % Test CRC 2094A740 Copy CRC 2094A740 Cannot be verified as accurate (confidence 7) [90DA8C37], AccurateRip returned [86C3A091] (AR v2) Copy OK
Track 26
Filename C:\Music\26 - Jerry Goldsmith - You're A Foolish Man, Mr. Flint.wav
Pre-gap length 0:00:01.70
Peak level 96.6 % Extraction speed 3.9 X Track quality 99.9 % Test CRC EB3CB450 Copy CRC EB3CB450 Cannot be verified as accurate (confidence 7) [C14C5F9F], AccurateRip returned [1AB650CA] (AR v2) Copy OK
Track 27
Filename C:\Music\27 - Jerry Goldsmith - It's Gotta Be A World's Record.wav
Pre-gap length 0:00:00.15
Peak level 84.8 % Extraction speed 4.9 X Track quality 100.0 % Test CRC 560225A2 Copy CRC 560225A2 Cannot be verified as accurate (confidence 7) [7D401B2B], AccurateRip returned [79ABCD94] (AR v2) Copy OK
Track 28
Filename C:\Music\28 - Jerry Goldsmith - End Titles.wav
Peak level 95.2 % Extraction speed 4.5 X Track quality 100.0 % Test CRC 2505C8F2 Copy CRC 2505C8F2 Cannot be verified as accurate (confidence 7) [D896E240], AccurateRip returned [76B1EECF] (AR v2) Copy OK
No tracks could be verified as accurateYou may have a different pressing from the one(s) in the database
No errors occurred
End of status report
==== Log checksum 142D0201C056A60F41616B9835D7C621CA587824A3EED73F52A40A405530EBAD ====

Содержание индексной карты (.CUE)

REM GENRE SoundtrackREM DATE 1998REM DISCID 920F391CREM COMMENT "ExactAudioCopy v1.0b3"PERFORMER "Jerry Goldsmith"TITLE "In Like Flint / Our Man Flint"FILE "01 - Jerry Goldsmith - Where The Bad Guys Are Gals.wav" WAVE TRACK 01 AUDIO TITLE "Where The Bad Guys Are Gals" PERFORMER "Jerry Goldsmith" INDEX 01 00:00:00 TRACK 02 AUDIO TITLE "The Golf Lesson" PERFORMER "Jerry Goldsmith" INDEX 00 02:42:07FILE "02 - Jerry Goldsmith - The Golf Lesson.wav" WAVE INDEX 01 00:00:00 TRACK 03 AUDIO TITLE "Get Flint" PERFORMER "Jerry Goldsmith" INDEX 00 01:19:42FILE "03 - Jerry Goldsmith - Get Flint.wav" WAVE INDEX 01 00:00:00FILE "04 - Jerry Goldsmith - Ahh, Your Father's Bob-lip.wav" WAVE TRACK 04 AUDIO TITLE "Ahh, Your Father's Bob-lip" PERFORMER "Jerry Goldsmith" INDEX 01 00:00:00 TRACK 05 AUDIO TITLE "Uninvited Guest" PERFORMER "Jerry Goldsmith" INDEX 00 02:38:00FILE "05 - Jerry Goldsmith - Uninvited Guest.wav" WAVE INDEX 01 00:00:00FILE "06 - Jerry Goldsmith - Mince & Cook Until Tender.wav" WAVE TRACK 06 AUDIO TITLE "Mince & Cook Until Tender" PERFORMER "Jerry Goldsmith" INDEX 01 00:00:00FILE "07 - Jerry Goldsmith - Ballet Music.wav" WAVE TRACK 07 AUDIO TITLE "Ballet Music" PERFORMER "Jerry Goldsmith" INDEX 01 00:00:00 TRACK 08 AUDIO TITLE "Odin, Dva, Tri, Kick" PERFORMER "Jerry Goldsmith" INDEX 00 01:14:28FILE "08 - Jerry Goldsmith - Odin, Dva, Tri, Kick.wav" WAVE INDEX 01 00:00:00 TRACK 09 AUDIO TITLE "The Deep Freeze" PERFORMER "Jerry Goldsmith" INDEX 00 04:06:30FILE "09 - Jerry Goldsmith - The Deep Freeze.wav" WAVE INDEX 01 00:00:00 TRACK 10 AUDIO TITLE "Ladies Will Kindly Remove Their Hats" PERFORMER "Jerry Goldsmith" INDEX 00 03:01:07FILE "10 - Jerry Goldsmith - Ladies Will Kindly Remove Their Hats.wav" WAVE INDEX 01 00:00:00 TRACK 11 AUDIO TITLE "Your Zowie Face" PERFORMER "Jerry Goldsmith" INDEX 00 02:22:20FILE "11 - Jerry Goldsmith - Your Zowie Face.wav" WAVE INDEX 01 00:00:00FILE "12 - Jerry Goldsmith - Westward Ho.wav" WAVE TRACK 12 AUDIO TITLE "Westward Ho" PERFORMER "Jerry Goldsmith" INDEX 01 00:00:00FILE "13 - Jerry Goldsmith - Lost in Space.wav" WAVE TRACK 13 AUDIO TITLE "Lost in Space" PERFORMER "Jerry Goldsmith" INDEX 01 00:00:00 TRACK 14 AUDIO TITLE "Flint is Alive" PERFORMER "Jerry Goldsmith" INDEX 00 02:23:30FILE "14 - Jerry Goldsmith - Flint is Alive.wav" WAVE INDEX 01 00:00:00 TRACK 15 AUDIO TITLE "End Titles (Your Zowie Face)" PERFORMER "Jerry Goldsmith" INDEX 00 01:20:38FILE "15 - Jerry Goldsmith - End Titles (Your Zowie Face).wav" WAVE INDEX 01 00:00:00 TRACK 16 AUDIO TITLE "Our Man Flint" PERFORMER "Jerry Goldsmith" INDEX 00 01:38:32FILE "16 - Jerry Goldsmith - Our Man Flint.wav" WAVE INDEX 01 00:00:00 TRACK 17 AUDIO TITLE "The Quest" PERFORMER "Jerry Goldsmith" INDEX 00 01:52:57FILE "17 - Jerry Goldsmith - The Quest.wav" WAVE INDEX 01 00:00:00FILE "18 - Jerry Goldsmith - Man Does Not Live by Bread Alone.wav" WAVE TRACK 18 AUDIO TITLE "Man Does Not Live by Bread Alone" PERFORMER "Jerry Goldsmith" INDEX 01 00:00:00 TRACK 19 AUDIO TITLE "New York Skyline" PERFORMER "Jerry Goldsmith" INDEX 00 02:21:73FILE "19 - Jerry Goldsmith - New York Skyline.wav" WAVE INDEX 01 00:00:00FILE "20 - Jerry Goldsmith - A Bit of Research.wav" WAVE TRACK 20 AUDIO TITLE "A Bit of Research" PERFORMER "Jerry Goldsmith" INDEX 01 00:00:00 TRACK 21 AUDIO TITLE "Tell Me More About That Volcano" PERFORMER "Jerry Goldsmith" INDEX 00 01:41:12FILE "21 - Jerry Goldsmith - Tell Me More About That Volcano.wav" WAVE INDEX 01 00:00:00FILE "22 - Jerry Goldsmith - Take Some Risks, Mr. Flint.wav" WAVE TRACK 22 AUDIO TITLE "Take Some Risks, Mr. Flint" PERFORMER "Jerry Goldsmith" INDEX 01 00:00:00 TRACK 23 AUDIO TITLE "In Like Flint" PERFORMER "Jerry Goldsmith" INDEX 00 01:25:72FILE "23 - Jerry Goldsmith - In Like Flint.wav" WAVE INDEX 01 00:00:00FILE "24 - Jerry Goldsmith - The Boilermaker.wav" WAVE TRACK 24 AUDIO TITLE "The Boilermaker" PERFORMER "Jerry Goldsmith" INDEX 01 00:00:00 TRACK 25 AUDIO TITLE "Never Mind, You'd Love It" PERFORMER "Jerry Goldsmith" INDEX 00 01:04:08FILE "25 - Jerry Goldsmith - Never Mind, You'd Love It.wav" WAVE INDEX 01 00:00:00 TRACK 26 AUDIO TITLE "You're A Foolish Man, Mr. Flint" PERFORMER "Jerry Goldsmith" INDEX 00 01:29:47FILE "26 - Jerry Goldsmith - You're A Foolish Man, Mr. Flint.wav" WAVE INDEX 01 00:00:00 TRACK 27 AUDIO TITLE "It's Gotta Be A World's Record" PERFORMER "Jerry Goldsmith" INDEX 00 02:06:43FILE "27 - Jerry Goldsmith - It's Gotta Be A World's Record.wav" WAVE INDEX 01 00:00:00FILE "28 - Jerry Goldsmith - End Titles.wav" WAVE TRACK 28 AUDIO TITLE "End Titles" PERFORMER "Jerry Goldsmith" INDEX 01 00:00:00

Лог-файл Cue-Tools

[CUETools log; Date: 29.03.2015 14:11:52; Version: 2.1.4][CTDB TOCID: 48w804nb6_3o1DRlA.H8LasTXt4-] found.Track | CTDB Status 1 | (7/7) Accurately ripped 2 | (7/7) Accurately ripped 3 | (7/7) Accurately ripped 4 | (7/7) Accurately ripped 5 | (7/7) Accurately ripped 6 | (7/7) Accurately ripped 7 | (7/7) Accurately ripped 8 | (7/7) Accurately ripped 9 | (7/7) Accurately ripped 10 | (7/7) Accurately ripped 11 | (7/7) Accurately ripped 12 | (6/7) Accurately ripped 13 | (6/7) Accurately ripped 14 | (7/7) Accurately ripped 15 | (7/7) Accurately ripped 16 | (7/7) Accurately ripped 17 | (6/7) Accurately ripped 18 | (6/7) Accurately ripped 19 | (7/7) Accurately ripped 20 | (6/7) Accurately ripped 21 | (7/7) Accurately ripped 22 | (7/7) Accurately ripped 23 | (6/7) Accurately ripped 24 | (7/7) Accurately ripped 25 | (7/7) Accurately ripped 26 | (7/7) Accurately ripped 27 | (7/7) Accurately ripped 28 | (7/7) Accurately ripped[AccurateRip ID: 0043aac8-0544934c-920f391c] found.Track [ CRC | V2 ] Status 01 [8f57915d|1877be03] (00+00/14) No match 02 [3002c2ae|e4404d18] (00+00/14) No match 03 [cc4ef9af|047a356a] (00+00/14) No match 04 [d3847ff6|e362756f] (00+00/14) No match 05 [9a8896d9|61c80325] (00+00/14) No match 06 [7d834b54|fc0d850e] (00+00/14) No match 07 [0dcaa88f|cfdcec7c] (00+00/14) No match 08 [e30b56cd|d851f07c] (00+00/14) No match 09 [77c63b77|07fd3e38] (00+00/14) No match 10 [63405764|d0d630e5] (00+00/14) No match 11 [c2de03c9|5f891eb3] (00+00/14) No match 12 [3f34387a|3cacddd2] (00+00/14) No match 13 [5a64b94b|2381fc9f] (00+00/14) No match 14 [5f786ea7|9395808c] (00+00/14) No match 15 [efd995dd|9f282835] (00+00/14) No match 16 [5c9bcc98|ef48d313] (00+00/16) No match 17 [d5d2dc4f|750903a7] (00+00/15) No match 18 [f0a00b5f|2e23e1d9] (00+00/15) No match 19 [756d9066|63576959] (00+00/15) No match 20 [4b9dd0d7|fd4f78c6] (00+00/15) No match 21 [386e337e|9675f734] (00+00/15) No match 22 [3bbc1600|7a277b7a] (00+00/15) No match 23 [a25d0f60|9e4148a4] (00+00/15) No match 24 [49c5c798|afdd61b7] (00+00/15) No match 25 [4ca18786|90da8c37] (00+00/14) No match 26 [c13d0bc2|c14c5f9f] (00+00/14) No match 27 [476b19e5|7d401b2b] (00+00/15) No match 28 [9b75897c|d896e240] (00+00/15) No matchOffsetted by -2107: 01 [45e1b5e9] (07/14) Accurately ripped 02 [272dc3b5] (07/14) Accurately ripped 03 [831a94f8] (07/14) Accurately ripped 04 [bf768bab] (07/14) Accurately ripped 05 [1edfb108] (07/14) Accurately ripped 06 [2f5dd0b0] (07/14) Accurately ripped 07 [c70b4197] (07/14) Accurately ripped 08 [f45aee32] (07/14) Accurately ripped 09 [cde09475] (07/14) Accurately ripped 10 [c83365b1] (07/14) Accurately ripped 11 [dfceff3c] (07/14) Accurately ripped 12 [53407a1a] (07/14) Accurately ripped 13 [1a0a8b00] (07/14) Accurately ripped 14 [e655e1d8] (07/14) Accurately ripped 15 [53c49199] (07/14) Accurately ripped 16 [1151cc40] (07/16) Accurately ripped 17 [c604d359] (07/15) Accurately ripped 18 [c594f9a7] (07/15) Accurately ripped 19 [f2d07552] (07/15) Accurately ripped 20 [f9c9cebc] (07/15) Accurately ripped 21 [3f00bc04] (07/15) Accurately ripped 22 [fab31e37] (07/15) Accurately ripped 23 [9cbef675] (07/15) Accurately ripped 24 [de6cef12] (07/15) Accurately ripped 25 [86c3a091] (07/14) Accurately ripped 26 [1ab650ca] (07/14) Accurately ripped 27 [79abcd94] (07/15) Accurately ripped 28 [76b1eecf] (07/15) Accurately rippedOffsetted by -2098: 01 [495abde5] (02/14) Accurately ripped 02 [46ed8ce8] (02/14) Accurately ripped 03 [be9cf8e1] (02/14) Accurately ripped 04 [6a4b27c9] (02/14) Accurately ripped 05 [f02cca17] (02/14) Accurately ripped 06 [79e14516] (02/14) Accurately ripped 07 [f565ea60] (02/14) Accurately ripped 08 [efe8425b] (02/14) Accurately ripped 09 [e3be728b] (02/14) Accurately ripped 10 [5f0969e2] (02/14) Accurately ripped 11 [ddbdafcb] (02/14) Accurately ripped 12 [5f31d83a] (02/14) Accurately ripped 13 [4eaeb5b9] (02/14) Accurately ripped 14 [96a9be3d] (02/14) Accurately ripped 15 [a51c4285] (02/14) Accurately ripped 16 [f9383c08] (03/16) Accurately ripped 17 [cb3ca0e2] (02/15) Accurately ripped 18 [d6348548] (02/15) Accurately ripped 19 [b52a99e5] (02/15) Accurately ripped 20 [525bea2a] (02/15) Accurately ripped 21 [797c9161] (02/15) Accurately ripped 22 [8374071b] (02/15) Accurately ripped 23 [14c922b3] (02/15) Accurately ripped 24 [191d172f] (02/15) Accurately ripped 25 [6f10ff98] (02/14) Accurately ripped 26 [5b551572] (02/14) Accurately ripped 27 [80555e02] (02/15) Accurately ripped 28 [d55a5f4b] (02/15) Accurately ripped
Track Peak [ CRC32 ] [W/O NULL] [ LOG ] -- 96,6 [DD438687] [92F0D44A] 01 95,2 [FFCBE905] [81717F4B] CRC32 02 78,9 [CC15129E] [477B3903] CRC32 03 71,2 [A0A17299] [6E34C004] CRC32 04 58,8 [41C826A9] [A78DB427] CRC32 05 95,0 [87A03ABD] [DC0ADCBD] CRC32 06 95,8 [E865C01A] [B46213B8] CRC32 07 95,7 [F240CACF] [C8107B8B] CRC32 08 95,4 [DD249616] [2FD71547] CRC32 09 95,4 [A0A1D24E] [128CCCC5] CRC32 10 59,7 [1A1E48E6] [9B0E95F5] CRC32 11 88,3 [7A3F55F8] [516A157D] CRC32 12 96,0 [D2A953A6] [DBA71DC4] CRC32 13 95,0 [BEFF08AA] [C0D629E2] CRC32 14 40,0 [6E55F29B] [39B6A638] CRC32 15 95,1 [3DA0271E] [D010DE82] CRC32 16 95,4 [BF0595A6] [FBA6D8A7] CRC32 17 62,9 [62FE62E2] [C89FCA8F] CRC32 18 64,6 [452CBC73] [9D75FF0A] CRC32 19 95,0 [8CA405CC] [B3CE9D31] CRC32 20 94,7 [96906421] [ED2ED5B4] CRC32 21 53,2 [02FEAE51] [A55F0BBC] CRC32 22 51,1 [E101271F] [0C5D0349] CRC32 23 35,0 [756FA01A] [B94CC88B] CRC32 24 95,6 [169FA505] [AA1E1AB0] CRC32 25 36,7 [2094A740] [0C4517A4] CRC32 26 96,6 [EB3CB450] [94351C52] CRC32 27 84,8 [560225A2] [12C4F4A9] CRC32 28 95,2 [2505C8F2] [D29487FB] CRC32
[teatrix.ru].t10322.torrent 
Торрент: Зарегистрирован [ 2015-11-01 20:51 ] · 7937C6E936429111239C832D4F689711E5550F1B

Скачать .torrent

Скачать

18 KB

Статус: проверено
Скачан: 0 раз
Размер: 378 MB
terms.php



Быстрый ответ

Имя:

      
Для отправки сообщений необходимо включить JavaScript
Показать сообщения:    

Текущее время: 03-Дек 16:43

Часовой пояс: UTC + 3


Вы можете начинать темы
Вы можете отвечать на сообщения
Вы не можете редактировать свои сообщения
Вы не можете удалять свои сообщения
Вы не можете голосовать в опросах
Вы не можете прикреплять файлы к сообщениям
Вы можете скачивать файлы