(Score / Soundtrack) Жизнь других / Das Leben Der Anderen / The Lives of Others (by Gabriel Yared and Stephane Moucha) - 2006, FLAC (tracks+.cue), lossless


Статистика раздачи [Обновить пиров]
Размер:  372 MB   |    Зарегистрирован:  1 год 1 месяц   |    Скачан:  1 раз

Полного источника не было: 1 месяц 16 дней

 
   
 
 
 

[Цитировать]

Жизнь других / Das Leben Der Anderen / The Lives of Others-- --Жанр: Score / Soundtrack || Композитор: Gabriel Yared and Stephane Moucha || Год выпуска диска: 2006 || Страна-производитель диска: Germany || Аудио кодек: FLAC (*.flac) || Тип рипа: tracks+.cue || Битрейт аудио: lossless || Продолжительность: 01:15:02 || Источник: What.cd (zhangwenqin1955) || Наличие сканов в содержимом раздачи: нет-Треклист:
01. Gabriel Yared and Stephane Moucha - Die Unsichtbare Front [02:43]
02. Gabriel Yared and Stephane Moucha - HGW XX/7 [05:34]
03. Ernst Ludwig Petrowsky - Gral [02:37]
04. Ernst Ludwig Petrowsky - E.W. Als GruS [02:33]
05. Gabriel Yared and Stephane Moucha - Linienstrasse [02:51]
06. Gabriel Yared and Stephane Moucha - Der Verrat [02:05]
07. Angelika Mann - Champus-Lied [03:29]
08. 4PS - Ich Wurde, Wenn Ich WuSte, DaS Ich Konnte [04:00]
09. Gabriel Yared and Stephane Moucha - Das Leben Der Anderen [05:14]
10. Gabriel Yared and Stephane Moucha - Die Sonate Vom Guten Menschen [01:40]
11. Frank Schobel - Wie Ein Stern [06:20]
12. Gabriel Yared and Stephane Moucha - IM "Martha" [04:23]
13. Pankow - Rock`n Roll Im Stadtpark [03:24]
14. Bayon - Stell Dich Mitten In Den Regen [05:17]
15. Gabriel Yared and Stephane Moucha - Gesichter Der Liebe [03:32]
16. Gabriel Yared and Stephane Moucha - Georg Dreymann, Der Dichter [01:28]
17. Hansi Biebl - Es Gibt Momente [05:07]
18. Karat - Albatros [08:12]
19. Silly - Tausend Augen [04:32]

Лог создания рипа

Exact Audio Copy V0.99 prebeta 4 from 23. January 2008
EAC extraction logfile from 29. April 2009, 15:53
Various / Das Leben Der Anderen
Used drive : SlimtypeDVD A DS8A2S Adapter: 0 ID: 0
Read mode : SecureUtilize accurate stream : YesDefeat audio cache : YesMake use of C2 pointers : No
Read offset correction : 6Overread into Lead-In and Lead-Out : NoFill up missing offset samples with silence : YesDelete leading and trailing silent blocks : NoNull samples used in CRC calculations : YesUsed interface : Native Win32 interface for Win NT & 2000Gap handling : Appended to previous track
Used output format : User Defined EncoderSelected bitrate : 768 kBit/sQuality : HighAdd ID3 tag : NoCommand line compressor : C:\Program Files\Exact Audio Copy\FLAC\FLAC.EXEAdditional command line options : -6 -V -T "ARTIST=%a" -T "TITLE=%t" -T "ALBUM=%g" -T "DATE=%y" -T "TRACKNUMBER=%n" -T "GENRE=%m" -T "COMMENT=%e" %s -o %d
TOC of the extracted CD
Track | Start | Length | Start sector | End sector --------------------------------------------------------- 1 | 0:00.00 | 2:42.72 | 0 | 12221 2 | 2:42.72 | 5:33.57 | 12222 | 37253 3 | 8:16.54 | 2:37.35 | 37254 | 49063 4 | 10:54.14 | 2:32.72 | 49064 | 60535 5 | 13:27.11 | 2:51.10 | 60536 | 73370 6 | 16:18.21 | 2:05.08 | 73371 | 82753 7 | 18:23.29 | 3:29.35 | 82754 | 98463 8 | 21:52.64 | 4:00.20 | 98464 | 116483 9 | 25:53.09 | 5:13.69 | 116484 | 140027 10 | 31:07.03 | 1:39.63 | 140028 | 147515 11 | 32:46.66 | 6:19.68 | 147516 | 176008 12 | 39:06.59 | 4:22.68 | 176009 | 195726 13 | 43:29.52 | 3:24.29 | 195727 | 211055 14 | 46:54.06 | 5:17.03 | 211056 | 234833 15 | 52:11.09 | 3:32.29 | 234834 | 250762 16 | 55:43.38 | 1:28.16 | 250763 | 257378 17 | 57:11.54 | 5:06.40 | 257379 | 280368 18 | 62:18.19 | 8:12.06 | 280369 | 317274 19 | 70:30.25 | 4:32.15 | 317275 | 337689
Track 1
Filename D:\Music\Various\Das Leben Der Anderen\01 Die Unsichtbare Front.wav
Pre-gap length 0:00:02.00
Peak level 92.7 % Track quality 100.0 % Test CRC FFC5E071 Copy CRC FFC5E071 Accurately ripped (confidence 3) [19C079BB] Copy OK
Track 2
Filename D:\Music\Various\Das Leben Der Anderen\02 HGW XX_7.wav
Peak level 51.5 % Track quality 100.0 % Test CRC 9AD7D8B3 Copy CRC 9AD7D8B3 Accurately ripped (confidence 3) [310A93AE] Copy OK
Track 3
Filename D:\Music\Various\Das Leben Der Anderen\03 Gral.wav
Peak level 66.0 % Track quality 100.0 % Test CRC 8DCB8899 Copy CRC 8DCB8899 Accurately ripped (confidence 3) [CA0B7C0E] Copy OK
Track 4
Filename D:\Music\Various\Das Leben Der Anderen\04 E.W. Als GruЯ.wav
Peak level 70.7 % Track quality 100.0 % Test CRC 92A90F80 Copy CRC 92A90F80 Accurately ripped (confidence 3) [D5ACA97D] Copy OK
Track 5
Filename D:\Music\Various\Das Leben Der Anderen\05 Linienstrasse.wav
Peak level 48.5 % Track quality 100.0 % Test CRC 6B9839F8 Copy CRC 6B9839F8 Accurately ripped (confidence 3) [4D5759D3] Copy OK
Track 6
Filename D:\Music\Various\Das Leben Der Anderen\06 Der Verrat.wav
Peak level 50.2 % Track quality 100.0 % Test CRC 7434077C Copy CRC 7434077C Accurately ripped (confidence 3) [D324B407] Copy OK
Track 7
Filename D:\Music\Various\Das Leben Der Anderen\07 Champus-Lied.wav
Peak level 57.0 % Track quality 100.0 % Test CRC 7249E815 Copy CRC 7249E815 Accurately ripped (confidence 3) [FD112B02] Copy OK
Track 8
Filename D:\Music\Various\Das Leben Der Anderen\08 Ich Wьrde, Wenn Ich WьЯte, DaЯ Ich Kцnnte.wav
Peak level 50.9 % Track quality 100.0 % Test CRC F82ABA49 Copy CRC F82ABA49 Accurately ripped (confidence 3) [E62574B8] Copy OK
Track 9
Filename D:\Music\Various\Das Leben Der Anderen\09 Das Leben Der Anderen.wav
Peak level 57.2 % Track quality 100.0 % Test CRC 31144BF8 Copy CRC 31144BF8 Accurately ripped (confidence 3) [1D332B8B] Copy OK
Track 10
Filename D:\Music\Various\Das Leben Der Anderen\10 Die Sonate Vom Guten Menschen.wav
Peak level 70.6 % Track quality 100.0 % Test CRC 6A252E61 Copy CRC 6A252E61 Accurately ripped (confidence 3) [26EBA130] Copy OK
Track 11
Filename D:\Music\Various\Das Leben Der Anderen\11 Wie Ein Stern.wav
Peak level 66.4 % Track quality 100.0 % Test CRC 0A1B369C Copy CRC 0A1B369C Accurately ripped (confidence 2) [2AABCEF5] Copy OK
Track 12
Filename D:\Music\Various\Das Leben Der Anderen\12 IM 'Martha'.wav
Peak level 61.5 % Track quality 100.0 % Test CRC 602BC43E Copy CRC 602BC43E Accurately ripped (confidence 2) [206733C0] Copy OK
Track 13
Filename D:\Music\Various\Das Leben Der Anderen\13 Rock`n Roll Im Stadtpark.wav
Peak level 53.2 % Track quality 100.0 % Test CRC 0BDA4CDA Copy CRC 0BDA4CDA Accurately ripped (confidence 3) [112903D8] Copy OK
Track 14
Filename D:\Music\Various\Das Leben Der Anderen\14 Stell Dich Mitten In Den Regen.wav
Peak level 99.8 % Track quality 100.0 % Test CRC 1460717A Copy CRC 1460717A Accurately ripped (confidence 3) [EC227591] Copy OK
Track 15
Filename D:\Music\Various\Das Leben Der Anderen\15 Gesichter Der Liebe.wav
Peak level 78.2 % Track quality 100.0 % Test CRC 4D355FE0 Copy CRC 4D355FE0 Accurately ripped (confidence 2) [5C4B17F7] Copy OK
Track 16
Filename D:\Music\Various\Das Leben Der Anderen\16 Georg Dreymann, Der Dichter.wav
Peak level 37.2 % Track quality 100.0 % Test CRC 41C246E8 Copy CRC 41C246E8 Accurately ripped (confidence 3) [095FAE9B] Copy OK
Track 17
Filename D:\Music\Various\Das Leben Der Anderen\17 Es Gibt Momente.wav
Peak level 84.1 % Track quality 100.0 % Test CRC 25CE1567 Copy CRC 25CE1567 Accurately ripped (confidence 3) [5934FAD7] Copy OK
Track 18
Filename D:\Music\Various\Das Leben Der Anderen\18 Albatros.wav
Peak level 99.0 % Track quality 100.0 % Test CRC 5DCDA121 Copy CRC 5DCDA121 Accurately ripped (confidence 3) [794B097D] Copy OK
Track 19
Filename D:\Music\Various\Das Leben Der Anderen\19 Tausend Augen.wav
Peak level 100.0 % Track quality 100.0 % Test CRC E8815FE2 Copy CRC E8815FE2 Accurately ripped (confidence 3) [2B7FB364] Copy OK
All tracks accurately ripped
No errors occurred
End of status report

Содержание индексной карты (.CUE)

REM GENRE SoundtrackREM DATE 2006REM DISCID 11119613REM COMMENT "ExactAudioCopy v0.99pb4"FILE "01 Die Unsichtbare Front.wav" WAVE TRACK 01 AUDIO INDEX 01 00:00:00FILE "02 HGW XX_7.wav" WAVE TRACK 02 AUDIO INDEX 01 00:00:00FILE "03 Gral.wav" WAVE TRACK 03 AUDIO INDEX 01 00:00:00FILE "04 E.W. Als GruЯ.wav" WAVE TRACK 04 AUDIO INDEX 01 00:00:00FILE "05 Linienstrasse.wav" WAVE TRACK 05 AUDIO INDEX 01 00:00:00FILE "06 Der Verrat.wav" WAVE TRACK 06 AUDIO INDEX 01 00:00:00FILE "07 Champus-Lied.wav" WAVE TRACK 07 AUDIO INDEX 01 00:00:00FILE "08 Ich Wьrde, Wenn Ich WьЯte, DaЯ Ich Kцnnte.wav" WAVE TRACK 08 AUDIO INDEX 01 00:00:00FILE "09 Das Leben Der Anderen.wav" WAVE TRACK 09 AUDIO INDEX 01 00:00:00FILE "10 Die Sonate Vom Guten Menschen.wav" WAVE TRACK 10 AUDIO INDEX 01 00:00:00FILE "11 Wie Ein Stern.wav" WAVE TRACK 11 AUDIO INDEX 01 00:00:00FILE "12 IM 'Martha'.wav" WAVE TRACK 12 AUDIO INDEX 01 00:00:00FILE "13 Rock`n Roll Im Stadtpark.wav" WAVE TRACK 13 AUDIO INDEX 01 00:00:00FILE "14 Stell Dich Mitten In Den Regen.wav" WAVE TRACK 14 AUDIO INDEX 01 00:00:00FILE "15 Gesichter Der Liebe.wav" WAVE TRACK 15 AUDIO INDEX 01 00:00:00FILE "16 Georg Dreymann, Der Dichter.wav" WAVE TRACK 16 AUDIO INDEX 01 00:00:00FILE "17 Es Gibt Momente.wav" WAVE TRACK 17 AUDIO INDEX 01 00:00:00FILE "18 Albatros.wav" WAVE TRACK 18 AUDIO INDEX 01 00:00:00FILE "19 Tausend Augen.wav" WAVE TRACK 19 AUDIO INDEX 01 00:00:00
[teatrix.ru].t10323.torrent 
Торрент: Зарегистрирован [ 2015-11-01 20:51 ] · 22124EA41DBE1771362D6FC74B54ABE5A70B8072

Скачать .torrent

Скачать

16 KB

Статус: проверено
Скачан: 1 раз
Размер: 372 MB
terms.php



Быстрый ответ

Имя:

      
Для отправки сообщений необходимо включить JavaScript
Показать сообщения:    

Текущее время: 10-Дек 21:34

Часовой пояс: UTC + 3


Вы можете начинать темы
Вы можете отвечать на сообщения
Вы не можете редактировать свои сообщения
Вы не можете удалять свои сообщения
Вы не можете голосовать в опросах
Вы не можете прикреплять файлы к сообщениям
Вы можете скачивать файлы