(Score / Soundtrack) Отель 'Мэриголд'. Заселение продолжается / The Second Best Exotic Marigold Hotel (by Thomas Newman) - 2015, FLAC (tracks+.cue), lossless


Статистика раздачи [Обновить пиров]
Размер:  326 MB   |    Зарегистрирован:  1 год 1 месяц   |    Скачан:  1 раз

Полного источника не было: 15 дней

 
   
 
 
 

[Цитировать]

Отель 'Мэриголд'. Заселение продолжается / The Second Best Exotic Marigold Hotel-Жанр: Score / Soundtrack
Композитор: Thomas Newman
Год выпуска диска: 2015
Производитель диска: EU
Издатель (лейбл): Sony Classical
Номер по каталогу: 88875031972-Аудиокодек: FLAC (*.flac)
Тип рипа: tracks+.cue
Битрейт аудио: lossless
Продолжительность: 01:01:41
Источник: собственный рип
Наличие сканов в содержимом раздачи: нет-Ссылки: Кинопоиск | IMDB | Wikipedia | SoundtrackCollector |

Треклист

01. Discretion [0:00:38.33]
02. Second Best Exotic [0:03:05.68]
03. Knees Then Names [0:01:56.39]
04. Chai [0:01:28.54]
05. Catnip [0:01:49.04]
06. Shreya Ghoshal / Ye Ishq Hai [0:03:55.41]
07. Busy Pensioner Bee [0:01:14.28]
08. Nimish & Abhilash [0:01:27.63]
09. Roll Call [0:01:24.73]
10. Already Gone [0:01:16.14]
11. Soft Hiss Of Treachery [0:01:12.16]
12. Completely Lethal [0:01:41.18]
13. Shreya Ghoshal & Sriram / Balma [0:03:48.72]
14. The Fun Never Starts [0:01:39.74]
15. Sagai [0:04:27.42]
16. Mumbai [0:02:16.45]
17. Unreasonable Behavior [0:02:01.41]
18. The Brilliant Bits [0:02:43.48]
19. Aaina [0:01:01.29]
20. Bringer Of New Things [0:00:34.38]
21. Daler Mehndi & Kalpana Patowary / Aila Re Aila [0:03:15.09]
22. Scorpions [0:02:00.63]
23. Shaadi [0:01:26.41]
24. Reservoirs Of Affection [0:01:23.18]
25. Wedding [0:04:21.05]
26. KK, Sukhwinder Singh, Mahalaxmi Iyer & Shankar Mahadevan / Jhoom Barabar Jhoom [0:03:38.23]
27. Life Piled On Life [0:01:06.51]
28. Map Of The World (End Title) [0:04:42.37]

Лог создания рипа

Exact Audio Copy V1.0 beta 3 from 29. August 2011
EAC extraction logfile from 7. March 2015, 15:58
Thomas Newman / The Second Best Exotic Marigold Hotel
Used drive : PLEXTOR CD-R PX-230A Adapter: 0 ID: 0
Read mode : SecureUtilize accurate stream : YesDefeat audio cache : YesMake use of C2 pointers : No
Read offset correction : 738Overread into Lead-In and Lead-Out : NoFill up missing offset samples with silence : YesDelete leading and trailing silent blocks : NoNull samples used in CRC calculations : YesUsed interface : Native Win32 interface for Win NT & 2000Gap handling : Appended to previous track
Used output format : User Defined EncoderSelected bitrate : 1024 kBit/sQuality : HighAdd ID3 tag : NoCommand line compressor : C:\Program Files\Exact Audio Copy\Flac\flac.exeAdditional command line options : -6 -V -T "ARTIST=%artist%" -T "TITLE=%title%" -T "ALBUM=%albumtitle%" -T "DATE=%year%"-T "TRACKNUMBER=%tracknr%" -T "GENRE=%genre%" -T "COMMENT=%comment%" -T "ALBUMARTIST=%albuminterpret%" -T "COMPOSER=%composer%"-T "DISCNUMBER=%cdnumber%" -T "TOTALDISCS=%totalcds%" -T "TOTALTRACKS=%numtracks%" %source% -o %dest%
TOC of the extracted CD
Track | Start | Length | Start sector | End sector --------------------------------------------------------- 1 | 0:00.00 | 0:38.33 | 0 | 2882 2 | 0:38.33 | 3:05.68 | 2883 | 16825 3 | 3:44.26 | 1:56.39 | 16826 | 25564 4 | 5:40.65 | 1:28.54 | 25565 | 32218 5 | 7:09.44 | 1:49.04 | 32219 | 40397 6 | 8:58.48 | 3:55.41 | 40398 | 58063 7 | 12:54.14 | 1:14.28 | 58064 | 63641 8 | 14:08.42 | 1:27.63 | 63642 | 70229 9 | 15:36.30 | 1:24.73 | 70230 | 76602 10 | 17:01.28 | 1:16.14 | 76603 | 82316 11 | 18:17.42 | 1:12.16 | 82317 | 87732 12 | 19:29.58 | 1:41.18 | 87733 | 95325 13 | 21:11.01 | 3:48.72 | 95326 | 112497 14 | 24:59.73 | 1:39.74 | 112498 | 119996 15 | 26:39.72 | 4:27.42 | 119997 | 140063 16 | 31:07.39 | 2:16.45 | 140064 | 150308 17 | 33:24.09 | 2:01.41 | 150309 | 159424 18 | 35:25.50 | 2:43.48 | 159425 | 171697 19 | 38:09.23 | 1:01.29 | 171698 | 176301 20 | 39:10.52 | 0:34.38 | 176302 | 178889 21 | 39:45.15 | 3:15.09 | 178890 | 193523 22 | 43:00.24 | 2:00.63 | 193524 | 202586 23 | 45:01.12 | 1:26.41 | 202587 | 209077 24 | 46:27.53 | 1:23.18 | 209078 | 215320 25 | 47:50.71 | 4:21.05 | 215321 | 234900 26 | 52:12.01 | 3:38.23 | 234901 | 251273 27 | 55:50.24 | 1:06.51 | 251274 | 256274 28 | 56:57.00 | 4:42.37 | 256275 | 277461
Track 1
Filename C:\Music\01 - Thomas Newman - Discretion.wav
Pre-gap length 0:00:02.00
Peak level 99.0 % Extraction speed 4.0 X Track quality 100.0 % Test CRC 304653AD Copy CRC 304653AD Track not present in AccurateRip database Copy OK
Track 2
Filename C:\Music\02 - Thomas Newman - Second Best Exotic.wav
Peak level 99.0 % Extraction speed 5.9 X Track quality 99.9 % Test CRC 51501311 Copy CRC 51501311 Track not present in AccurateRip database Copy OK
Track 3
Filename C:\Music\03 - Thomas Newman - Knees Then Names.wav
Peak level 99.0 % Extraction speed 5.6 X Track quality 99.9 % Test CRC 8676AB2D Copy CRC 8676AB2D Track not present in AccurateRip database Copy OK
Track 4
Filename C:\Music\04 - Thomas Newman - Chai.wav
Peak level 44.6 % Extraction speed 6.5 X Track quality 100.0 % Test CRC 097CFCDE Copy CRC 097CFCDE Track not present in AccurateRip database Copy OK
Track 5
Filename C:\Music\05 - Thomas Newman - Catnip.wav
Peak level 99.0 % Extraction speed 6.8 X Track quality 100.0 % Test CRC 22778A3A Copy CRC 22778A3A Track not present in AccurateRip database Copy OK
Track 6
Filename C:\Music\06 - Shreya Ghoshal - Ye Ishq Hai.wav
Peak level 78.4 % Extraction speed 6.9 X Track quality 100.0 % Test CRC E696C1BA Copy CRC E696C1BA Track not present in AccurateRip database Copy OK
Track 7
Filename C:\Music\07 - Thomas Newman - Busy Pensioner Bee.wav
Pre-gap length 0:00:00.18
Peak level 82.3 % Extraction speed 4.2 X Track quality 99.8 % Test CRC F28F0275 Copy CRC F28F0275 Track not present in AccurateRip database Copy OK
Track 8
Filename C:\Music\08 - Thomas Newman - Nimish & Abhilash.wav
Peak level 99.0 % Extraction speed 6.0 X Track quality 100.0 % Test CRC 2A419688 Copy CRC 2A419688 Track not present in AccurateRip database Copy OK
Track 9
Filename C:\Music\09 - Thomas Newman - Roll Call.wav
Pre-gap length 0:00:00.21
Peak level 87.3 % Extraction speed 4.8 X Track quality 99.8 % Test CRC 0AE338CF Copy CRC 0AE338CF Track not present in AccurateRip database Copy OK
Track 10
Filename C:\Music\10 - Thomas Newman - Already Gone.wav
Peak level 99.0 % Extraction speed 6.1 X Track quality 100.0 % Test CRC D02E484A Copy CRC D02E484A Track not present in AccurateRip database Copy OK
Track 11
Filename C:\Music\11 - Thomas Newman - Soft Hiss Of Treachery.wav
Peak level 60.6 % Extraction speed 6.2 X Track quality 100.0 % Test CRC 9A3C9728 Copy CRC 9A3C9728 Track not present in AccurateRip database Copy OK
Track 12
Filename C:\Music\12 - Thomas Newman - Completely Lethal.wav
Peak level 99.0 % Extraction speed 5.3 X Track quality 99.8 % Test CRC BB3E87A2 Copy CRC BB3E87A2 Track not present in AccurateRip database Copy OK
Track 13
Filename C:\Music\13 - Shreya Ghoshal & Sriram - Balma.wav
Pre-gap length 0:00:00.20
Peak level 52.8 % Extraction speed 7.7 X Track quality 100.0 % Test CRC DDD748D2 Copy CRC DDD748D2 Track not present in AccurateRip database Copy OK
Track 14
Filename C:\Music\14 - Thomas Newman - The Fun Never Starts.wav
Peak level 99.0 % Extraction speed 7.0 X Track quality 100.0 % Test CRC B2BAEB1D Copy CRC B2BAEB1D Track not present in AccurateRip database Copy OK
Track 15
Filename C:\Music\15 - Thomas Newman - Sagai.wav
Pre-gap length 0:00:00.04
Peak level 99.0 % Extraction speed 7.4 X Track quality 99.9 % Test CRC 5108C67A Copy CRC 5108C67A Track not present in AccurateRip database Copy OK
Track 16
Filename C:\Music\16 - Thomas Newman - Mumbai.wav
Pre-gap length 0:00:00.18
Peak level 99.0 % Extraction speed 8.0 X Track quality 100.0 % Test CRC 43191FDF Copy CRC 43191FDF Track not present in AccurateRip database Copy OK
Track 17
Filename C:\Music\17 - Thomas Newman - Unreasonable Behavior.wav
Peak level 74.4 % Extraction speed 8.0 X Track quality 100.0 % Test CRC ED755D96 Copy CRC ED755D96 Track not present in AccurateRip database Copy OK
Track 18
Filename C:\Music\18 - Thomas Newman - The Brilliant Bits.wav
Pre-gap length 0:00:00.12
Peak level 98.2 % Extraction speed 7.2 X Track quality 99.9 % Test CRC 28FDF6D9 Copy CRC 28FDF6D9 Track not present in AccurateRip database Copy OK
Track 19
Filename C:\Music\19 - Thomas Newman - Aaina.wav
Peak level 30.6 % Extraction speed 5.1 X Track quality 99.8 % Test CRC D2D97F74 Copy CRC D2D97F74 Track not present in AccurateRip database Copy OK
Track 20
Filename C:\Music\20 - Thomas Newman - Bringer Of New Things.wav
Pre-gap length 0:00:00.66
Peak level 99.0 % Extraction speed 3.7 X Track quality 99.6 % Test CRC 25714048 Copy CRC 25714048 Track not present in AccurateRip database Copy OK
Track 21
Filename C:\Music\21 - Daler Mehndi & Kalpana Patowary - Aila Re Aila.wav
Peak level 54.1 % Extraction speed 9.0 X Track quality 100.0 % Test CRC 458AAF79 Copy CRC 458AAF79 Track not present in AccurateRip database Copy OK
Track 22
Filename C:\Music\22 - Thomas Newman - Scorpions.wav
Pre-gap length 0:00:01.07
Peak level 99.0 % Extraction speed 6.9 X Track quality 99.9 % Test CRC C035744A Copy CRC C035744A Track not present in AccurateRip database Copy OK
Track 23
Filename C:\Music\23 - Thomas Newman - Shaadi.wav
Peak level 99.0 % Extraction speed 8.2 X Track quality 100.0 % Test CRC 1D2FF8F2 Copy CRC 1D2FF8F2 Track not present in AccurateRip database Copy OK
Track 24
Filename C:\Music\24 - Thomas Newman - Reservoirs Of Affection.wav
Peak level 76.5 % Extraction speed 8.4 X Track quality 100.0 % Test CRC 44B361E7 Copy CRC 44B361E7 Track not present in AccurateRip database Copy OK
Track 25
Filename C:\Music\25 - Thomas Newman - Wedding.wav
Peak level 80.6 % Extraction speed 9.7 X Track quality 100.0 % Test CRC FEFF012D Copy CRC FEFF012D Track not present in AccurateRip database Copy OK
Track 26
Filename C:\Music\26 - KK & Sukhwinder Singh & Mahalaxmi Iyer; Shankar Mahadevan - Jhoom Barabar Jhoom.wav
Peak level 75.1 % Extraction speed 9.9 X Track quality 100.0 % Test CRC 056FA722 Copy CRC 056FA722 Track not present in AccurateRip database Copy OK
Track 27
Filename C:\Music\27 - Thomas Newman - Life Piled On Life.wav
Pre-gap length 0:00:01.49
Peak level 96.7 % Extraction speed 8.3 X Track quality 100.0 % Test CRC 78129709 Copy CRC 78129709 Track not present in AccurateRip database Copy OK
Track 28
Filename C:\Music\28 - Thomas Newman - Map Of The World (End Title).wav
Peak level 99.0 % Extraction speed 10.3 X Track quality 100.0 % Test CRC 9246F139 Copy CRC 9246F139 Track not present in AccurateRip database Copy OK
None of the tracks are present in the AccurateRip database
No errors occurred
End of status report
==== Log checksum 88443583C8F0F2EFC02CBEB4E587C444E22741820FA2BE4A589A6943C6D35AAF ====

Содержание индексной карты (.CUE)

REM GENRE SoundtrackREM DATE 2015REM DISCID 6C0E731CREM COMMENT "ExactAudioCopy v1.0b3"PERFORMER "Thomas Newman"TITLE "The Second Best Exotic Marigold Hotel"FILE "01 - Thomas Newman - Discretion.wav" WAVE TRACK 01 AUDIO TITLE "Discretion" PERFORMER "Thomas Newman" INDEX 01 00:00:00FILE "02 - Thomas Newman - Second Best Exotic.wav" WAVE TRACK 02 AUDIO TITLE "Second Best Exotic" PERFORMER "Thomas Newman" INDEX 01 00:00:00FILE "03 - Thomas Newman - Knees Then Names.wav" WAVE TRACK 03 AUDIO TITLE "Knees Then Names" PERFORMER "Thomas Newman" INDEX 01 00:00:00FILE "04 - Thomas Newman - Chai.wav" WAVE TRACK 04 AUDIO TITLE "Chai" PERFORMER "Thomas Newman" INDEX 01 00:00:00FILE "05 - Thomas Newman - Catnip.wav" WAVE TRACK 05 AUDIO TITLE "Catnip" PERFORMER "Thomas Newman" INDEX 01 00:00:00FILE "06 - Shreya Ghoshal - Ye Ishq Hai.wav" WAVE TRACK 06 AUDIO TITLE "Ye Ishq Hai" PERFORMER "Shreya Ghoshal" INDEX 01 00:00:00 TRACK 07 AUDIO TITLE "Busy Pensioner Bee" PERFORMER "Thomas Newman" INDEX 00 03:55:23FILE "07 - Thomas Newman - Busy Pensioner Bee.wav" WAVE INDEX 01 00:00:00FILE "08 - Thomas Newman - Nimish & Abhilash.wav" WAVE TRACK 08 AUDIO TITLE "Nimish & Abhilash" PERFORMER "Thomas Newman" INDEX 01 00:00:00 TRACK 09 AUDIO TITLE "Roll Call" PERFORMER "Thomas Newman" INDEX 00 01:27:42FILE "09 - Thomas Newman - Roll Call.wav" WAVE INDEX 01 00:00:00FILE "10 - Thomas Newman - Already Gone.wav" WAVE TRACK 10 AUDIO TITLE "Already Gone" PERFORMER "Thomas Newman" INDEX 01 00:00:00FILE "11 - Thomas Newman - Soft Hiss Of Treachery.wav" WAVE TRACK 11 AUDIO TITLE "Soft Hiss Of Treachery" PERFORMER "Thomas Newman" INDEX 01 00:00:00FILE "12 - Thomas Newman - Completely Lethal.wav" WAVE TRACK 12 AUDIO TITLE "Completely Lethal" PERFORMER "Thomas Newman" INDEX 01 00:00:00 TRACK 13 AUDIO TITLE "Balma" PERFORMER "Shreya Ghoshal & Sriram" INDEX 00 01:40:73FILE "13 - Shreya Ghoshal & Sriram - Balma.wav" WAVE INDEX 01 00:00:00FILE "14 - Thomas Newman - The Fun Never Starts.wav" WAVE TRACK 14 AUDIO TITLE "The Fun Never Starts" PERFORMER "Thomas Newman" INDEX 01 00:00:00 TRACK 15 AUDIO TITLE "Sagai" PERFORMER "Thomas Newman" INDEX 00 01:39:70FILE "15 - Thomas Newman - Sagai.wav" WAVE INDEX 01 00:00:00 TRACK 16 AUDIO TITLE "Mumbai" PERFORMER "Thomas Newman" INDEX 00 04:27:24FILE "16 - Thomas Newman - Mumbai.wav" WAVE INDEX 01 00:00:00FILE "17 - Thomas Newman - Unreasonable Behavior.wav" WAVE TRACK 17 AUDIO TITLE "Unreasonable Behavior" PERFORMER "Thomas Newman" INDEX 01 00:00:00 TRACK 18 AUDIO TITLE "The Brilliant Bits" PERFORMER "Thomas Newman" INDEX 00 02:01:29FILE "18 - Thomas Newman - The Brilliant Bits.wav" WAVE INDEX 01 00:00:00FILE "19 - Thomas Newman - Aaina.wav" WAVE TRACK 19 AUDIO TITLE "Aaina" PERFORMER "Thomas Newman" INDEX 01 00:00:00 TRACK 20 AUDIO TITLE "Bringer Of New Things" PERFORMER "Thomas Newman" INDEX 00 01:00:38FILE "20 - Thomas Newman - Bringer Of New Things.wav" WAVE INDEX 01 00:00:00FILE "21 - Daler Mehndi & Kalpana Patowary - Aila Re Aila.wav" WAVE TRACK 21 AUDIO TITLE "Aila Re Aila" PERFORMER "Daler Mehndi & Kalpana Patowary" INDEX 01 00:00:00 TRACK 22 AUDIO TITLE "Scorpions" PERFORMER "Thomas Newman" INDEX 00 03:14:02FILE "22 - Thomas Newman - Scorpions.wav" WAVE INDEX 01 00:00:00FILE "23 - Thomas Newman - Shaadi.wav" WAVE TRACK 23 AUDIO TITLE "Shaadi" PERFORMER "Thomas Newman" INDEX 01 00:00:00FILE "24 - Thomas Newman - Reservoirs Of Affection.wav" WAVE TRACK 24 AUDIO TITLE "Reservoirs Of Affection" PERFORMER "Thomas Newman" INDEX 01 00:00:00FILE "25 - Thomas Newman - Wedding.wav" WAVE TRACK 25 AUDIO TITLE "Wedding" PERFORMER "Thomas Newman" INDEX 01 00:00:00FILE "26 - 26 - KK, Sukhwinder Singh, Mahalaxmi Iyer & Shankar Mahadevan - Jhoom Barabar Jhoom.wav" WAVE TRACK 26 AUDIO TITLE "Jhoom Barabar Jhoom" PERFORMER "26 - KK, Sukhwinder Singh, Mahalaxmi Iyer & Shankar Mahadevan" INDEX 01 00:00:00 TRACK 27 AUDIO TITLE "Life Piled On Life" PERFORMER "Thomas Newman" INDEX 00 03:36:49FILE "27 - Thomas Newman - Life Piled On Life.wav" WAVE INDEX 01 00:00:00FILE "28 - Thomas Newman - Map Of The World (End Title).wav" WAVE TRACK 28 AUDIO TITLE "Map Of The World (End Title)" PERFORMER "Thomas Newman" INDEX 01 00:00:00
[teatrix.ru].t10324.torrent 
Торрент: Зарегистрирован [ 2015-11-01 20:51 ] · 1B1B284EECC1EBE1123485D844E1BDDD6037B811

Скачать .torrent

Скачать

9 KB

Статус: проверено
Скачан: 1 раз
Размер: 326 MB
terms.php



Быстрый ответ

Имя:

      
Для отправки сообщений необходимо включить JavaScript
Показать сообщения:    

Текущее время: 02-Дек 21:16

Часовой пояс: UTC + 3


Вы можете начинать темы
Вы можете отвечать на сообщения
Вы не можете редактировать свои сообщения
Вы не можете удалять свои сообщения
Вы не можете голосовать в опросах
Вы не можете прикреплять файлы к сообщениям
Вы можете скачивать файлы