(Score) Пятьдесят оттенков серого / Fifty Shades of Grey (by Danny Elfman) - 2015, FLAC (tracks+.cue), lossless


Статистика раздачи [Обновить пиров]
Размер:  319 MB   |    Зарегистрирован:  1 год 1 месяц   |    Скачан:  0 раз

Полного источника не было: Никогда

 
   
 
 
 

[Цитировать]

Пятьдесят оттенков серого / Fifty Shades of Grey-Жанр: Score
Композитор: Danny Elfman
Год выпуска диска: 2015
Производитель диска: EDC, Germany
Издатель (лейбл): Republic Records
Номер по каталогу: 472 017-2-Аудиокодек: FLAC (*.flac)
Тип рипа: tracks+.cue
Битрейт аудио: lossless
Продолжительность: 00:46:27
Источник: собственный рип
Наличие сканов в содержимом раздачи: да, 600 dpi-Ссылки: Кинопоиск | IMDB | Wikipedia | SoundtrackCollector
MP3: (Score) Пятьдесят оттенков серого / Fifty Shades of Grey (Danny Elfman) - 2015, MP3 (tracks) 320 kbps

Треклист

01. Shades Of Grey [0:02:07.06]
02. Ana's Theme [0:01:23.64]
03. The Red Room [0:03:26.13]
04. Then Don't! [0:02:32.26]
05. A Spanking [0:02:32.02]
06. Going For Coffee [0:01:32.23]
07. Where Am I? [0:01:35.45]
08. Ana and Christian [0:03:24.02]
09. Clean You Up [0:02:43.08]
10. The Contract [0:03:27.10]
11. The Art Of War [0:03:32.59]
12. Did That Hurt? [0:02:54.12]
13. Bliss [0:02:29.43]
14. Show Me [0:03:02.13]
15. Counting To Six [0:03:21.46]
16. Variations On A Shades [0:06:22.68]

Лог создания рипа

Exact Audio Copy V1.0 beta 3 from 29. August 2011
EAC extraction logfile from 13. February 2015, 13:40
Danny Elfman / Fifty Shades Of Grey
Used drive : PLEXTOR CD-R PX-230A Adapter: 0 ID: 0
Read mode : SecureUtilize accurate stream : YesDefeat audio cache : YesMake use of C2 pointers : No
Read offset correction : 738Overread into Lead-In and Lead-Out : NoFill up missing offset samples with silence : YesDelete leading and trailing silent blocks : NoNull samples used in CRC calculations : YesUsed interface : Native Win32 interface for Win NT & 2000Gap handling : Appended to previous track
Used output format : User Defined EncoderSelected bitrate : 1024 kBit/sQuality : HighAdd ID3 tag : NoCommand line compressor : C:\Program Files\Exact Audio Copy\Flac\flac.exeAdditional command line options : -6 -V -T "ARTIST=%artist%" -T "TITLE=%title%" -T "ALBUM=%albumtitle%" -T "DATE=%year%"-T "TRACKNUMBER=%tracknr%" -T "GENRE=%genre%" -T "COMMENT=%comment%" -T "ALBUMARTIST=%albuminterpret%" -T "COMPOSER=%composer%"-T "DISCNUMBER=%cdnumber%" -T "TOTALDISCS=%totalcds%" -T "TOTALTRACKS=%numtracks%" %source% -o %dest%
TOC of the extracted CD
Track | Start | Length | Start sector | End sector --------------------------------------------------------- 1 | 0:00.00 | 2:07.06 | 0 | 9530 2 | 2:07.06 | 1:23.64 | 9531 | 15819 3 | 3:30.70 | 3:26.13 | 15820 | 31282 4 | 6:57.08 | 2:32.26 | 31283 | 42708 5 | 9:29.34 | 2:32.02 | 42709 | 54110 6 | 12:01.36 | 1:32.23 | 54111 | 61033 7 | 13:33.59 | 1:35.45 | 61034 | 68203 8 | 15:09.29 | 3:24.02 | 68204 | 83505 9 | 18:33.31 | 2:43.08 | 83506 | 95738 10 | 21:16.39 | 3:27.10 | 95739 | 111273 11 | 24:43.49 | 3:32.59 | 111274 | 127232 12 | 28:16.33 | 2:54.12 | 127233 | 140294 13 | 31:10.45 | 2:29.43 | 140295 | 151512 14 | 33:40.13 | 3:02.13 | 151513 | 165175 15 | 36:42.26 | 3:21.46 | 165176 | 180296 16 | 40:03.72 | 6:22.68 | 180297 | 209014
Track 1
Filename C:\Music\01 - Shades Of Grey.wav
Pre-gap length 0:00:02.00
Peak level 94.3 % Extraction speed 4.8 X Track quality 100.0 % Test CRC 5BB4A867 Copy CRC 5BB4A867 Track not present in AccurateRip database Copy OK
Track 2
Filename C:\Music\02 - Ana's Theme.wav
Peak level 56.9 % Extraction speed 4.1 X Track quality 100.0 % Test CRC 593DBA7D Copy CRC 593DBA7D Track not present in AccurateRip database Copy OK
Track 3
Filename C:\Music\03 - The Red Room.wav
Peak level 97.1 % Extraction speed 4.9 X Track quality 99.9 % Test CRC 221A61BE Copy CRC 221A61BE Track not present in AccurateRip database Copy OK
Track 4
Filename C:\Music\04 - Then Don't!.wav
Peak level 94.3 % Extraction speed 5.2 X Track quality 100.0 % Test CRC EE286805 Copy CRC EE286805 Track not present in AccurateRip database Copy OK
Track 5
Filename C:\Music\05 - A Spanking.wav
Peak level 94.3 % Extraction speed 4.5 X Track quality 99.9 % Test CRC 21BD86E1 Copy CRC 21BD86E1 Track not present in AccurateRip database Copy OK
Track 6
Filename C:\Music\06 - Going For Coffee.wav
Peak level 74.6 % Extraction speed 3.7 X Track quality 99.8 % Test CRC 321D2A26 Copy CRC 321D2A26 Track not present in AccurateRip database Copy OK
Track 7
Filename C:\Music\07 - Where Am I.wav
Peak level 82.3 % Extraction speed 3.8 X Track quality 99.8 % Test CRC 3C974C3A Copy CRC 3C974C3A Track not present in AccurateRip database Copy OK
Track 8
Filename C:\Music\08 - Ana and Christian.wav
Peak level 94.3 % Extraction speed 5.5 X Track quality 100.0 % Test CRC 722BB972 Copy CRC 722BB972 Track not present in AccurateRip database Copy OK
Track 9
Filename C:\Music\09 - Clean You Up.wav
Peak level 94.3 % Extraction speed 5.3 X Track quality 100.0 % Test CRC 6755D64D Copy CRC 6755D64D Track not present in AccurateRip database Copy OK
Track 10
Filename C:\Music\10 - The Contract.wav
Peak level 94.3 % Extraction speed 4.9 X Track quality 99.9 % Test CRC F63E39E5 Copy CRC F63E39E5 Track not present in AccurateRip database Copy OK
Track 11
Filename C:\Music\11 - The Art Of War.wav
Peak level 94.3 % Extraction speed 4.8 X Track quality 99.9 % Test CRC CB127B5B Copy CRC CB127B5B Track not present in AccurateRip database Copy OK
Track 12
Filename C:\Music\12 - Did That Hurt.wav
Peak level 94.3 % Extraction speed 5.3 X Track quality 100.0 % Test CRC 27EDCA29 Copy CRC 27EDCA29 Track not present in AccurateRip database Copy OK
Track 13
Filename C:\Music\13 - Bliss.wav
Peak level 98.3 % Extraction speed 5.2 X Track quality 100.0 % Test CRC 8168E4DC Copy CRC 8168E4DC Track not present in AccurateRip database Copy OK
Track 14
Filename C:\Music\14 - Show Me.wav
Peak level 94.3 % Extraction speed 4.4 X Track quality 100.0 % Test CRC DA9AFB74 Copy CRC DA9AFB74 Track not present in AccurateRip database Copy OK
Track 15
Filename C:\Music\15 - Counting To Six.wav
Peak level 94.3 % Extraction speed 5.4 X Track quality 100.0 % Test CRC 73BE2FDE Copy CRC 73BE2FDE Track not present in AccurateRip database Copy OK
Track 16
Filename C:\Music\16 - Variations On A Shades.wav
Peak level 94.3 % Extraction speed 5.7 X Track quality 100.0 % Test CRC C0AC11B6 Copy CRC C0AC11B6 Track not present in AccurateRip database Copy OK
None of the tracks are present in the AccurateRip database
No errors occurred
End of status report
==== Log checksum 148CFA34932773C477E17432941CBE903FCB1EE7492913FC2563DC7B86CFE7FB ====

Содержание индексной карты (.CUE)

REM GENRE SoundtrackREM DATE 2015REM DISCID C20AE210REM COMMENT "ExactAudioCopy v1.0b3"PERFORMER "Danny Elfman"TITLE "Fifty Shades Of Grey"FILE "01 - Shades Of Grey.wav" WAVE TRACK 01 AUDIO TITLE "Shades Of Grey" PERFORMER "Danny Elfman" INDEX 01 00:00:00FILE "02 - Ana's Theme.wav" WAVE TRACK 02 AUDIO TITLE "Ana's Theme" PERFORMER "Danny Elfman" INDEX 01 00:00:00FILE "03 - The Red Room.wav" WAVE TRACK 03 AUDIO TITLE "The Red Room" PERFORMER "Danny Elfman" INDEX 01 00:00:00FILE "04 - Then Don't!.wav" WAVE TRACK 04 AUDIO TITLE "Then Don't!" PERFORMER "Danny Elfman" INDEX 01 00:00:00FILE "05 - A Spanking.wav" WAVE TRACK 05 AUDIO TITLE "A Spanking" PERFORMER "Danny Elfman" INDEX 01 00:00:00FILE "06 - Going For Coffee.wav" WAVE TRACK 06 AUDIO TITLE "Going For Coffee" PERFORMER "Danny Elfman" INDEX 01 00:00:00FILE "07 - Where Am I.wav" WAVE TRACK 07 AUDIO TITLE "Where Am I?" PERFORMER "Danny Elfman" INDEX 01 00:00:00FILE "08 - Ana and Christian.wav" WAVE TRACK 08 AUDIO TITLE "Ana and Christian" PERFORMER "Danny Elfman" INDEX 01 00:00:00FILE "09 - Clean You Up.wav" WAVE TRACK 09 AUDIO TITLE "Clean You Up" PERFORMER "Danny Elfman" INDEX 01 00:00:00FILE "10 - The Contract.wav" WAVE TRACK 10 AUDIO TITLE "The Contract" PERFORMER "Danny Elfman" INDEX 01 00:00:00FILE "11 - The Art Of War.wav" WAVE TRACK 11 AUDIO TITLE "The Art Of War" PERFORMER "Danny Elfman" INDEX 01 00:00:00FILE "12 - Did That Hurt.wav" WAVE TRACK 12 AUDIO TITLE "Did That Hurt?" PERFORMER "Danny Elfman" INDEX 01 00:00:00FILE "13 - Bliss.wav" WAVE TRACK 13 AUDIO TITLE "Bliss" PERFORMER "Danny Elfman" INDEX 01 00:00:00FILE "14 - Show Me.wav" WAVE TRACK 14 AUDIO TITLE "Show Me" PERFORMER "Danny Elfman" INDEX 01 00:00:00FILE "15 - Counting To Six.wav" WAVE TRACK 15 AUDIO TITLE "Counting To Six" PERFORMER "Danny Elfman" INDEX 01 00:00:00FILE "16 - Variations On A Shades.wav" WAVE TRACK 16 AUDIO TITLE "Variations On A Shades" PERFORMER "Danny Elfman" INDEX 01 00:00:00
[teatrix.ru].t10325.torrent 
Торрент: Зарегистрирован [ 2015-11-01 20:51 ] · AFFB168D5C458E8100F3FF47D624FD522E2CFB19

Скачать .torrent

Скачать

15 KB

Статус: проверено
Скачан: 0 раз
Размер: 319 MB
terms.php



Быстрый ответ

Имя:

      
Для отправки сообщений необходимо включить JavaScript
Показать сообщения:    

Текущее время: 06-Дек 20:58

Часовой пояс: UTC + 3


Вы можете начинать темы
Вы можете отвечать на сообщения
Вы не можете редактировать свои сообщения
Вы не можете удалять свои сообщения
Вы не можете голосовать в опросах
Вы не можете прикреплять файлы к сообщениям
Вы можете скачивать файлы