(Soundtrack/TV) Аббатство Даунтон / Christmas at Downton Abbey (by VA) - 2014 (2010–2015), FLAC (tracks+.cue) lossless


Статистика раздачи [Обновить пиров]
Размер:  703 MB   |    Зарегистрирован:  1 год 2 месяца   |    Скачан:  0 раз

Полного источника не было: Никогда

 
   
 
 
 

[Цитировать]

Аббатство Даунтон / Christmas at Downton Abbey
Название альбома: Christmas at Downton Abbey
Жанр: Soundtrack
Композитор: VA
Год выпуска диска: 2014
Год выпуска фильма: 2010-2015
Страна-производитель диска: Great Britain
Издатель (лейбл): Warner Bros.
Номер по каталогу: 546252
Аудиокодек: FLAC
Тип рипа: tracks+.cue
Битрейт аудио: lossless
Продолжительность: CD1'01:14:22, CD2'01:04:57
Источник: waht
Наличие сканов в содержимом раздачи: да
ID3-теги: да

Треклист:

CD 1:
01. The Budapest City Orchestra & The Budapest Choral Voices - The Downton Christmas Suite (part 1) (3:14)
02. Julian Ovenden - O Holy Night (4:17)
03. Elizabeth McGovern - It Came Upon A Midnight Clear (2:38)
04. Elizabeth McGovern & Julian Ovenden - The First Noel (4:28)
05. Julian Ovenden - The Sussex Carol (1:55)
06. Katie Marshell & Julian Ovenden - 12 Days Of Christmas (4:26)
07. Julian Ovenden - Silent Night (3:02)
08. Dame Kiri Te Kanawa - We Wish You A Merry Christmas (1:34)
09. Choir Of Kings College Cambridge - In The Bleak Midwinter (4:21)
10. Dame Kiri Te Kanawa - O Little Town Of Bethlehem (3:19)
11. Choir Of Kings College Cambridge - Once In Royal David's City (5:10)
12. Choir Of Kings College Cambridge - Hark! The Herald Angels Sing (4:06)
13. Choir Of Kings College Cambridge - O Come All Ye Faithful (4:45)
14. William Christie - Messe De Minuit Pour Noel - Kyrie (1:28)
15. Choir Of Kings College Cambridge - Ding Dong! Merrily On High (2:19)
16. Michael George & Timothy Norris - Good King Wenceslas (2:27)
17. Choir Of Kings College Cambridge - While Shepherds Watched (2:49)
18. Choir Of Kings College Cambridge - Away In A Manger (2:05)
19. Choir Of Kings College Cambridge - In Dulci Jubilo (3:24)
20. Libera - Panis Angelicus (3:11)
21. Il Giardino Armonico - Christmas Concerto (1st movement - vivaldi) (3:46)
22. Alexander Lazarev - Dance Of The Sugar Plum Fairy (from the nutcracker suite) (2:07)
23. Jim Carter - 'Twas The Night Before Christmas (3:32)
CD 2:
01. The Budapest City Orchestra & Budapest Choral Voices - The Downton Abbey Christmas Suite (part 2) (2:07)
02. Joel Cohen - Joy To The World (2:07)
03. Choir Of Kings College Cambridge - God Rest You Merry Gentlemen (3:33)
04. Choir Of Kings College Cambridge - Angels (from the realms of glory) (2:37)
05. Nikolaus Harnoncourt - Hallelujah Chorus (from handel's messiah) (3:37)
06. Dame Kiri Te Kanawa - The Holly And The Ivy (2:55)
07. Thomas Hampson - Go Tell It On The Mountain (1:21)
08. Alexander Lazarev - March (from the nutcracker suite) (2:48)
09. Dame Kiri Te Kanawa - Tannenbaum (2:29)
10. Dame Kiri Te Kanawa - I Saw Three Ships (1:43)
11. Carleton Etherington & Benjamin Nicholas - When Christ Was Born Of Mary Free (2:29)
12. Choir Of Kings College Cambridge - Adam Lay Ybounden (1:06)
13. Choir Of Kings College Cambridge - The First Nowell (4:51)
14. Andrew Parrot, Taverner Choir & Taverner Consort - We Three Kings Of Orient Are (4:12)
15. Choir Of Kings College Cambridge - O Come O Come Emmanuel (3:28)
16. Ralph Allwood, Rodolfus Choir & Sam Jenkins - I Sing The Birth (3:45)
17. William Christie - Noels Sur Les Instruments (1:20)
18. Joel Cohen - Nouvelles Nouvelles (1:33)
19. Joel Cohen - Chantons Noel, Menons Joyeuse Vie (2:03)
20. Choir Of Kings College Cambridge - The Three Kings (2:40)
21. Nikolaus Harnoncourt - O Thou That Tellest Good Tidings To Zion (6:17)
22. Claudio Scimone - Christmas Concerto (3rd movement - corelli) (5:56)

-

LOG EAC CD1:

Exact Audio Copy V1.0 beta 3 from 29. August 2011
EAC extraction logfile from 23. December 2014, 11:40
Various Artists / Christmas At Downton Abbey - CD1
Used drive : HL-DT-STDVDRAM GH24NS95 Adapter: 0 ID: 0
Read mode : SecureUtilize accurate stream : YesDefeat audio cache : YesMake use of C2 pointers : No
Read offset correction : 6Overread into Lead-In and Lead-Out : NoFill up missing offset samples with silence : YesDelete leading and trailing silent blocks : NoNull samples used in CRC calculations : YesUsed interface : Native Win32 interface for Win NT & 2000Gap handling : Appended to previous track
Used output format : User Defined EncoderSelected bitrate : 1024 kBit/sQuality : HighAdd ID3 tag : NoCommand line compressor : C:\Program Files (x86)\Exact Audio Copy\Flac\flac.exeAdditional command line options : -8 -V -T "Artist=%artist%" -T "Title=%title%" -T "Album=%albumtitle%" -T "Date=%year%" -T "Tracknumber=%tracknr%" -T "Genre=%genre%" %source% -o %dest%
TOC of the extracted CD
Track | Start | Length | Start sector | End sector --------------------------------------------------------- 1 | 0:00.00 | 3:13.40 | 0 | 14514 2 | 3:13.40 | 4:16.74 | 14515 | 33788 3 | 7:30.39 | 2:38.16 | 33789 | 45654 4 | 10:08.55 | 4:28.00 | 45655 | 65754 5 | 14:36.55 | 1:55.28 | 65755 | 74407 6 | 16:32.08 | 4:25.60 | 74408 | 94342 7 | 20:57.68 | 3:02.30 | 94343 | 108022 8 | 24:00.23 | 1:33.54 | 108023 | 115051 9 | 25:34.02 | 4:21.01 | 115052 | 134627 10 | 29:55.03 | 3:18.65 | 134628 | 149542 11 | 33:13.68 | 5:09.73 | 149543 | 172790 12 | 38:23.66 | 4:06.36 | 172791 | 191276 13 | 42:30.27 | 4:45.04 | 191277 | 212655 14 | 47:15.31 | 1:27.61 | 212656 | 219241 15 | 48:43.17 | 2:18.54 | 219242 | 229645 16 | 51:01.71 | 2:26.44 | 229646 | 240639 17 | 53:28.40 | 2:48.51 | 240640 | 253290 18 | 56:17.16 | 2:04.56 | 253291 | 262646 19 | 58:21.72 | 3:24.20 | 262647 | 277966 20 | 61:46.17 | 3:10.67 | 277967 | 292283 21 | 64:57.09 | 3:45.66 | 292284 | 309224 22 | 68:43.00 | 2:07.03 | 309225 | 318752 23 | 70:50.03 | 3:32.21 | 318753 | 334673
Track 1
Filename E:\Christmas At Downton Abbey - flac\CD1\01 - The Budapest City Orchestra & The Budapest Choral Voices - The Downton Christmas Suite (part 1).wav
Pre-gap length 0:00:02.00
Peak level 70.7 % Extraction speed 0.9 X Track quality 99.9 % Test CRC B27C0BD0 Copy CRC B27C0BD0 Cannot be verified as accurate (confidence 3) [74070F2B], AccurateRip returned [CF2152DD] (AR v2) Copy OK
Track 2
Filename E:\Christmas At Downton Abbey - flac\CD1\02 - Julian Ovenden - O Holy Night.wav
Peak level 65.5 % Extraction speed 1.1 X Track quality 99.9 % Test CRC C07C240C Copy CRC C07C240C Cannot be verified as accurate (confidence 3) [FDEE731B], AccurateRip returned [6B18DDF5] (AR v2) Copy OK
Track 3
Filename E:\Christmas At Downton Abbey - flac\CD1\03 - Elizabeth McGovern - It Came Upon A Midnight Clear.wav
Peak level 68.1 % Extraction speed 1.2 X Track quality 100.0 % Test CRC F3F56042 Copy CRC F3F56042 Cannot be verified as accurate (confidence 3) [BD2DBAD3], AccurateRip returned [5013DFF9] (AR v2) Copy OK
Track 4
Filename E:\Christmas At Downton Abbey - flac\CD1\04 - Elizabeth McGovern & Julian Ovenden - The First Noel.wav
Peak level 61.1 % Extraction speed 1.5 X Track quality 100.0 % Test CRC E8DA506E Copy CRC E8DA506E Cannot be verified as accurate (confidence 3) [37EBE9C6], AccurateRip returned [8E221816] (AR v2) Copy OK
Track 5
Filename E:\Christmas At Downton Abbey - flac\CD1\05 - Julian Ovenden - The Sussex Carol.wav
Peak level 76.0 % Extraction speed 1.3 X Track quality 100.0 % Test CRC B8128940 Copy CRC B8128940 Cannot be verified as accurate (confidence 3) [00470F10], AccurateRip returned [80802E2A] (AR v2) Copy OK
Track 6
Filename E:\Christmas At Downton Abbey - flac\CD1\06 - Katie Marshell & Julian Ovenden - 12 Days Of Christmas.wav
Peak level 75.6 % Extraction speed 1.6 X Track quality 100.0 % Test CRC F7E2C4FF Copy CRC F7E2C4FF Cannot be verified as accurate (confidence 3) [8A0C82B5], AccurateRip returned [FA81FAD9] (AR v2) Copy OK
Track 7
Filename E:\Christmas At Downton Abbey - flac\CD1\07 - Julian Ovenden - Silent Night.wav
Peak level 76.3 % Extraction speed 1.6 X Track quality 100.0 % Test CRC 7B290F05 Copy CRC 7B290F05 Cannot be verified as accurate (confidence 3) [09016E0C], AccurateRip returned [5DB170B5] (AR v2) Copy OK
Track 8
Filename E:\Christmas At Downton Abbey - flac\CD1\08 - Dame Kiri Te Kanawa - We Wish You A Merry Christmas.wav
Peak level 98.8 % Extraction speed 1.4 X Track quality 100.0 % Test CRC 902D96CD Copy CRC 902D96CD Cannot be verified as accurate (confidence 3) [F17A4D64], AccurateRip returned [83F2A733] (AR v2) Copy OK
Track 9
Filename E:\Christmas At Downton Abbey - flac\CD1\09 - Choir Of Kings College Cambridge - In The Bleak Midwinter.wav
Peak level 81.0 % Extraction speed 1.8 X Track quality 100.0 % Test CRC C8A7091B Copy CRC C8A7091B Cannot be verified as accurate (confidence 3) [8CF5BF4D], AccurateRip returned [43DEF5AE] (AR v2) Copy OK
Track 10
Filename E:\Christmas At Downton Abbey - flac\CD1\10 - Dame Kiri Te Kanawa - O Little Town Of Bethlehem.wav
Peak level 93.3 % Extraction speed 1.5 X Track quality 99.9 % Test CRC 3FD21EB4 Copy CRC 3FD21EB4 Cannot be verified as accurate (confidence 3) [D9549928], AccurateRip returned [4EE2FE15] (AR v2) Copy OK
Track 11
Filename E:\Christmas At Downton Abbey - flac\CD1\11 - Choir Of Kings College Cambridge - Once In Royal David's City.wav
Pre-gap length 0:00:00.21
Peak level 91.5 % Extraction speed 2.0 X Track quality 100.0 % Test CRC 008BF55B Copy CRC 008BF55B Cannot be verified as accurate (confidence 3) [B2F91BBA], AccurateRip returned [66582D2C] (AR v2) Copy OK
Track 12
Filename E:\Christmas At Downton Abbey - flac\CD1\12 - Choir Of Kings College Cambridge - Hark! The Herald Angels Sing.wav
Peak level 86.9 % Extraction speed 2.0 X Track quality 100.0 % Test CRC C4D07B09 Copy CRC C4D07B09 Cannot be verified as accurate (confidence 3) [27683251], AccurateRip returned [1115A1A6] (AR v2) Copy OK
Track 13
Filename E:\Christmas At Downton Abbey - flac\CD1\13 - Choir Of Kings College Cambridge - O Come All Ye Faithful.wav
Peak level 86.5 % Extraction speed 2.1 X Track quality 100.0 % Test CRC 56DF07B1 Copy CRC 56DF07B1 Cannot be verified as accurate (confidence 3) [B1BB468B], AccurateRip returned [75ADC43C] (AR v2) Copy OK
Track 14
Filename E:\Christmas At Downton Abbey - flac\CD1\14 - William Christie - Messe De Minuit Pour Noel - Kyrie.wav
Peak level 97.7 % Extraction speed 1.7 X Track quality 100.0 % Test CRC B038DEDF Copy CRC B038DEDF Cannot be verified as accurate (confidence 3) [D60B1BFA], AccurateRip returned [49354CB6] (AR v2) Copy OK
Track 15
Filename E:\Christmas At Downton Abbey - flac\CD1\15 - Choir Of Kings College Cambridge - Ding Dong! Merrily On High.wav
Peak level 95.8 % Extraction speed 1.9 X Track quality 100.0 % Test CRC B6D79126 Copy CRC B6D79126 Cannot be verified as accurate (confidence 3) [F667D39D], AccurateRip returned [105F5449] (AR v2) Copy OK
Track 16
Filename E:\Christmas At Downton Abbey - flac\CD1\16 - Michael George & Timothy Norris - Good King Wenceslas.wav
Peak level 98.8 % Extraction speed 2.0 X Track quality 100.0 % Test CRC 6221590D Copy CRC 6221590D Cannot be verified as accurate (confidence 3) [207971F0], AccurateRip returned [A922A213] (AR v2) Copy OK
Track 17
Filename E:\Christmas At Downton Abbey - flac\CD1\17 - Choir Of Kings College Cambridge - While Shepherds Watched.wav
Peak level 89.7 % Extraction speed 2.1 X Track quality 100.0 % Test CRC 8D3230EE Copy CRC 8D3230EE Cannot be verified as accurate (confidence 3) [904FB840], AccurateRip returned [BB3715E2] (AR v2) Copy OK
Track 18
Filename E:\Christmas At Downton Abbey - flac\CD1\18 - Choir Of Kings College Cambridge - Away In A Manger.wav
Peak level 98.8 % Extraction speed 2.0 X Track quality 100.0 % Test CRC 616DD412 Copy CRC 616DD412 Cannot be verified as accurate (confidence 3) [3C589BB9], AccurateRip returned [3A30BBBC] (AR v2) Copy OK
Track 19
Filename E:\Christmas At Downton Abbey - flac\CD1\19 - Choir Of Kings College Cambridge - In Dulci Jubilo.wav
Peak level 97.4 % Extraction speed 2.3 X Track quality 100.0 % Test CRC 7553BF91 Copy CRC 7553BF91 Cannot be verified as accurate (confidence 3) [14A9D2F1], AccurateRip returned [A8832A2C] (AR v2) Copy OK
Track 20
Filename E:\Christmas At Downton Abbey - flac\CD1\20 - Libera - Panis Angelicus.wav
Peak level 75.8 % Extraction speed 1.9 X Track quality 99.9 % Test CRC 06CDD2A3 Copy CRC 06CDD2A3 Cannot be verified as accurate (confidence 3) [C40F2BE5], AccurateRip returned [D141EA41] (AR v2) Copy OK
Track 21
Filename E:\Christmas At Downton Abbey - flac\CD1\21 - Il Giardino Armonico - Christmas Concerto (1st movement - vivaldi).wav
Peak level 83.0 % Extraction speed 2.4 X Track quality 100.0 % Test CRC 6BF4151A Copy CRC 6BF4151A Cannot be verified as accurate (confidence 3) [ED37FB5A], AccurateRip returned [FB80D3B2] (AR v2) Copy OK
Track 22
Filename E:\Christmas At Downton Abbey - flac\CD1\22 - Alexander Lazarev - Dance Of The Sugar Plum Fairy (from the nutcracker suite).wav
Peak level 86.8 % Extraction speed 2.1 X Track quality 100.0 % Test CRC 06667D23 Copy CRC 06667D23 Cannot be verified as accurate (confidence 3) [D8834568], AccurateRip returned [D7109C76] (AR v2) Copy OK
Track 23
Filename E:\Christmas At Downton Abbey - flac\CD1\23 - Jim Carter - 'Twas The Night Before Christmas.wav
Peak level 72.6 % Extraction speed 2.5 X Track quality 100.0 % Test CRC 93FAA7F0 Copy CRC 93FAA7F0 Cannot be verified as accurate (confidence 3) [58EE0BD7], AccurateRip returned [5B2B6632] (AR v2) Copy OK
No tracks could be verified as accurateYou may have a different pressing from the one(s) in the database
No errors occurred
End of status report
==== Log checksum C70F146F6EC1D9513646C1F9FE5D901BDF7C624387E46045AFFB6778A7161EE2 ====

LOG (.CUE) CD1:

REM GENRE ChristmasREM DATE 2014REM DISCID 65116E17REM COMMENT "ExactAudioCopy v1.0b3"FILE "01 - The Budapest City Orchestra & The Budapest Choral Voices - The Downton Christmas Suite (part 1).wav" WAVE TRACK 01 AUDIO INDEX 01 00:00:00FILE "02 - Julian Ovenden - O Holy Night.wav" WAVE TRACK 02 AUDIO INDEX 01 00:00:00FILE "03 - Elizabeth McGovern - It Came Upon A Midnight Clear.wav" WAVE TRACK 03 AUDIO INDEX 01 00:00:00FILE "04 - Elizabeth McGovern & Julian Ovenden - The First Noel.wav" WAVE TRACK 04 AUDIO INDEX 01 00:00:00FILE "05 - Julian Ovenden - The Sussex Carol.wav" WAVE TRACK 05 AUDIO INDEX 01 00:00:00FILE "06 - Katie Marshell & Julian Ovenden - 12 Days Of Christmas.wav" WAVE TRACK 06 AUDIO INDEX 01 00:00:00FILE "07 - Julian Ovenden - Silent Night.wav" WAVE TRACK 07 AUDIO INDEX 01 00:00:00FILE "08 - Dame Kiri Te Kanawa - We Wish You A Merry Christmas.wav" WAVE TRACK 08 AUDIO INDEX 01 00:00:00FILE "09 - Choir Of Kings College Cambridge - In The Bleak Midwinter.wav" WAVE TRACK 09 AUDIO INDEX 01 00:00:00FILE "10 - Dame Kiri Te Kanawa - O Little Town Of Bethlehem.wav" WAVE TRACK 10 AUDIO INDEX 01 00:00:00 TRACK 11 AUDIO INDEX 00 03:18:49FILE "11 - Choir Of Kings College Cambridge - Once In Royal David's City.wav" WAVE INDEX 01 00:00:00FILE "12 - Choir Of Kings College Cambridge - Hark! The Herald Angels Sing.wav" WAVE TRACK 12 AUDIO INDEX 01 00:00:00FILE "13 - Choir Of Kings College Cambridge - O Come All Ye Faithful.wav" WAVE TRACK 13 AUDIO INDEX 01 00:00:00FILE "14 - William Christie - Messe De Minuit Pour Noel - Kyrie.wav" WAVE TRACK 14 AUDIO INDEX 01 00:00:00FILE "15 - Choir Of Kings College Cambridge - Ding Dong! Merrily On High.wav" WAVE TRACK 15 AUDIO INDEX 01 00:00:00FILE "16 - Michael George & Timothy Norris - Good King Wenceslas.wav" WAVE TRACK 16 AUDIO INDEX 01 00:00:00FILE "17 - Choir Of Kings College Cambridge - While Shepherds Watched.wav" WAVE TRACK 17 AUDIO INDEX 01 00:00:00FILE "18 - Choir Of Kings College Cambridge - Away In A Manger.wav" WAVE TRACK 18 AUDIO INDEX 01 00:00:00FILE "19 - Choir Of Kings College Cambridge - In Dulci Jubilo.wav" WAVE TRACK 19 AUDIO INDEX 01 00:00:00FILE "20 - Libera - Panis Angelicus.wav" WAVE TRACK 20 AUDIO INDEX 01 00:00:00FILE "21 - Il Giardino Armonico - Christmas Concerto (1st movement - vivaldi).wav" WAVE TRACK 21 AUDIO INDEX 01 00:00:00FILE "22 - Alexander Lazarev - Dance Of The Sugar Plum Fairy (from the nutcracker suite).wav" WAVE TRACK 22 AUDIO INDEX 01 00:00:00FILE "23 - Jim Carter - 'Twas The Night Before Christmas.wav" WAVE TRACK 23 AUDIO INDEX 01 00:00:00

LOG EAC CD2:

Exact Audio Copy V1.0 beta 3 from 29. August 2011
EAC extraction logfile from 23. December 2014, 13:18
Various Artists / Christmas At Downton Abbey - CD2
Used drive : HL-DT-STDVDRAM GH24NS95 Adapter: 0 ID: 0
Read mode : SecureUtilize accurate stream : YesDefeat audio cache : YesMake use of C2 pointers : No
Read offset correction : 6Overread into Lead-In and Lead-Out : NoFill up missing offset samples with silence : YesDelete leading and trailing silent blocks : NoNull samples used in CRC calculations : YesUsed interface : Native Win32 interface for Win NT & 2000Gap handling : Appended to previous track
Used output format : User Defined EncoderSelected bitrate : 1024 kBit/sQuality : HighAdd ID3 tag : NoCommand line compressor : C:\Program Files (x86)\Exact Audio Copy\Flac\flac.exeAdditional command line options : -8 -V -T "Artist=%artist%" -T "Title=%title%" -T "Album=%albumtitle%" -T "Date=%year%" -T "Tracknumber=%tracknr%" -T "Genre=%genre%" %source% -o %dest%
TOC of the extracted CD
Track | Start | Length | Start sector | End sector --------------------------------------------------------- 1 | 0:00.00 | 2:07.05 | 0 | 9529 2 | 2:07.05 | 2:06.39 | 9530 | 19018 3 | 4:13.44 | 3:33.23 | 19019 | 35016 4 | 7:46.67 | 2:36.64 | 35017 | 46780 5 | 10:23.56 | 3:37.12 | 46781 | 63067 6 | 14:00.68 | 2:54.72 | 63068 | 76189 7 | 16:55.65 | 1:20.51 | 76190 | 82240 8 | 18:16.41 | 2:47.38 | 82241 | 94803 9 | 21:04.04 | 2:28.57 | 94804 | 105960 10 | 23:32.61 | 1:43.06 | 105961 | 113691 11 | 25:15.67 | 2:29.24 | 113692 | 124890 12 | 27:45.16 | 1:06.17 | 124891 | 129857 13 | 28:51.33 | 4:51.17 | 129858 | 151699 14 | 33:42.50 | 4:11.63 | 151700 | 170587 15 | 37:54.38 | 3:28.25 | 170588 | 186212 16 | 41:22.63 | 3:45.26 | 186213 | 203113 17 | 45:08.14 | 1:19.68 | 203114 | 209106 18 | 46:28.07 | 1:33.06 | 209107 | 216087 19 | 48:01.13 | 2:02.60 | 216088 | 225297 20 | 50:03.73 | 2:40.20 | 225298 | 237317 21 | 52:44.18 | 6:17.00 | 237318 | 265592 22 | 59:01.18 | 5:56.12 | 265593 | 292304
Track 1
Filename E:\Christmas At Downton Abbey - flac\CD2\01 - The Budapest City Orchestra & Budapest Choral Voices - The Downton Abbey Christmas Suite (part 2).wav
Pre-gap length 0:00:02.00
Peak level 62.2 % Extraction speed 1.0 X Track quality 100.0 % Test CRC 8CCB36C5 Copy CRC 8CCB36C5 Cannot be verified as accurate (confidence 2) [59B7B154], AccurateRip returned [A804AB0D] (AR v2) Copy OK
Track 2
Filename E:\Christmas At Downton Abbey - flac\CD2\02 - Joel Cohen - Joy To The World.wav
Peak level 91.0 % Extraction speed 0.9 X Track quality 99.9 % Test CRC 02EB7BBD Copy CRC 02EB7BBD Cannot be verified as accurate (confidence 2) [5D44E990], AccurateRip returned [33D7CC7A] (AR v2) Copy OK
Track 3
Filename E:\Christmas At Downton Abbey - flac\CD2\03 - Choir Of Kings College Cambridge - God Rest You Merry Gentlemen.wav
Peak level 98.8 % Extraction speed 1.2 X Track quality 100.0 % Test CRC 0D4ADC68 Copy CRC 0D4ADC68 Cannot be verified as accurate (confidence 2) [7AC5577A], AccurateRip returned [7CAA246F] (AR v2) Copy OK
Track 4
Filename E:\Christmas At Downton Abbey - flac\CD2\04 - Choir Of Kings College Cambridge - Angels (from the realms of glory).wav
Peak level 98.8 % Extraction speed 1.3 X Track quality 100.0 % Test CRC 998D74F9 Copy CRC 998D74F9 Cannot be verified as accurate (confidence 2) [D4E54D3E], AccurateRip returned [77E63871] (AR v2) Copy OK
Track 5
Filename E:\Christmas At Downton Abbey - flac\CD2\05 - Nikolaus Harnoncourt - Hallelujah Chorus (from handel's messiah).wav
Peak level 98.8 % Extraction speed 1.4 X Track quality 100.0 % Test CRC 70BF6396 Copy CRC 70BF6396 Cannot be verified as accurate (confidence 2) [DC008778], AccurateRip returned [87D290F9] (AR v2) Copy OK
Track 6
Filename E:\Christmas At Downton Abbey - flac\CD2\06 - Dame Kiri Te Kanawa - The Holly And The Ivy.wav
Peak level 84.4 % Extraction speed 1.2 X Track quality 99.9 % Test CRC 44F758D7 Copy CRC 44F758D7 Cannot be verified as accurate (confidence 2) [EF2F79A3], AccurateRip returned [473C4C3A] (AR v2) Copy OK
Track 7
Filename E:\Christmas At Downton Abbey - flac\CD2\07 - Thomas Hampson - Go Tell It On The Mountain.wav
Peak level 95.8 % Extraction speed 0.9 X Track quality 99.8 % Test CRC 005345AA Copy CRC 005345AA Cannot be verified as accurate (confidence 2) [EC930F70], AccurateRip returned [750307B2] (AR v2) Copy OK
Track 8
Filename E:\Christmas At Downton Abbey - flac\CD2\08 - Alexander Lazarev - March (from the nutcracker suite).wav
Peak level 96.0 % Extraction speed 1.5 X Track quality 100.0 % Test CRC 47DAAF1D Copy CRC 47DAAF1D Cannot be verified as accurate (confidence 2) [3EF90B7C], AccurateRip returned [631A8805] (AR v2) Copy OK
Track 9
Filename E:\Christmas At Downton Abbey - flac\CD2\09 - Dame Kiri Te Kanawa - Tannenbaum.wav
Peak level 91.2 % Extraction speed 1.5 X Track quality 100.0 % Test CRC 34DC7FD1 Copy CRC 34DC7FD1 Cannot be verified as accurate (confidence 2) [DC79237B], AccurateRip returned [56EE84F8] (AR v2) Copy OK
Track 10
Filename E:\Christmas At Downton Abbey - flac\CD2\10 - Dame Kiri Te Kanawa - I Saw Three Ships.wav
Peak level 93.8 % Extraction speed 1.5 X Track quality 100.0 % Test CRC 2CE78CA4 Copy CRC 2CE78CA4 Cannot be verified as accurate (confidence 2) [4D6831CA], AccurateRip returned [B3131D94] (AR v2) Copy OK
Track 11
Filename E:\Christmas At Downton Abbey - flac\CD2\11 - Carleton Etherington & Benjamin Nicholas - When Christ Was Born Of Mary Free.wav
Peak level 80.2 % Extraction speed 1.6 X Track quality 100.0 % Test CRC 82C90249 Copy CRC 82C90249 Cannot be verified as accurate (confidence 2) [CFF7E969], AccurateRip returned [0855DE92] (AR v2) Copy OK
Track 12
Filename E:\Christmas At Downton Abbey - flac\CD2\12 - Choir Of Kings College Cambridge - Adam Lay Ybounden.wav
Peak level 98.4 % Extraction speed 1.3 X Track quality 100.0 % Test CRC 05301D2D Copy CRC 05301D2D Cannot be verified as accurate (confidence 2) [368A2DD1], AccurateRip returned [0FCF3E42] (AR v2) Copy OK
Track 13
Filename E:\Christmas At Downton Abbey - flac\CD2\13 - Choir Of Kings College Cambridge - The First Nowell.wav
Peak level 95.5 % Extraction speed 1.9 X Track quality 100.0 % Test CRC 6CD52D1E Copy CRC 6CD52D1E Cannot be verified as accurate (confidence 2) [600A1CE2], AccurateRip returned [242D5684] (AR v2) Copy OK
Track 14
Filename E:\Christmas At Downton Abbey - flac\CD2\14 - Andrew Parrot, Taverner Choir & Taverner Consort - We Three Kings Of Orient Are.wav
Peak level 98.8 % Extraction speed 2.0 X Track quality 100.0 % Test CRC 36C9051E Copy CRC 36C9051E Cannot be verified as accurate (confidence 2) [0BC05CA8], AccurateRip returned [A1BFA197] (AR v2) Copy OK
Track 15
Filename E:\Christmas At Downton Abbey - flac\CD2\15 - Choir Of Kings College Cambridge - O Come O Come Emmanuel.wav
Peak level 86.8 % Extraction speed 2.0 X Track quality 100.0 % Test CRC 52CF4986 Copy CRC 52CF4986 Cannot be verified as accurate (confidence 2) [903DD35E], AccurateRip returned [BC626C6B] (AR v2) Copy OK
Track 16
Filename E:\Christmas At Downton Abbey - flac\CD2\16 - Ralph Allwood, Rodolfus Choir & Sam Jenkins - I Sing The Birth.wav
Peak level 98.8 % Extraction speed 2.1 X Track quality 100.0 % Test CRC 5BF06190 Copy CRC 5BF06190 Cannot be verified as accurate (confidence 2) [200268CA], AccurateRip returned [BDECE94B] (AR v2) Copy OK
Track 17
Filename E:\Christmas At Downton Abbey - flac\CD2\17 - William Christie - Noels Sur Les Instruments.wav
Peak level 75.1 % Extraction speed 1.6 X Track quality 100.0 % Test CRC 9E7A58A2 Copy CRC 9E7A58A2 Cannot be verified as accurate (confidence 2) [521B5E74], AccurateRip returned [4C74C400] (AR v2) Copy OK
Track 18
Filename E:\Christmas At Downton Abbey - flac\CD2\18 - Joel Cohen - Nouvelles Nouvelles.wav
Peak level 58.5 % Extraction speed 1.8 X Track quality 100.0 % Test CRC AB923741 Copy CRC AB923741 Cannot be verified as accurate (confidence 2) [FC4D9325], AccurateRip returned [039D8343] (AR v2) Copy OK
Track 19
Filename E:\Christmas At Downton Abbey - flac\CD2\19 - Joel Cohen - Chantons Noel, Menons Joyeuse Vie.wav
Peak level 81.8 % Extraction speed 1.5 X Track quality 99.9 % Test CRC 2E8C4805 Copy CRC 2E8C4805 Cannot be verified as accurate (confidence 2) [21A7C2D8], AccurateRip returned [8E3CB5E5] (AR v2) Copy OK
Track 20
Filename E:\Christmas At Downton Abbey - flac\CD2\20 - Choir Of Kings College Cambridge - The Three Kings.wav
Peak level 78.4 % Extraction speed 2.0 X Track quality 100.0 % Test CRC 8129F92C Copy CRC 8129F92C Cannot be verified as accurate (confidence 2) [D43CFE40], AccurateRip returned [45A0B044] (AR v2) Copy OK
Track 21
Filename E:\Christmas At Downton Abbey - flac\CD2\21 - Nikolaus Harnoncourt - O Thou That Tellest Good Tidings To Zion.wav
Peak level 81.1 % Extraction speed 2.4 X Track quality 100.0 % Test CRC E23E1B39 Copy CRC E23E1B39 Cannot be verified as accurate (confidence 2) [E878796D], AccurateRip returned [DEBE4806] (AR v2) Copy OK
Track 22
Filename E:\Christmas At Downton Abbey - flac\CD2\22 - Claudio Scimone - Christmas Concerto (3rd movement - corelli).wav
Peak level 79.7 % Extraction speed 2.5 X Track quality 100.0 % Test CRC E40F25E9 Copy CRC E40F25E9 Cannot be verified as accurate (confidence 2) [3455515C], AccurateRip returned [3B4B3647] (AR v2) Copy OK
No tracks could be verified as accurateYou may have a different pressing from the one(s) in the database
No errors occurred
End of status report
==== Log checksum 6D4B258D12DEDA68B9325AA1A9860757FA6D2B2A7BFFE1E21157CE73686D3A11 ====

LOG (.CUE) CD2:

REM GENRE ChristmasREM DATE 2014REM DISCID 2F0F3916REM COMMENT "ExactAudioCopy v1.0b3"FILE "01 - The Budapest City Orchestra & Budapest Choral Voices - The Downton Abbey Christmas Suite (part 2).wav" WAVE TRACK 01 AUDIO INDEX 01 00:00:00FILE "02 - Joel Cohen - Joy To The World.wav" WAVE TRACK 02 AUDIO INDEX 01 00:00:00FILE "03 - Choir Of Kings College Cambridge - God Rest You Merry Gentlemen.wav" WAVE TRACK 03 AUDIO INDEX 01 00:00:00FILE "04 - Choir Of Kings College Cambridge - Angels (from the realms of glory).wav" WAVE TRACK 04 AUDIO INDEX 01 00:00:00FILE "05 - Nikolaus Harnoncourt - Hallelujah Chorus (from handel's messiah).wav" WAVE TRACK 05 AUDIO INDEX 01 00:00:00FILE "06 - Dame Kiri Te Kanawa - The Holly And The Ivy.wav" WAVE TRACK 06 AUDIO INDEX 01 00:00:00FILE "07 - Thomas Hampson - Go Tell It On The Mountain.wav" WAVE TRACK 07 AUDIO INDEX 01 00:00:00FILE "08 - Alexander Lazarev - March (from the nutcracker suite).wav" WAVE TRACK 08 AUDIO INDEX 01 00:00:00FILE "09 - Dame Kiri Te Kanawa - Tannenbaum.wav" WAVE TRACK 09 AUDIO INDEX 01 00:00:00FILE "10 - Dame Kiri Te Kanawa - I Saw Three Ships.wav" WAVE TRACK 10 AUDIO INDEX 01 00:00:00FILE "11 - Carleton Etherington & Benjamin Nicholas - When Christ Was Born Of Mary Free.wav" WAVE TRACK 11 AUDIO INDEX 01 00:00:00FILE "12 - Choir Of Kings College Cambridge - Adam Lay Ybounden.wav" WAVE TRACK 12 AUDIO INDEX 01 00:00:00FILE "13 - Choir Of Kings College Cambridge - The First Nowell.wav" WAVE TRACK 13 AUDIO INDEX 01 00:00:00FILE "14 - Andrew Parrot, Taverner Choir & Taverner Consort - We Three Kings Of Orient Are.wav" WAVE TRACK 14 AUDIO INDEX 01 00:00:00FILE "15 - Choir Of Kings College Cambridge - O Come O Come Emmanuel.wav" WAVE TRACK 15 AUDIO INDEX 01 00:00:00FILE "16 - Ralph Allwood, Rodolfus Choir & Sam Jenkins - I Sing The Birth.wav" WAVE TRACK 16 AUDIO INDEX 01 00:00:00FILE "17 - William Christie - Noels Sur Les Instruments.wav" WAVE TRACK 17 AUDIO INDEX 01 00:00:00FILE "18 - Joel Cohen - Nouvelles Nouvelles.wav" WAVE TRACK 18 AUDIO INDEX 01 00:00:00FILE "19 - Joel Cohen - Chantons Noel, Menons Joyeuse Vie.wav" WAVE TRACK 19 AUDIO INDEX 01 00:00:00FILE "20 - Choir Of Kings College Cambridge - The Three Kings.wav" WAVE TRACK 20 AUDIO INDEX 01 00:00:00FILE "21 - Nikolaus Harnoncourt - O Thou That Tellest Good Tidings To Zion.wav" WAVE TRACK 21 AUDIO INDEX 01 00:00:00FILE "22 - Claudio Scimone - Christmas Concerto (3rd movement - corelli).wav" WAVE TRACK 22 AUDIO INDEX 01 00:00:00
- - RG Soundtracks
[teatrix.ru].t10327.torrent 
Торрент: Зарегистрирован [ 2015-11-01 20:51 ] · 554BE74A24E7603EA615FC53646C951AF59BFA0A

Скачать .torrent

Скачать

19 KB

Статус: проверено
Скачан: 0 раз
Размер: 703 MB
terms.php



Быстрый ответ

Имя:

      
Для отправки сообщений необходимо включить JavaScript
Показать сообщения:    

Текущее время: 24-Янв 00:01

Часовой пояс: UTC + 3


Вы можете начинать темы
Вы можете отвечать на сообщения
Вы не можете редактировать свои сообщения
Вы не можете удалять свои сообщения
Вы не можете голосовать в опросах
Вы не можете прикреплять файлы к сообщениям
Вы можете скачивать файлы