(Score) Пришельцы 2: Коридоры времени / Les couloirs du temps: Les visiteurs II (by Eric Levi) - 1998, FLAC (tracks+.cue), lossless


Статистика раздачи [Обновить пиров]
Размер:  205 MB   |    Зарегистрирован:  1 год 1 месяц   |    Скачан:  0 раз

Полного источника не было: Никогда

 
   
 
 
 

[Цитировать]

Пришельцы 2: Коридоры времени / Les couloirs du temps: Les visiteurs II-Жанр: Score
Композитор: Eric Levi
Год выпуска диска: 1998
Производитель диска: PMDC, France
Издатель (лейбл): Philips
Номер по каталогу: 558 055-2-Аудиокодек: FLAC (*.flac)
Тип рипа: tracks+.cue
Битрейт аудио: lossless
Продолжительность: 00:34:15
Источник: собственный рип
Наличие сканов в содержимом раздачи: да, 600dpi-Ссылки: Кинопоиск | IMDB | Wikipedia | SoundtrackCollector

Треклист

01. Voices From The Past [0:00:55.60]
02. Melody For A Knight (Part 1) [0:01:20.65]
03. Adagio In G Minor [0:02:48.47]
04. Yvan Cassar & Eric Lévi / Jacquart Runs Away [0:00:33.63]
05. Yvan Cassar & Eric Lévi / Jacquart On The Grill [0:00:17.67]
06. Yvan Cassar & Eric Lévi / The Stolen Jewels [0:01:25.43]
07. Concerto In Mi Minor [0:01:19.20]
08. Eric Lévi & Guy Prothéroe / Enae Volare Mezzo [0:03:34.25]
09. Your Father Is Alive [0:00:14.42]
10. Melody For A Knight (Part 2) [0:01:11.55]
11. Melody For A Knight (Part 3) [0:00:36.25]
12. Yvan Cassar & Eric Lévi / The Corridors Of Time [0:00:49.18]
13. Yvan Cassar / Fight With The Inquisitor [0:00:51.50]
14. Melody For A Knight (Part 4) [0:01:03.60]
15. Western In The Air [0:00:28.10]
16. My Beloved [0:00:19.00]
17. Yvan Cassar / The Revolution [0:00:47.52]
18. Run For It [0:00:26.60]
19. Adagio In G Minor (Short Version) [0:01:07.03]
20. Melody For A Knight [0:00:33.72]
21. Yvan Cassar & Eric Lévi / Spell On The Duke [0:00:41.40]
22. Yvan Cassar & Eric Lévi / Magic Formula 1 [0:00:31.50]
23. Yvan Cassar & Eric Lévi / Magic Formula 2 [0:00:27.63]
24. Wake Up In 1792 [0:00:26.00]
25. Battle In The Village [0:00:25.40]
26. Yvan Cassar & Eric Lévi / Jacquouille And The Cigars [0:00:33.15]
27. Yvan Cassar & Eric Lévi / Jacquouille And The Firemen [0:00:50.02]
28. La Forêt Interdite [0:01:14.13]
29. Rendez-Vous Secret [0:01:06.60]
30. Eric Lévi & Frédérik Rousseau / Chez L'enchanteur [0:01:06.00]
31. C'est Diablerie [0:03:16.15]
32. Eric Lévi & Frédérik Rousseau / Les Oubliettes [0:02:01.35]
33. Christian Clavier & Jean-Marie Poiré & Eric Lévi / Filez La Laine (Kara-Okay) [0:00:45.57]

Лог создания рипа

Exact Audio Copy V1.0 beta 3 from 29. August 2011
EAC extraction logfile from 17. January 2015, 12:14
Eric Lévi / Les Visiteurs 2 : Les Couloirs Du Temps
Used drive : PLEXTOR CD-R PX-230A Adapter: 1 ID: 0
Read mode : SecureUtilize accurate stream : YesDefeat audio cache : YesMake use of C2 pointers : No
Read offset correction : 738Overread into Lead-In and Lead-Out : NoFill up missing offset samples with silence : YesDelete leading and trailing silent blocks : NoNull samples used in CRC calculations : YesUsed interface : Native Win32 interface for Win NT & 2000Gap handling : Appended to previous track
Used output format : User Defined EncoderSelected bitrate : 896 kBit/sQuality : HighAdd ID3 tag : NoCommand line compressor : C:\Program Files\Exact Audio Copy\FLAC\FLAC.EXEAdditional command line options : -6 -V -T "ARTIST=%artist%" -T "TITLE=%title%" -T "ALBUM=%albumtitle%" -T "DATE=%year%"-T "TRACKNUMBER=%tracknr%" -T "GENRE=%genre%" -T "COMMENT=%comment%" -T "ALBUMARTIST=%albuminterpret%" -T "COMPOSER=%composer%"-T "DISCNUMBER=%cdnumber%" -T "TOTALDISCS=%totalcds%" -T "TOTALTRACKS=%numtracks%" %source% -o %dest%
TOC of the extracted CD
Track | Start | Length | Start sector | End sector --------------------------------------------------------- 1 | 0:00.00 | 0:55.60 | 0 | 4184 2 | 0:55.60 | 1:20.65 | 4185 | 10249 3 | 2:16.50 | 2:48.47 | 10250 | 22896 4 | 5:05.22 | 0:33.63 | 22897 | 25434 5 | 5:39.10 | 0:17.67 | 25435 | 26776 6 | 5:57.02 | 1:25.43 | 26777 | 33194 7 | 7:22.45 | 1:19.20 | 33195 | 39139 8 | 8:41.65 | 3:34.25 | 39140 | 55214 9 | 12:16.15 | 0:14.42 | 55215 | 56306 10 | 12:30.57 | 1:11.55 | 56307 | 61686 11 | 13:42.37 | 0:36.25 | 61687 | 64411 12 | 14:18.62 | 0:49.18 | 64412 | 68104 13 | 15:08.05 | 0:51.50 | 68105 | 71979 14 | 15:59.55 | 1:03.60 | 71980 | 76764 15 | 17:03.40 | 0:28.10 | 76765 | 78874 16 | 17:31.50 | 0:19.00 | 78875 | 80299 17 | 17:50.50 | 0:47.52 | 80300 | 83876 18 | 18:38.27 | 0:26.60 | 83877 | 85886 19 | 19:05.12 | 1:07.03 | 85887 | 90914 20 | 20:12.15 | 0:33.72 | 90915 | 93461 21 | 20:46.12 | 0:41.40 | 93462 | 96576 22 | 21:27.52 | 0:31.50 | 96577 | 98951 23 | 21:59.27 | 0:27.63 | 98952 | 101039 24 | 22:27.15 | 0:26.00 | 101040 | 102989 25 | 22:53.15 | 0:25.40 | 102990 | 104904 26 | 23:18.55 | 0:33.15 | 104905 | 107394 27 | 23:51.70 | 0:50.02 | 107395 | 111146 28 | 24:41.72 | 1:14.13 | 111147 | 116709 29 | 25:56.10 | 1:06.60 | 116710 | 121719 30 | 27:02.70 | 1:06.00 | 121720 | 126669 31 | 28:08.70 | 3:16.15 | 126670 | 141384 32 | 31:25.10 | 2:01.35 | 141385 | 150494 33 | 33:26.45 | 0:45.57 | 150495 | 153926
Track 1
Filename C:\Music\01 - Eric Lévi - Voices From The Past.wav
Pre-gap length 0:00:02.00
Peak level 67.6 % Extraction speed 3.3 X Track quality 100.0 % Test CRC 9E22D38D Copy CRC 9E22D38D Accurately ripped (confidence 1) [8D9924FA] (AR v1) Copy OK
Track 2
Filename C:\Music\02 - Eric Lévi - Melody For A Knight (Part 1).wav
Pre-gap length 0:00:00.03
Peak level 100.0 % Extraction speed 4.4 X Track quality 100.0 % Test CRC 73E06A62 Copy CRC 73E06A62 Accurately ripped (confidence 1) [F08F00BB] (AR v1) Copy OK
Track 3
Filename C:\Music\03 - Eric Lévi - Adagio In G Minor.wav
Pre-gap length 0:00:00.58
Peak level 68.1 % Extraction speed 4.0 X Track quality 99.9 % Test CRC 1930DAAB Copy CRC 1930DAAB Accurately ripped (confidence 1) [867B8EAC] (AR v1) Copy OK
Track 4
Filename C:\Music\04 - Yvan Cassar & Eric Lévi - Jacquart Runs Away.wav
Pre-gap length 0:00:03.20
Peak level 99.9 % Extraction speed 2.3 X Track quality 99.6 % Test CRC 074DBAE4 Copy CRC 074DBAE4 Accurately ripped (confidence 1) [4B178E45] (AR v1) Copy OK
Track 5
Filename C:\Music\05 - Yvan Cassar & Eric Lévi - Jacquart On The Grill.wav
Pre-gap length 0:00:02.08
Peak level 99.1 % Extraction speed 1.5 X Track quality 99.4 % Test CRC 8EA074C9 Copy CRC 8EA074C9 Accurately ripped (confidence 1) [7BAD2355] (AR v1) Copy OK
Track 6
Filename C:\Music\06 - Yvan Cassar & Eric Lévi - The Stolen Jewels.wav
Pre-gap length 0:00:00.02
Peak level 96.8 % Extraction speed 3.7 X Track quality 100.0 % Test CRC 9D8CBDB0 Copy CRC 9D8CBDB0 Accurately ripped (confidence 1) [11F0B181] (AR v1) Copy OK
Track 7
Filename C:\Music\07 - Eric Lévi - Concerto In Mi Minor.wav
Pre-gap length 0:00:00.58
Peak level 78.0 % Extraction speed 3.3 X Track quality 100.0 % Test CRC 9E1D884A Copy CRC 9E1D884A Accurately ripped (confidence 1) [9B311BCE] (AR v1) Copy OK
Track 8
Filename C:\Music\08 - Eric Lévi & Guy Prothéroe - Enae Volare Mezzo.wav
Pre-gap length 0:00:00.03
Peak level 66.8 % Extraction speed 5.3 X Track quality 100.0 % Test CRC FA5BD063 Copy CRC FA5BD063 Accurately ripped (confidence 1) [F0A05382] (AR v1) Copy OK
Track 9
Filename C:\Music\09 - Eric Lévi - Your Father Is Alive.wav
Pre-gap length 0:00:00.55
Peak level 67.0 % Extraction speed 1.3 X Track quality 99.2 % Test CRC B79F25FA Copy CRC B79F25FA Accurately ripped (confidence 1) [CF0B89C8] (AR v1) Copy OK
Track 10
Filename C:\Music\10 - Eric Lévi - Melody For A Knight (Part 2).wav
Pre-gap length 0:00:00.02
Peak level 100.0 % Extraction speed 3.5 X Track quality 99.8 % Test CRC F987A8E7 Copy CRC F987A8E7 Accurately ripped (confidence 1) [80A1A40B] (AR v1) Copy OK
Track 11
Filename C:\Music\11 - Eric Lévi - Melody For A Knight (Part 3).wav
Pre-gap length 0:00:00.02
Peak level 69.0 % Extraction speed 3.3 X Track quality 100.0 % Test CRC 79F92A4E Copy CRC 79F92A4E Accurately ripped (confidence 1) [DCF8F8A4] (AR v1) Copy OK
Track 12
Filename C:\Music\12 - Yvan Cassar & Eric Lévi - The Corridors Of Time.wav
Pre-gap length 0:00:00.60
Peak level 88.9 % Extraction speed 3.7 X Track quality 100.0 % Test CRC 54E75AD7 Copy CRC 54E75AD7 Accurately ripped (confidence 1) [077D6C36] (AR v1) Copy OK
Track 13
Filename C:\Music\13 - Yvan Cassar - Fight With The Inquisitor.wav
Pre-gap length 0:00:00.23
Peak level 100.0 % Extraction speed 3.1 X Track quality 100.0 % Test CRC 768BA38F Copy CRC 768BA38F Accurately ripped (confidence 1) [E242900C] (AR v1) Copy OK
Track 14
Filename C:\Music\14 - Eric Lévi - Melody For A Knight (Part 4).wav
Pre-gap length 0:00:00.03
Peak level 99.7 % Extraction speed 3.2 X Track quality 100.0 % Test CRC 6D791AFE Copy CRC 6D791AFE Accurately ripped (confidence 1) [2720FCD8] (AR v1) Copy OK
Track 15
Filename C:\Music\15 - Eric Lévi - Western In The Air.wav
Pre-gap length 0:00:00.03
Peak level 60.2 % Extraction speed 2.1 X Track quality 100.0 % Test CRC B5A35749 Copy CRC B5A35749 Accurately ripped (confidence 1) [EF2B9D06] (AR v1) Copy OK
Track 16
Filename C:\Music\16 - Eric Lévi - My Beloved.wav
Pre-gap length 0:00:00.03
Peak level 59.7 % Extraction speed 2.0 X Track quality 100.0 % Test CRC 91964953 Copy CRC 91964953 Accurately ripped (confidence 1) [7A8BD6EF] (AR v1) Copy OK
Track 17
Filename C:\Music\17 - Yvan Cassar - The Revolution.wav
Pre-gap length 0:00:00.30
Peak level 91.3 % Extraction speed 2.9 X Track quality 100.0 % Test CRC B3F8DE9D Copy CRC B3F8DE9D Accurately ripped (confidence 1) [1F4A51CF] (AR v1) Copy OK
Track 18
Filename C:\Music\18 - Eric Lévi - Run For It.wav
Pre-gap length 0:00:00.02
Peak level 82.6 % Extraction speed 2.1 X Track quality 100.0 % Test CRC 9B129576 Copy CRC 9B129576 Accurately ripped (confidence 1) [4F90D545] (AR v1) Copy OK
Track 19
Filename C:\Music\19 - Eric Lévi - Adagio In G Minor (Short Version).wav
Pre-gap length 0:00:00.02
Peak level 69.3 % Extraction speed 2.5 X Track quality 99.8 % Test CRC 4DE930B4 Copy CRC 4DE930B4 Accurately ripped (confidence 1) [304C187A] (AR v1) Copy OK
Track 20
Filename C:\Music\20 - Eric Lévi - Melody For A Knight.wav
Pre-gap length 0:00:00.03
Peak level 88.0 % Extraction speed 3.4 X Track quality 100.0 % Test CRC 3910F5F3 Copy CRC 3910F5F3 Accurately ripped (confidence 1) [7C5BC98D] (AR v1) Copy OK
Track 21
Filename C:\Music\21 - Yvan Cassar & Eric Lévi - Spell On The Duke.wav
Pre-gap length 0:00:00.02
Peak level 60.8 % Extraction speed 3.4 X Track quality 100.0 % Test CRC 6F666EF6 Copy CRC 6F666EF6 Accurately ripped (confidence 1) [B868CCAD] (AR v1) Copy OK
Track 22
Filename C:\Music\22 - Yvan Cassar & Eric Lévi - Magic Formula 1.wav
Pre-gap length 0:00:00.02
Peak level 86.0 % Extraction speed 2.3 X Track quality 100.0 % Test CRC B63F0637 Copy CRC B63F0637 Accurately ripped (confidence 1) [40A5B3CE] (AR v1) Copy OK
Track 23
Filename C:\Music\23 - Yvan Cassar & Eric Lévi - Magic Formula 2.wav
Pre-gap length 0:00:00.42
Peak level 98.4 % Extraction speed 1.9 X Track quality 99.6 % Test CRC EA8C9314 Copy CRC EA8C9314 Accurately ripped (confidence 1) [39E71EBB] (AR v1) Copy OK
Track 24
Filename C:\Music\24 - Eric Lévi - Wake Up In 1792.wav
Pre-gap length 0:00:00.23
Peak level 67.2 % Extraction speed 3.0 X Track quality 100.0 % Test CRC 074A0FF8 Copy CRC 074A0FF8 Accurately ripped (confidence 1) [9B572738] (AR v1) Copy OK
Track 25
Filename C:\Music\25 - Eric Lévi - Battle In The Village.wav
Pre-gap length 0:00:02.23
Peak level 89.1 % Extraction speed 1.9 X Track quality 99.5 % Test CRC 0937B3BB Copy CRC 0937B3BB Accurately ripped (confidence 1) [B5A1F013] (AR v1) Copy OK
Track 26
Filename C:\Music\26 - Yvan Cassar & Eric Lévi - Jacquouille And The Cigars.wav
Pre-gap length 0:00:01.53
Peak level 49.4 % Extraction speed 2.3 X Track quality 99.6 % Test CRC C70AA128 Copy CRC C70AA128 Accurately ripped (confidence 1) [C91F9587] (AR v1) Copy OK
Track 27
Filename C:\Music\27 - Yvan Cassar & Eric Lévi - Jacquouille And The Firemen.wav
Pre-gap length 0:00:00.63
Peak level 95.9 % Extraction speed 3.2 X Track quality 100.0 % Test CRC 4BA80F9C Copy CRC 4BA80F9C Accurately ripped (confidence 1) [3C7A5EBD] (AR v1) Copy OK
Track 28
Filename C:\Music\28 - Eric Lévi - La Forêt Interdite.wav
Pre-gap length 0:00:01.20
Peak level 76.9 % Extraction speed 4.2 X Track quality 100.0 % Test CRC 4A660CD8 Copy CRC 4A660CD8 Accurately ripped (confidence 1) [C8217AAC] (AR v1) Copy OK
Track 29
Filename C:\Music\29 - Eric Lévi - Rendez-Vous Secret.wav
Pre-gap length 0:00:01.53
Peak level 80.9 % Extraction speed 4.5 X Track quality 100.0 % Test CRC 6845C458 Copy CRC 6845C458 Accurately ripped (confidence 1) [E4911550] (AR v1) Copy OK
Track 30
Filename C:\Music\30 - Eric Lévi & Frédérik Rousseau - Chez L'enchanteur.wav
Pre-gap length 0:00:02.30
Peak level 76.4 % Extraction speed 4.1 X Track quality 100.0 % Test CRC 2EAFC5E6 Copy CRC 2EAFC5E6 Accurately ripped (confidence 1) [D0F02CA4] (AR v1) Copy OK
Track 31
Filename C:\Music\31 - Eric Lévi - C'est Diablerie.wav
Pre-gap length 0:00:00.45
Peak level 99.7 % Extraction speed 3.8 X Track quality 99.9 % Test CRC 7E9CED0F Copy CRC 7E9CED0F Accurately ripped (confidence 1) [C140F308] (AR v1) Copy OK
Track 32
Filename C:\Music\32 - Eric Lévi & Frédérik Rousseau - Les Oubliettes.wav
Pre-gap length 0:00:00.03
Peak level 99.9 % Extraction speed 3.1 X Track quality 99.9 % Test CRC E0D4C90B Copy CRC E0D4C90B Accurately ripped (confidence 1) [6DCB9700] (AR v1) Copy OK
Track 33
Filename C:\Music\33 - Christian Clavier & Jean-Marie Poiré & Eric Lévi - Filez La Laine (Kara-Okay).wav
Pre-gap length 0:00:00.53
Peak level 69.8 % Extraction speed 2.3 X Track quality 100.0 % Test CRC F451A8B5 Copy CRC F451A8B5 Accurately ripped (confidence 1) [493F1771] (AR v1) Copy OK
All tracks accurately ripped
No errors occurred
End of status report
==== Log checksum 2EF39401987331FB3C0A485DF756C24644BD69A5361FBB4528AB1254381EF4A8 ====

Содержание индексной карты (.CUE)

REM GENRE SoundtrackREM DATE 1998REM DISCID 9B080421REM COMMENT "ExactAudioCopy v1.0b3"PERFORMER "Eric Levi"TITLE "Les Visiteurs 2 : Les Couloirs Du Temps"FILE "01 - Eric Levi - Voices From The Past.wav" WAVE TRACK 01 AUDIO TITLE "Voices From The Past" PERFORMER "Eric Levi" INDEX 01 00:00:00 TRACK 02 AUDIO TITLE "Melody For A Knight (Part 1)" PERFORMER "Eric Levi" INDEX 00 00:55:57FILE "02 - Eric Levi - Melody For A Knight (Part 1).wav" WAVE INDEX 01 00:00:00 TRACK 03 AUDIO TITLE "Adagio In G Minor" PERFORMER "Eric Levi" INDEX 00 01:20:07FILE "03 - Eric Levi - Adagio In G Minor.wav" WAVE INDEX 01 00:00:00 TRACK 04 AUDIO TITLE "Jacquart Runs Away" PERFORMER "Yvan Cassar & Eric Levi" INDEX 00 02:45:27FILE "04 - Yvan Cassar & Eric Levi - Jacquart Runs Away.wav" WAVE INDEX 01 00:00:00 TRACK 05 AUDIO TITLE "Jacquart On The Grill" PERFORMER "Yvan Cassar & Eric Levi" INDEX 00 00:31:55FILE "05 - Yvan Cassar & Eric Levi - Jacquart On The Grill.wav" WAVE INDEX 01 00:00:00 TRACK 06 AUDIO TITLE "The Stolen Jewels" PERFORMER "Yvan Cassar & Eric Levi" INDEX 00 00:17:65FILE "06 - Yvan Cassar & Eric Levi - The Stolen Jewels.wav" WAVE INDEX 01 00:00:00 TRACK 07 AUDIO TITLE "Concerto In Mi Minor" PERFORMER "Eric Levi" INDEX 00 01:24:60FILE "07 - Eric Levi - Concerto In Mi Minor.wav" WAVE INDEX 01 00:00:00 TRACK 08 AUDIO TITLE "Enae Volare Mezzo" PERFORMER "Eric Levi & Guy Protheroe" INDEX 00 01:19:17FILE "08 - Eric Levi & Guy Protheroe - Enae Volare Mezzo.wav" WAVE INDEX 01 00:00:00 TRACK 09 AUDIO TITLE "Your Father Is Alive" PERFORMER "Eric Levi" INDEX 00 03:33:45FILE "09 - Eric Levi - Your Father Is Alive.wav" WAVE INDEX 01 00:00:00 TRACK 10 AUDIO TITLE "Melody For A Knight (Part 2)" PERFORMER "Eric Levi" INDEX 00 00:14:40FILE "10 - Eric Levi - Melody For A Knight (Part 2).wav" WAVE INDEX 01 00:00:00 TRACK 11 AUDIO TITLE "Melody For A Knight (Part 3)" PERFORMER "Eric Levi" INDEX 00 01:11:53FILE "11 - Eric Levi - Melody For A Knight (Part 3).wav" WAVE INDEX 01 00:00:00 TRACK 12 AUDIO TITLE "The Corridors Of Time" PERFORMER "Yvan Cassar & Eric Levi" INDEX 00 00:35:40FILE "12 - Yvan Cassar & Eric Levi - The Corridors Of Time.wav" WAVE INDEX 01 00:00:00 TRACK 13 AUDIO TITLE "Fight With The Inquisitor" PERFORMER "Yvan Cassar" INDEX 00 00:48:70FILE "13 - Yvan Cassar - Fight With The Inquisitor.wav" WAVE INDEX 01 00:00:00 TRACK 14 AUDIO TITLE "Melody For A Knight (Part 4)" PERFORMER "Eric Levi" INDEX 00 00:51:47FILE "14 - Eric Levi - Melody For A Knight (Part 4).wav" WAVE INDEX 01 00:00:00 TRACK 15 AUDIO TITLE "Western In The Air" PERFORMER "Eric Levi" INDEX 00 01:03:57FILE "15 - Eric Levi - Western In The Air.wav" WAVE INDEX 01 00:00:00 TRACK 16 AUDIO TITLE "My Beloved" PERFORMER "Eric Levi" INDEX 00 00:28:07FILE "16 - Eric Levi - My Beloved.wav" WAVE INDEX 01 00:00:00 TRACK 17 AUDIO TITLE "The Revolution" PERFORMER "Yvan Cassar" INDEX 00 00:18:45FILE "17 - Yvan Cassar - The Revolution.wav" WAVE INDEX 01 00:00:00 TRACK 18 AUDIO TITLE "Run For It" PERFORMER "Eric Levi" INDEX 00 00:47:50FILE "18 - Eric Levi - Run For It.wav" WAVE INDEX 01 00:00:00 TRACK 19 AUDIO TITLE "Adagio In G Minor (Short Version)" PERFORMER "Eric Levi" INDEX 00 00:26:58FILE "19 - Eric Levi - Adagio In G Minor (Short Version).wav" WAVE INDEX 01 00:00:00 TRACK 20 AUDIO TITLE "Melody For A Knight" PERFORMER "Eric Levi" INDEX 00 01:07:00FILE "20 - Eric Levi - Melody For A Knight.wav" WAVE INDEX 01 00:00:00 TRACK 21 AUDIO TITLE "Spell On The Duke" PERFORMER "Yvan Cassar & Eric Levi" INDEX 00 00:33:70FILE "21 - Yvan Cassar & Eric Levi - Spell On The Duke.wav" WAVE INDEX 01 00:00:00 TRACK 22 AUDIO TITLE "Magic Formula 1" PERFORMER "Yvan Cassar & Eric Levi" INDEX 00 00:41:38FILE "22 - Yvan Cassar & Eric Levi - Magic Formula 1.wav" WAVE INDEX 01 00:00:00 TRACK 23 AUDIO TITLE "Magic Formula 2" PERFORMER "Yvan Cassar & Eric Levi" INDEX 00 00:31:08FILE "23 - Yvan Cassar & Eric Levi - Magic Formula 2.wav" WAVE INDEX 01 00:00:00 TRACK 24 AUDIO TITLE "Wake Up In 1792" PERFORMER "Eric Levi" INDEX 00 00:27:40FILE "24 - Eric Levi - Wake Up In 1792.wav" WAVE INDEX 01 00:00:00 TRACK 25 AUDIO TITLE "Battle In The Village" PERFORMER "Eric Levi" INDEX 00 00:23:52FILE "25 - Eric Levi - Battle In The Village.wav" WAVE INDEX 01 00:00:00 TRACK 26 AUDIO TITLE "Jacquouille And The Cigars" PERFORMER "Yvan Cassar & Eric Levi" INDEX 00 00:23:62FILE "26 - Yvan Cassar & Eric Levi - Jacquouille And The Cigars.wav" WAVE INDEX 01 00:00:00 TRACK 27 AUDIO TITLE "Jacquouille And The Firemen" PERFORMER "Yvan Cassar & Eric Levi" INDEX 00 00:32:27FILE "27 - Yvan Cassar & Eric Levi - Jacquouille And The Firemen.wav" WAVE INDEX 01 00:00:00 TRACK 28 AUDIO TITLE "La Foret Interdite" PERFORMER "Eric Levi" INDEX 00 00:48:57FILE "28 - Eric Levi - La Foret Interdite.wav" WAVE INDEX 01 00:00:00 TRACK 29 AUDIO TITLE "Rendez-Vous Secret" PERFORMER "Eric Levi" INDEX 00 01:12:35FILE "29 - Eric Levi - Rendez-Vous Secret.wav" WAVE INDEX 01 00:00:00 TRACK 30 AUDIO TITLE "Chez L'enchanteur" PERFORMER "Eric Levi & Frederik Rousseau" INDEX 00 01:04:30FILE "30 - Eric Levi & Frederik Rousseau - Chez L'enchanteur.wav" WAVE INDEX 01 00:00:00 TRACK 31 AUDIO TITLE "C'est Diablerie" PERFORMER "Eric Levi" INDEX 00 01:05:30FILE "31 - Eric Levi - C'est Diablerie.wav" WAVE INDEX 01 00:00:00 TRACK 32 AUDIO TITLE "Les Oubliettes" PERFORMER "Eric Levi & Frederik Rousseau" INDEX 00 03:16:12FILE "32 - Eric Levi & Frederik Rousseau - Les Oubliettes.wav" WAVE INDEX 01 00:00:00 TRACK 33 AUDIO TITLE "Filez La Laine (Kara-Okay)" PERFORMER "Christian Clavier & Jean-Marie Poire & Eric Levi" INDEX 00 02:00:57FILE "33 - Christian Clavier & Jean-Marie Poire & Eric Levi - Filez La Laine (Kara-Okay).wav" WAVE INDEX 01 00:00:00
[teatrix.ru].t10328.torrent 
Торрент: Зарегистрирован [ 2015-11-01 20:51 ] · 7D74101C369B742FF16B7A60B7B6CD79B61193AC

Скачать .torrent

Скачать

20 KB

Статус: проверено
Скачан: 0 раз
Размер: 205 MB
terms.php



Быстрый ответ

Имя:

      
Для отправки сообщений необходимо включить JavaScript
Показать сообщения:    

Текущее время: 03-Дек 20:41

Часовой пояс: UTC + 3


Вы можете начинать темы
Вы можете отвечать на сообщения
Вы не можете редактировать свои сообщения
Вы не можете удалять свои сообщения
Вы не можете голосовать в опросах
Вы не можете прикреплять файлы к сообщениям
Вы можете скачивать файлы