(Score) Последний звёздный боец / The Last Starfighter (by Craig Safan) - 2015 (1984), FLAC (tracks+.cue), lossless


Статистика раздачи [Обновить пиров]
Размер:  346 MB   |    Зарегистрирован:  1 год 1 месяц   |    Скачан:  2 раза

Полного источника не было: 2 дня 5 часов

 
   
 
 
 

[Цитировать]

Последний звёздный боец / The Last Starfighter- Жанр: Score
Композитор: Craig Safan
Год выпуска диска: 2015
Год выпуска фильма: 1984
Страна-производитель диска: USA
Издатель (лейбл): Intrada
Номер по каталогу: MAF 7139
Аудиокодек: FLAC (*.flac)
Тип рипа: tracks+.cue
Битрейт аудио: lossless
Продолжительность: 01:03:55
Источник: CD / forums.ffshrine.org
Наличие сканов в содержимом раздачи: да
Треклист:
01 - Main Title
02 - Alex Dreams
03 - Record Breaker
04 - Centauri into Space
05 - Rylos
06 - Beta Transforms
07 - Gunstars
08 - Victory or Death
09 - Zur
10 - Krill
11 - Slap
12 - Hit Beast
13 - Centauri Dies
14 - Target Practice
15 - Alex's First Test
16 - Alex Decides
17 - Beta's Sacrifice
18 - Good Luck Starfighter
19 - Death Blossom, Ultimate Weapon
20 - Big Victory March
21 - Alex Returns
22 - Into The Starscape

Лог создания рипа

Exact Audio Copy V1.0 beta 3 from 29. August 2011
EAC extraction logfile from 9. January 2015, 19:53
Craig Safan / The Last Starfighter
Used drive : ASUS DRW-24B1ST a Adapter: 1 ID: 1
Read mode : SecureUtilize accurate stream : YesDefeat audio cache : YesMake use of C2 pointers : No
Read offset correction : 6Overread into Lead-In and Lead-Out : NoFill up missing offset samples with silence : YesDelete leading and trailing silent blocks : NoNull samples used in CRC calculations : YesUsed interface : Native Win32 interface for Win NT & 2000Gap handling : Appended to previous track
Used output format : User Defined EncoderSelected bitrate : 1024 kBit/sQuality : HighAdd ID3 tag : NoCommand line compressor : C:\Program Files (x86)\FLAC\flac.exeAdditional command line options : -8 -V -T "ARTIST=%artist%" -T "TITLE=%title%" -T "ALBUM=%albumtitle%" -T "DATE=%year%" -T "TRACKNUMBER=%tracknr%" -T "GENRE=%genre%" -T "PERFORMER=%albuminterpret%" -T "COMPOSER=%composer%" %haslyrics%--tag-from-file=LYRICS="%lyricsfile%"%haslyrics% -T "ALBUMARTIST=%albumartist%" -T "DISCNUMBER=%cdnumber%" -T "TOTALDISCS=%totalcds%" -T "TOTALTRACKS=%numtracks%" -T "COMMENT=%comment%" %source% -o %dest%
TOC of the extracted CD
Track | Start | Length | Start sector | End sector --------------------------------------------------------- 1 | 0:00.00 | 2:34.11 | 0 | 11560 2 | 2:34.11 | 1:47.34 | 11561 | 19619 3 | 4:21.45 | 2:32.00 | 19620 | 31019 4 | 6:53.45 | 6:02.02 | 31020 | 58171 5 | 12:55.47 | 2:04.74 | 58172 | 67545 6 | 15:00.46 | 0:47.00 | 67546 | 71070 7 | 15:47.46 | 0:44.01 | 71071 | 74371 8 | 16:31.47 | 0:57.72 | 74372 | 78718 9 | 17:29.44 | 2:34.00 | 78719 | 90268 10 | 20:03.44 | 4:27.37 | 90269 | 110330 11 | 24:31.06 | 0:34.40 | 110331 | 112920 12 | 25:05.46 | 0:59.00 | 112921 | 117345 13 | 26:04.46 | 6:55.35 | 117346 | 148505 14 | 33:00.06 | 2:22.04 | 148506 | 159159 15 | 35:22.10 | 2:54.27 | 159160 | 172236 16 | 38:16.37 | 2:53.44 | 172237 | 185255 17 | 41:10.06 | 3:51.42 | 185256 | 202622 18 | 45:01.48 | 0:48.72 | 202623 | 206294 19 | 45:50.45 | 4:49.35 | 206295 | 228004 20 | 50:40.05 | 2:20.05 | 228005 | 238509 21 | 53:00.10 | 3:31.70 | 238510 | 254404 22 | 56:32.05 | 7:23.17 | 254405 | 287646
Track 1
Filename D:\Media\The Last Starfighter\01 Main Title.wav
Pre-gap length 0:00:02.00
Peak level 99.1 % Extraction speed 3.2 X Track quality 100.0 % Test CRC D539E272 Copy CRC D539E272 Track not present in AccurateRip database Copy OK
Track 2
Filename D:\Media\The Last Starfighter\02 Alex Dreams.wav
Peak level 40.2 % Extraction speed 3.2 X Track quality 100.0 % Test CRC 1A0E0D65 Copy CRC 1A0E0D65 Track not present in AccurateRip database Copy OK
Track 3
Filename D:\Media\The Last Starfighter\03 Record Breaker.wav
Peak level 99.0 % Extraction speed 3.7 X Track quality 100.0 % Test CRC 29C826F7 Copy CRC 29C826F7 Track not present in AccurateRip database Copy OK
Track 4
Filename D:\Media\The Last Starfighter\04 Centauri into Space.wav
Peak level 98.8 % Extraction speed 4.5 X Track quality 100.0 % Test CRC 2184F77B Copy CRC 2184F77B Track not present in AccurateRip database Copy OK
Track 5
Filename D:\Media\The Last Starfighter\05 Rylos.wav
Peak level 58.0 % Extraction speed 4.1 X Track quality 100.0 % Test CRC F67065DE Copy CRC F67065DE Track not present in AccurateRip database Copy OK
Track 6
Filename D:\Media\The Last Starfighter\06 Beta Transforms.wav
Peak level 96.1 % Extraction speed 2.9 X Track quality 100.0 % Test CRC 9082C04E Copy CRC 9082C04E Track not present in AccurateRip database Copy OK
Track 7
Filename D:\Media\The Last Starfighter\07 Gunstars.wav
Peak level 66.6 % Extraction speed 2.9 X Track quality 100.0 % Test CRC F6F79048 Copy CRC F6F79048 Track not present in AccurateRip database Copy OK
Track 8
Filename D:\Media\The Last Starfighter\08 Victory Or Death.wav
Peak level 78.8 % Extraction speed 3.4 X Track quality 100.0 % Test CRC D4E23D84 Copy CRC D4E23D84 Track not present in AccurateRip database Copy OK
Track 9
Filename D:\Media\The Last Starfighter\09 Zur.wav
Peak level 94.2 % Extraction speed 3.4 X Track quality 99.9 % Test CRC A35F9AC0 Copy CRC A35F9AC0 Track not present in AccurateRip database Copy OK
Track 10
Filename D:\Media\The Last Starfighter\10 Krill.wav
Peak level 97.6 % Extraction speed 5.3 X Track quality 100.0 % Test CRC C1163B4A Copy CRC C1163B4A Track not present in AccurateRip database Copy OK
Track 11
Filename D:\Media\The Last Starfighter\11 Slap.wav
Peak level 26.3 % Extraction speed 1.5 X Track quality 99.6 % Test CRC 5FC6F126 Copy CRC 5FC6F126 Track not present in AccurateRip database Copy OK
Track 12
Filename D:\Media\The Last Starfighter\12 Hit Beast.wav
Peak level 78.2 % Extraction speed 3.8 X Track quality 100.0 % Test CRC A9780A29 Copy CRC A9780A29 Track not present in AccurateRip database Copy OK
Track 13
Filename D:\Media\The Last Starfighter\13 Centauri Dies.wav
Peak level 98.1 % Extraction speed 6.0 X Track quality 100.0 % Test CRC 66EA0D27 Copy CRC 66EA0D27 Track not present in AccurateRip database Copy OK
Track 14
Filename D:\Media\The Last Starfighter\14 Target Practice.wav
Peak level 96.5 % Extraction speed 3.9 X Track quality 99.9 % Test CRC 87CAE417 Copy CRC 87CAE417 Track not present in AccurateRip database Copy OK
Track 15
Filename D:\Media\The Last Starfighter\15 Alex's First Test.wav
Peak level 99.7 % Extraction speed 5.7 X Track quality 100.0 % Test CRC 05CC4515 Copy CRC 05CC4515 Track not present in AccurateRip database Copy OK
Track 16
Filename D:\Media\The Last Starfighter\16 Alex Decides.wav
Peak level 96.2 % Extraction speed 4.4 X Track quality 99.9 % Test CRC 71319B8E Copy CRC 71319B8E Track not present in AccurateRip database Copy OK
Track 17
Filename D:\Media\The Last Starfighter\17 Beta's Sacrifice.wav
Peak level 99.2 % Extraction speed 6.4 X Track quality 100.0 % Test CRC 0238EBE3 Copy CRC 0238EBE3 Track not present in AccurateRip database Copy OK
Track 18
Filename D:\Media\The Last Starfighter\18 Good Luck Starfighter.wav
Peak level 97.2 % Extraction speed 4.2 X Track quality 100.0 % Test CRC 8B3E4F0B Copy CRC 8B3E4F0B Track not present in AccurateRip database Copy OK
Track 19
Filename D:\Media\The Last Starfighter\19 Death Blossom, Ultimate Weapon.wav
Peak level 97.8 % Extraction speed 5.6 X Track quality 99.9 % Test CRC DC954378 Copy CRC DC954378 Track not present in AccurateRip database Copy OK
Track 20
Filename D:\Media\The Last Starfighter\20 Big Victory March.wav
Peak level 98.4 % Extraction speed 4.4 X Track quality 99.9 % Test CRC E01CBF09 Copy CRC E01CBF09 Track not present in AccurateRip database Copy OK
Track 21
Filename D:\Media\The Last Starfighter\21 Alex Returns.wav
Peak level 99.8 % Extraction speed 6.8 X Track quality 100.0 % Test CRC 20ED9BFA Copy CRC 20ED9BFA Track not present in AccurateRip database Copy OK
Track 22
Filename D:\Media\The Last Starfighter\22 Into The Starscape.wav
Peak level 99.2 % Extraction speed 6.6 X Track quality 99.9 % Test CRC 4A967EE3 Copy CRC 4A967EE3 Track not present in AccurateRip database Copy OK
None of the tracks are present in the AccurateRip database
No errors occurred
End of status report
---- CUETools DB Plugin V2.1.3
[CTDB TOCID: 9YiRtHq0tZSY2bsxR5S4.kxLb4k-] disk not present in database, Submit result: 9YiRtHq0tZSY2bsxR5S4.kxLb4k- has been uploaded
==== Log checksum 5C4D2A31ED0455887F795D10966BF1016352D1042511CF50CA90FDA2CEBA3086 ====

Содержание индексной карты (.CUE)

REM GENRE SoundtrackREM DATE 2015REM DISCID 330EFB16REM COMMENT "ExactAudioCopy v1.0b3"PERFORMER "Craig Safan"TITLE "The Last Starfighter"FILE "01 Main Title.wav" WAVE TRACK 01 AUDIO TITLE "Main Title" PERFORMER "Craig Safan" ISRC USAHF1400043 INDEX 01 00:00:00FILE "02 Alex Dreams.wav" WAVE TRACK 02 AUDIO TITLE "Alex Dreams" PERFORMER "Craig Safan" ISRC USAHF1400044 INDEX 01 00:00:00FILE "03 Record Breaker.wav" WAVE TRACK 03 AUDIO TITLE "Record Breaker" PERFORMER "Craig Safan" ISRC USAHF1400045 INDEX 01 00:00:00FILE "04 Centauri into Space.wav" WAVE TRACK 04 AUDIO TITLE "Centauri into Space" PERFORMER "Craig Safan" ISRC USAHF1400046 INDEX 01 00:00:00FILE "05 Rylos.wav" WAVE TRACK 05 AUDIO TITLE "Rylos" PERFORMER "Craig Safan" ISRC USAHF1400047 INDEX 01 00:00:00FILE "06 Beta Transforms.wav" WAVE TRACK 06 AUDIO TITLE "Beta Transforms" PERFORMER "Craig Safan" ISRC USAHF1400048 INDEX 01 00:00:00FILE "07 Gunstars.wav" WAVE TRACK 07 AUDIO TITLE "Gunstars" PERFORMER "Craig Safan" ISRC USAHF1400049 INDEX 01 00:00:00FILE "08 Victory Or Death.wav" WAVE TRACK 08 AUDIO TITLE "Victory Or Death" PERFORMER "Craig Safan" ISRC USAHF1400050 INDEX 01 00:00:00FILE "09 Zur.wav" WAVE TRACK 09 AUDIO TITLE "Zur" PERFORMER "Craig Safan" ISRC USAHF1400051 INDEX 01 00:00:00FILE "10 Krill.wav" WAVE TRACK 10 AUDIO TITLE "Krill" PERFORMER "Craig Safan" ISRC USAHF1400052 INDEX 01 00:00:00FILE "11 Slap.wav" WAVE TRACK 11 AUDIO TITLE "Slap" PERFORMER "Craig Safan" ISRC USAHF1400053 INDEX 01 00:00:00FILE "12 Hit Beast.wav" WAVE TRACK 12 AUDIO TITLE "Hit Beast" PERFORMER "Craig Safan" ISRC USAHF1400054 INDEX 01 00:00:00FILE "13 Centauri Dies.wav" WAVE TRACK 13 AUDIO TITLE "Centauri Dies" PERFORMER "Craig Safan" ISRC USAHF1400055 INDEX 01 00:00:00FILE "14 Target Practice.wav" WAVE TRACK 14 AUDIO TITLE "Target Practice" PERFORMER "Craig Safan" ISRC USAHF1400056 INDEX 01 00:00:00FILE "15 Alex's First Test.wav" WAVE TRACK 15 AUDIO TITLE "Alex's First Test" PERFORMER "Craig Safan" ISRC USAHF1400057 INDEX 01 00:00:00FILE "16 Alex Decides.wav" WAVE TRACK 16 AUDIO TITLE "Alex Decides" PERFORMER "Craig Safan" ISRC USAHF1400058 INDEX 01 00:00:00FILE "17 Beta's Sacrifice.wav" WAVE TRACK 17 AUDIO TITLE "Beta's Sacrifice" PERFORMER "Craig Safan" ISRC USAHF1400059 INDEX 01 00:00:00FILE "18 Good Luck Starfighter.wav" WAVE TRACK 18 AUDIO TITLE "Good Luck Starfighter" PERFORMER "Craig Safan" ISRC USAHF1400060 INDEX 01 00:00:00FILE "19 Death Blossom, Ultimate Weapon.wav" WAVE TRACK 19 AUDIO TITLE "Death Blossom, Ultimate Weapon" PERFORMER "Craig Safan" ISRC USAHF1400061 INDEX 01 00:00:00FILE "20 Big Victory March.wav" WAVE TRACK 20 AUDIO TITLE "Big Victory March" PERFORMER "Craig Safan" ISRC USAHF1400062 INDEX 01 00:00:00FILE "21 Alex Returns.wav" WAVE TRACK 21 AUDIO TITLE "Alex Returns" PERFORMER "Craig Safan" ISRC USAHF1400063 INDEX 01 00:00:00FILE "22 Into The Starscape.wav" WAVE TRACK 22 AUDIO TITLE "Into The Starscape" PERFORMER "Craig Safan" ISRC USAHF1400064 INDEX 01 00:00:00

Лог проверки качества

-----------------------
DON'T MODIFY THIS FILE
-----------------------
PERFORMER: auCDtect Task Manager, ver. 1.6.0 RC1 build 1.6.0.1Copyright (c) 2008-2010 y-soft. All rights reservedhttp://y-soft.org
ANALYZER: auCDtect: CD records authenticity detector, version 0.8.2Copyright (c) 2004 Oleg Berngardt. All rights reserved.Copyright (c) 2004 Alexander Djourik. All rights reserved.
FILE: 22 Into The Starscape.flac Size: 41955741 Hash: F33AE1DD21934B5826F192408D7C3E74 Accuracy: -m0 Conclusion: CDDA 100% Signature: 4541373EF1D150F0905FB0E82CC7E06EC82CCBA7FILE: 21 Alex Returns.flac Size: 17758761 Hash: 642E76E03D058042374B6C7DCE76424D Accuracy: -m0 Conclusion: CDDA 100% Signature: 515CA656DD43EF570F9EA7B3133B22F9120B5FF9FILE: 20 Big Victory March.flac Size: 13999867 Hash: 2E67D942C178F96BAFC2C1F7261E6B01 Accuracy: -m0 Conclusion: CDDA 100% Signature: 141F04726F1B5C9A91D98D2AC0F1686D6EA5C09CFILE: 19 Death Blossom, Ultimate Weapon.flac Size: 26599887 Hash: AC88F1F7E4D1E20499FAD6534A18F140 Accuracy: -m0 Conclusion: CDDA 100% Signature: 31E97D75AB93C5C20845D5B85076B5721A069A79FILE: 18 Good Luck Starfighter.flac Size: 4244283 Hash: E0C1B21D8668529F6EDE2AAB3974640E Accuracy: -m0 Conclusion: CDDA 100% Signature: BE6E19F08BEEECBC5003D0478ADD3099FA4B5F2FFILE: 17 Beta's Sacrifice.flac Size: 20131653 Hash: 0FF5E2F051CE500D7FAA65734E7285DA Accuracy: -m0 Conclusion: CDDA 100% Signature: EFB93798F1F870C439091A3A0CDB04840501E151FILE: 16 Alex Decides.flac Size: 15150848 Hash: 1DDF6F9D3BDE2404260B04C9881348FA Accuracy: -m0 Conclusion: CDDA 100% Signature: 085FA878538F7DF6CF7D005C7E01DFF8E4B4BAC9FILE: 15 Alex's First Test.flac Size: 14455562 Hash: 72012E240720C40309099B054CFD7679 Accuracy: -m0 Conclusion: CDDA 100% Signature: 7E0FF89CC371CAF48D88E5BD84F931A5ABEDBC75FILE: 14 Target Practice.flac Size: 11934514 Hash: 4F7A9F975E7967DDA292B663A77D89C2 Accuracy: -m0 Conclusion: CDDA 100% Signature: ACD359374909BF43D2423026BF50FA0217813629FILE: 13 Centauri Dies.flac Size: 33844366 Hash: 8C1813903B25CCE17B01D51B2F18827F Accuracy: -m0 Conclusion: CDDA 100% Signature: C567C81471AEAA86DAC8E43B281481B531FDA37DFILE: 12 Hit Beast.flac Size: 5145780 Hash: BC1D5CE611132AC7A8617F96F6093053 Accuracy: -m0 Conclusion: CDDA 99% Signature: E16860B8FFB96BD7D4149DCB19B67FF6C6482444FILE: 11 Slap.flac Size: 2672971 Hash: 3879FEE7F70F2F6AE601B723108FABC6 Accuracy: -m0 Conclusion: CDDA 100% Signature: D9BA32ED933CDEA67D5F3E5CD9026BDB04FBBFAEFILE: 10 Krill.flac Size: 23669097 Hash: 91B0D5D2555CDC95C0583BA65EACDEA3 Accuracy: -m0 Conclusion: CDDA 100% Signature: E25DA5580850DD62C937FDE9932888FF71F78623FILE: 09 Zur.flac Size: 12731143 Hash: 6EC87748FF4B0B281F9780E2893871AD Accuracy: -m0 Conclusion: CDDA 100% Signature: 344D5A4BA88A0D85D0E57B1AD2A331A37B2C414EFILE: 08 Victory Or Death.flac Size: 4707018 Hash: 88C0827DB54DA1B45911D14AB69E914C Accuracy: -m0 Conclusion: CDDA 100% Signature: 14789DF11A4A0471B4ED2393107397F4CAE46167FILE: 07 Gunstars.flac Size: 3646968 Hash: 51607FB292EBD4496AEB1B00CFF2E298 Accuracy: -m0 Conclusion: CDDA 100% Signature: 814138466CB2B45F84F47D3BE9A7AE9EDA7BB3E9FILE: 06 Beta Transforms.flac Size: 3564107 Hash: CD23079297C5D0EEC4A5FEED355CCF9D Accuracy: -m0 Conclusion: CDDA 100% Signature: D6415D34153E9C368E357325AC6175EA24983591FILE: 05 Rylos.flac Size: 9532414 Hash: 57E94A390371DEE7294C9583D065699C Accuracy: -m0 Conclusion: CDDA 100% Signature: 7A75F4D0C739E4580F8384354BACA1999C4DA24CFILE: 04 Centauri into Space.flac Size: 29946760 Hash: 8612C3000E52F6E3958A3425D53BA6DC Accuracy: -m0 Conclusion: CDDA 100% Signature: CC9CCE99087DF2B382C5150080B287DED860E18AFILE: 03 Record Breaker.flac Size: 12608175 Hash: 82FB6F1672A18EB8A801E00A40E362CC Accuracy: -m0 Conclusion: CDDA 100% Signature: 512DF3B14887EF3E9D2982912EF94A42888AAF75FILE: 02 Alex Dreams.flac Size: 8499867 Hash: B72A3FC2599A12D42E5BA72E6E024D8A Accuracy: -m0 Conclusion: CDDA 100% Signature: B6DB01D501EABB149CEA920884FC92C8297230D0FILE: 01 Main Title.flac Size: 13857578 Hash: 6126A5DEF33F0706C6C08FE6FC7B4292 Accuracy: -m0 Conclusion: CDDA 100% Signature: CE55F474A8FB4276BAA02805928C0DF8F949EB59

Скриншот спектра частот

Доп. информация

Score: 100 (out of 100)-Log entry is fine!
[teatrix.ru].t10329.torrent 
Торрент: Зарегистрирован [ 2015-11-01 20:51 ] · AB235E9D0C7FE3F9B0252F45BB1FD6033150487D

Скачать .torrent

Скачать

16 KB

Статус: проверено
Скачан: 2 раз
Размер: 346 MB
terms.php



Быстрый ответ

Имя:

      
Для отправки сообщений необходимо включить JavaScript
Показать сообщения:    

Текущее время: 10-Дек 06:10

Часовой пояс: UTC + 3


Вы можете начинать темы
Вы можете отвечать на сообщения
Вы не можете редактировать свои сообщения
Вы не можете удалять свои сообщения
Вы не можете голосовать в опросах
Вы не можете прикреплять файлы к сообщениям
Вы можете скачивать файлы