(Score) Копи царя Соломона / King Solomon's Mines (by Jerry Goldsmith) - 2014 (1985), FLAC (tracks+.cue), lossless


Статистика раздачи [Обновить пиров]
Размер:  641 MB   |    Зарегистрирован:  1 год 1 месяц   |    Скачан:  0 раз

Полного источника не было: Никогда

 
   
 
 
 

[Цитировать]

Копи царя Соломона / King Solomon's Mines- Жанр: Score
Композитор: Jerry Goldsmith
Год выпуска диска: 2014
Год выпуска фильма: 1985
Страна-производитель диска: Spain
Издатель (лейбл): Quartet Records
Номер по каталогу: QR181
Аудиокодек: FLAC (*.flac)
Тип рипа: tracks+.cue
Битрейт аудио: lossless
Продолжительность: 01:52:31
Источник: CD / forums.ffshrine.org
Наличие сканов в содержимом раздачи: да

CD1 (01:12:42)

01 - Main Title
02 - Welcoming Committee
03 - No Sale
04 - The Mummy
05 - Have a Cigar
06 - Good Morning
07 - Under the Train
08 - Dancing Shots
09 - Pain
10 - Forced Flight
11 - The Chieftain
12 - Percussion Sweetener
13 - Pot Luck
14 - Upside Down People
15 - The Crocodiles
16 - The Mines
17 - Pre-Ritual / The Ritual, Part I / The Ritual, Part II
18 - Low Bridge
19 - Falling Rocks
20 - Final Confrontation
21 - No Diamonds
Bonus Tracks:
22 - Ride
23 - Theme From King Solomon's Mines

Лог создания рипа

Exact Audio Copy V1.0 beta 3 from 29. August 2011
EAC extraction logfile from 23. December 2014, 16:41
Goldsmith, Jerry / King Salomon's mines
Used drive : HL-DT-STBD-RE BH10LS38 Adapter: 2 ID: 0
Read mode : SecureUtilize accurate stream : YesDefeat audio cache : YesMake use of C2 pointers : No
Read offset correction : 667Overread into Lead-In and Lead-Out : NoFill up missing offset samples with silence : YesDelete leading and trailing silent blocks : NoNull samples used in CRC calculations : YesUsed interface : Native Win32 interface for Win NT & 2000Gap handling : Appended to previous track
Used output format : User Defined EncoderSelected bitrate : 1024 kBit/sQuality : HighAdd ID3 tag : NoCommand line compressor : C:\Program Files (x86)\Exact Audio Copy\FLAC\FLAC.EXEAdditional command line options : -6 -V -T "ARTIST=%artist%" -T "TITLE=%title%" -T "ALBUM=%albumtitle%" -T "DATE=%year%" -T "TRACKNUMBER=%tracknr%" -T "GENRE=%genre%" -T "COMMENT=%comment%" -T "BAND=%albuminterpret%" -T "ALBUMARTIST=%albuminterpret%" -T "COMPOSER=%composer%" %haslyrics%--tag-from-file=LYRICS="%lyricsfile%"%haslyrics% -T "DISCNUMBER=%cdnumber%" -T "TOTALDISCS=%totalcds%" -T "TOTALTRACKS=%numtracks%" %hascover%--picture="%coverfile%"%hascover% %source% -o %dest%
TOC of the extracted CD
Track | Start | Length | Start sector | End sector --------------------------------------------------------- 1 | 0:00.00 | 3:45.17 | 0 | 16891 2 | 3:45.17 | 0:56.44 | 16892 | 21135 3 | 4:41.61 | 3:41.10 | 21136 | 37720 4 | 8:22.71 | 1:20.62 | 37721 | 43782 5 | 9:43.58 | 3:44.00 | 43783 | 60582 6 | 13:27.58 | 2:37.09 | 60583 | 72366 7 | 16:04.67 | 3:13.33 | 72367 | 86874 8 | 19:18.25 | 3:41.35 | 86875 | 103484 9 | 22:59.60 | 3:12.34 | 103485 | 117918 10 | 26:12.19 | 5:29.25 | 117919 | 142618 11 | 31:41.44 | 1:06.54 | 142619 | 147622 12 | 32:48.23 | 0:45.46 | 147623 | 151043 13 | 33:33.69 | 3:28.58 | 151044 | 166701 14 | 37:02.52 | 5:09.52 | 166702 | 189928 15 | 42:12.29 | 3:13.03 | 189929 | 204406 16 | 45:25.32 | 1:30.18 | 204407 | 211174 17 | 46:55.50 | 6:19.36 | 211175 | 239635 18 | 53:15.11 | 3:36.66 | 239636 | 255901 19 | 56:52.02 | 1:11.37 | 255902 | 261263 20 | 58:03.39 | 3:21.46 | 261264 | 276384 21 | 61:25.10 | 4:28.30 | 276385 | 296514 22 | 65:53.40 | 3:11.62 | 296515 | 310901 23 | 69:05.27 | 3:37.39 | 310902 | 327215
Track 1
Filename W:\Work\# Audio\#\01. Main title.wav
Pre-gap length 0:00:02.00
Peak level 97.7 % Extraction speed 1.1 X Track quality 100.0 % Copy CRC 8011F525 Track not present in AccurateRip database Copy OK
Track 2
Filename W:\Work\# Audio\#\02. Welcoming committee.wav
Pre-gap length 0:00:03.00
Peak level 97.7 % Extraction speed 0.8 X Track quality 100.0 % Copy CRC 37A63607 Track not present in AccurateRip database Copy OK
Track 3
Filename W:\Work\# Audio\#\03. No sale.wav
Pre-gap length 0:00:03.00
Peak level 97.7 % Extraction speed 1.2 X Track quality 100.0 % Copy CRC E7605D56 Track not present in AccurateRip database Copy OK
Track 4
Filename W:\Work\# Audio\#\04. The mummy.wav
Pre-gap length 0:00:03.00
Peak level 94.3 % Extraction speed 1.0 X Track quality 100.0 % Copy CRC 4C4775ED Track not present in AccurateRip database Copy OK
Track 5
Filename W:\Work\# Audio\#\05. Have a cigar.wav
Pre-gap length 0:00:03.00
Peak level 97.7 % Extraction speed 1.4 X Track quality 100.0 % Copy CRC 68BCB5E6 Track not present in AccurateRip database Copy OK
Track 6
Filename W:\Work\# Audio\#\06. Good morning.wav
Pre-gap length 0:00:03.00
Peak level 82.8 % Extraction speed 1.4 X Track quality 100.0 % Copy CRC B81DEBF6 Track not present in AccurateRip database Copy OK
Track 7
Filename W:\Work\# Audio\#\07. Under the train.wav
Pre-gap length 0:00:03.00
Peak level 97.7 % Extraction speed 1.5 X Track quality 100.0 % Copy CRC C8F10A80 Track not present in AccurateRip database Copy OK
Track 8
Filename W:\Work\# Audio\#\08. Dancing shots.wav
Pre-gap length 0:00:03.00
Peak level 97.7 % Extraction speed 1.6 X Track quality 100.0 % Copy CRC 272219B2 Track not present in AccurateRip database Copy OK
Track 9
Filename W:\Work\# Audio\#\09. Pain.wav
Pre-gap length 0:00:02.74
Peak level 97.7 % Extraction speed 1.7 X Track quality 100.0 % Copy CRC 41C9F1CF Track not present in AccurateRip database Copy OK
Track 10
Filename W:\Work\# Audio\#\10. Forced flight.wav
Pre-gap length 0:00:02.73
Peak level 97.7 % Extraction speed 1.7 X Track quality 99.9 % Copy CRC 2FF0A7A5 Track not present in AccurateRip database Copy OK
Track 11
Filename W:\Work\# Audio\#\11. The chieftain.wav
Pre-gap length 0:00:02.74
Peak level 97.7 % Extraction speed 1.0 X Track quality 99.8 % Copy CRC 43540713 Track not present in AccurateRip database Copy OK
Track 12
Filename W:\Work\# Audio\#\12. Percussion sweetener.wav
Pre-gap length 0:00:02.74
Peak level 97.7 % Extraction speed 1.2 X Track quality 100.0 % Copy CRC A11A01E4 Track not present in AccurateRip database Copy OK
Track 13
Filename W:\Work\# Audio\#\13. Pot luck.wav
Pre-gap length 0:00:02.74
Peak level 97.7 % Extraction speed 1.9 X Track quality 100.0 % Copy CRC A89B08AC Track not present in AccurateRip database Copy OK
Track 14
Filename W:\Work\# Audio\#\14. Upside down people.wav
Pre-gap length 0:00:02.74
Peak level 97.7 % Extraction speed 2.0 X Track quality 100.0 % Copy CRC 22B0F9B6 Track not present in AccurateRip database Copy OK
Track 15
Filename W:\Work\# Audio\#\15. The crocodiles.wav
Pre-gap length 0:00:02.74
Peak level 97.7 % Extraction speed 2.0 X Track quality 100.0 % Copy CRC 8A440AFE Track not present in AccurateRip database Copy OK
Track 16
Filename W:\Work\# Audio\#\16. The mines.wav
Pre-gap length 0:00:02.74
Peak level 97.7 % Extraction speed 1.7 X Track quality 100.0 % Copy CRC DE7CC3A2 Track not present in AccurateRip database Copy OK
Track 17
Filename W:\Work\# Audio\#\17. Pre-ritual - The ritual, part I - The ritual, part II.wav
Pre-gap length 0:00:02.74
Peak level 97.7 % Extraction speed 2.1 X Track quality 99.9 % Copy CRC C92AB9C9 Track not present in AccurateRip database Copy OK
Track 18
Filename W:\Work\# Audio\#\18. Low bridge.wav
Pre-gap length 0:00:02.74
Peak level 97.7 % Extraction speed 2.2 X Track quality 100.0 % Copy CRC 8E42DAFC Track not present in AccurateRip database Copy OK
Track 19
Filename W:\Work\# Audio\#\19. Falling rocks.wav
Pre-gap length 0:00:03.00
Peak level 97.7 % Extraction speed 1.7 X Track quality 100.0 % Copy CRC D8FEBA08 Track not present in AccurateRip database Copy OK
Track 20
Filename W:\Work\# Audio\#\20. Final confrontation.wav
Pre-gap length 0:00:02.74
Peak level 97.7 % Extraction speed 2.2 X Track quality 100.0 % Copy CRC BEDB6646 Track not present in AccurateRip database Copy OK
Track 21
Filename W:\Work\# Audio\#\21. No diamonds.wav
Pre-gap length 0:00:02.74
Peak level 97.7 % Extraction speed 2.4 X Track quality 100.0 % Copy CRC 1FCC61C0 Track not present in AccurateRip database Copy OK
Track 22
Filename W:\Work\# Audio\#\22. Ride.wav
Pre-gap length 0:00:06.74
Peak level 91.3 % Extraction speed 2.4 X Track quality 100.0 % Copy CRC A6ACFF1B Track not present in AccurateRip database Copy OK
Track 23
Filename W:\Work\# Audio\#\23. Theme from King Salomon's mines.wav
Pre-gap length 0:00:02.74
Peak level 97.7 % Extraction speed 2.4 X Track quality 100.0 % Copy CRC 7001E9EF Track not present in AccurateRip database Copy OK
None of the tracks are present in the AccurateRip database
No errors occurred
End of status report
---- CUETools DB Plugin V2.1.3
[CTDB TOCID: fwzSjpPNBTaeB4mdTrZeXeM89mc-] disk not present in database, Submit result: database access error: La demande a été abandonnée : La demande a été annulée.
==== Log checksum 496184A5D77B31DF4C0BBB4DA2B08430B8B9FB36EE754C3A9CBBB0309136DD1C ====

Содержание индексной карты (.CUE)

REM GENRE ScoreREM DATE 2014REM DISCID 56110A17REM COMMENT "ExactAudioCopy v1.0b3"PERFORMER "Goldsmith, Jerry"TITLE "King Salomon's mines"FILE "01. Main title.wav" WAVE TRACK 01 AUDIO TITLE "Main title" PERFORMER "Goldsmith, Jerry" INDEX 01 00:00:00 TRACK 02 AUDIO TITLE "Welcoming committee" PERFORMER "Goldsmith, Jerry" INDEX 00 03:42:17FILE "02. Welcoming committee.wav" WAVE INDEX 01 00:00:00 TRACK 03 AUDIO TITLE "No sale" PERFORMER "Goldsmith, Jerry" INDEX 00 00:53:44FILE "03. No sale.wav" WAVE INDEX 01 00:00:00 TRACK 04 AUDIO TITLE "The mummy" PERFORMER "Goldsmith, Jerry" INDEX 00 03:38:10FILE "04. The mummy.wav" WAVE INDEX 01 00:00:00 TRACK 05 AUDIO TITLE "Have a cigar" PERFORMER "Goldsmith, Jerry" INDEX 00 01:17:62FILE "05. Have a cigar.wav" WAVE INDEX 01 00:00:00 TRACK 06 AUDIO TITLE "Good morning" PERFORMER "Goldsmith, Jerry" INDEX 00 03:41:00FILE "06. Good morning.wav" WAVE INDEX 01 00:00:00 TRACK 07 AUDIO TITLE "Under the train" PERFORMER "Goldsmith, Jerry" INDEX 00 02:34:09FILE "07. Under the train.wav" WAVE INDEX 01 00:00:00 TRACK 08 AUDIO TITLE "Dancing shots" PERFORMER "Goldsmith, Jerry" INDEX 00 03:10:33FILE "08. Dancing shots.wav" WAVE INDEX 01 00:00:00 TRACK 09 AUDIO TITLE "Pain" PERFORMER "Goldsmith, Jerry" INDEX 00 03:38:36FILE "09. Pain.wav" WAVE INDEX 01 00:00:00 TRACK 10 AUDIO TITLE "Forced flight" PERFORMER "Goldsmith, Jerry" INDEX 00 03:09:36FILE "10. Forced flight.wav" WAVE INDEX 01 00:00:00 TRACK 11 AUDIO TITLE "The chieftain" PERFORMER "Goldsmith, Jerry" INDEX 00 05:26:26FILE "11. The chieftain.wav" WAVE INDEX 01 00:00:00 TRACK 12 AUDIO TITLE "Percussion sweetener" PERFORMER "Goldsmith, Jerry" INDEX 00 01:03:55FILE "12. Percussion sweetener.wav" WAVE INDEX 01 00:00:00 TRACK 13 AUDIO TITLE "Pot luck" PERFORMER "Goldsmith, Jerry" INDEX 00 00:42:47FILE "13. Pot luck.wav" WAVE INDEX 01 00:00:00 TRACK 14 AUDIO TITLE "Upside down people" PERFORMER "Goldsmith, Jerry" INDEX 00 03:25:59FILE "14. Upside down people.wav" WAVE INDEX 01 00:00:00 TRACK 15 AUDIO TITLE "The crocodiles" PERFORMER "Goldsmith, Jerry" INDEX 00 05:06:53FILE "15. The crocodiles.wav" WAVE INDEX 01 00:00:00 TRACK 16 AUDIO TITLE "The mines" PERFORMER "Goldsmith, Jerry" INDEX 00 03:10:04FILE "16. The mines.wav" WAVE INDEX 01 00:00:00 TRACK 17 AUDIO TITLE "Pre-ritual / The ritual, part I / The ritual, part II" PERFORMER "Goldsmith, Jerry" INDEX 00 01:27:19FILE "17. Pre-ritual - The ritual, part I - The ritual, part II.wav" WAVE INDEX 01 00:00:00 TRACK 18 AUDIO TITLE "Low bridge" PERFORMER "Goldsmith, Jerry" INDEX 00 06:16:37FILE "18. Low bridge.wav" WAVE INDEX 01 00:00:00 TRACK 19 AUDIO TITLE "Falling rocks" PERFORMER "Goldsmith, Jerry" INDEX 00 03:33:66FILE "19. Falling rocks.wav" WAVE INDEX 01 00:00:00 TRACK 20 AUDIO TITLE "Final confrontation" PERFORMER "Goldsmith, Jerry" INDEX 00 01:08:38FILE "20. Final confrontation.wav" WAVE INDEX 01 00:00:00 TRACK 21 AUDIO TITLE "No diamonds" PERFORMER "Goldsmith, Jerry" INDEX 00 03:18:47FILE "21. No diamonds.wav" WAVE INDEX 01 00:00:00 TRACK 22 AUDIO TITLE "Ride" PERFORMER "Goldsmith, Jerry" INDEX 00 04:21:31FILE "22. Ride.wav" WAVE INDEX 01 00:00:00 TRACK 23 AUDIO TITLE "Theme from King Salomon's mines" PERFORMER "Goldsmith, Jerry" INDEX 00 03:08:63FILE "23. Theme from King Salomon's mines.wav" WAVE INDEX 01 00:00:00

Лог проверки качества

-----------------------
DON'T MODIFY THIS FILE
-----------------------
PERFORMER: auCDtect Task Manager, ver. 1.6.0 RC1 build 1.6.0.1Copyright (c) 2008-2010 y-soft. All rights reservedhttp://y-soft.org
ANALYZER: auCDtect: CD records authenticity detector, version 0.8.2Copyright (c) 2004 Oleg Berngardt. All rights reserved.Copyright (c) 2004 Alexander Djourik. All rights reserved.
FILE: 23. Theme from King Salomon's mines.flac Size: 25091726 Hash: 8FA93BDE082E3EA02A188F48B3B9B96E Accuracy: -m0 Conclusion: CDDA 100% Signature: 463D0EFBD8D967F9C3BC203CC08895D9D6F57BE7FILE: 22. Ride.flac Size: 21096701 Hash: 299E7C97418D889F3633F04E9164E749 Accuracy: -m0 Conclusion: CDDA 100% Signature: 09C269EB3487A9D5D1603B4EF4B2C1C0D5B4E845FILE: 21. No diamonds.flac Size: 29899601 Hash: ADDF390A301C42B7C4831063812FF311 Accuracy: -m0 Conclusion: CDDA 100% Signature: 8A492928C4A07A3F97D5153063D5F0C5FA0F58F3FILE: 20. Final confrontation.flac Size: 21620675 Hash: A5255ADC85FD53D306F51D3D51E264A2 Accuracy: -m0 Conclusion: CDDA 100% Signature: E88375577BDAE9C92D840F9B9F4934BEC8B8D2C2FILE: 19. Falling rocks.flac Size: 7288625 Hash: BEB9A796D4DFDB33978560948E663BCE Accuracy: -m0 Conclusion: CDDA 99% Signature: DAC53C00C6729526FCA177FFF191B7FA63F808A9FILE: 18. Low bridge.flac Size: 22634572 Hash: 9A0A014C78BFD908DFE81000233243E8 Accuracy: -m0 Conclusion: CDDA 100% Signature: 3E1B7B660EBF4C363AC2B11FA6860A95115C91CBFILE: 17. Pre-ritual - The ritual, part I - The ritual, part II.flac Size: 37162535 Hash: D278C6D825C9F4A82C7EE95C192CFB7B Accuracy: -m0 Conclusion: CDDA 99% Signature: 192CAD11AF8027081A296A5BD8527B0CB85E08E2FILE: 16. The mines.flac Size: 9355786 Hash: 3D30BFD7470A977BCA9C7A9834C982DF Accuracy: -m0 Conclusion: CDDA 100% Signature: 9579D9E9B9E909ADC926A1BAD9DBF46FDADB810AFILE: 15. The crocodiles.flac Size: 20551854 Hash: 5BF321261DB4033AF72DC7393976DC7B Accuracy: -m0 Conclusion: CDDA 100% Signature: BF21C7DD1BBA296AA945DAEC8C510C7C15264169FILE: 14. Upside down people.flac Size: 28289585 Hash: 6FA26C7C07A84DDAE57B2ABCF05DE0FC Accuracy: -m0 Conclusion: CDDA 100% Signature: BBF1F2F7C81FB13C04EF6B5E5FF405BDB07D5C82FILE: 13. Pot luck.flac Size: 20090073 Hash: 1B46E425FC29AA2DD656D0CE48E5ED53 Accuracy: -m0 Conclusion: CDDA 100% Signature: 446DFE26DACFB4C5466820F11B2FD6FFD1DA36A7FILE: 12. Percussion sweetener.flac Size: 4350371 Hash: 0BC0CD3F44DA938F5E4A42DDAE534825 Accuracy: -m0 Conclusion: CDDA 100% Signature: 017965C7C72711B941DB471DA1A581C7387BD15DFILE: 11. The chieftain.flac Size: 7040847 Hash: F0CD90CDC033EBF804028082A5850FBD Accuracy: -m0 Conclusion: CDDA 100% Signature: 2580F2F298BE81B4CC1AF2CC3CE0DD46AEC51384FILE: 10. Forced flight.flac Size: 37876333 Hash: 5921C6D49874DC77BA22003A7B64FB22 Accuracy: -m0 Conclusion: CDDA 99% Signature: 924F37E19DDA5B74626C5DD467796B7424328FF2FILE: 09. Pain.flac Size: 19402524 Hash: DFCD30673DD4D9F06342CB04B6C8B2F0 Accuracy: -m0 Conclusion: CDDA 100% Signature: 2D0F104F534F371C01B8F329997A706F2950B193FILE: 08. Dancing shots.flac Size: 24276893 Hash: A0784E7D6E176A1C57151A9878F5F911 Accuracy: -m0 Conclusion: CDDA 100% Signature: D5847B574B40A57A1A3E0A33D6DCA63B0F097755FILE: 07. Under the train.flac Size: 20182569 Hash: CC0C601901D1CBEC0D23D183CAA964BE Accuracy: -m0 Conclusion: CDDA 100% Signature: 20BBB22CE7DAD886CE826F69A4A52CB53C1D1494FILE: 06. Good morning.flac Size: 14539734 Hash: 8E5B789175CA1F22125B32EF62B6671F Accuracy: -m0 Conclusion: CDDA 100% Signature: F588A5933A36FD061EBF61E2FE89FF9999B61B91FILE: 05. Have a cigar.flac Size: 23288967 Hash: E74CF8AA37E39D8BF33E8EA4F4EEBB2F Accuracy: -m0 Conclusion: CDDA 100% Signature: 84C3D19D5AFFC03E0633E224BFF22F957FDC1614FILE: 04. The mummy.flac Size: 6703649 Hash: 278FFE9F3BF10D82549E411AE8AD3E75 Accuracy: -m0 Conclusion: CDDA 99% Signature: B8E184EF8357577E862822D30C38F5105C55D5EAFILE: 03. No sale.flac Size: 24681018 Hash: FD36D180DA33827FD3D291EBE100212F Accuracy: -m0 Conclusion: CDDA 100% Signature: 2E2A81A1E3A0A5F2A3ADA40F3D10378AC61E403EFILE: 02. Welcoming committee.flac Size: 5452511 Hash: 6ECF9168D86531B6D65F789E6C99360A Accuracy: -m0 Conclusion: CDDA 100% Signature: 9BC4EF491BF1D5AE454AF24E4BD04DAFCC700A24FILE: 01. Main title.flac Size: 23172206 Hash: 9E38B34225A0F3CB4474A50CC4860F30 Accuracy: -m0 Conclusion: CDDA 100% Signature: F60D0AAE54D128ED80BF32D7A928E3FE895D7374

CD2 (00:39:48)

01 - King Solomon's Mines (Main Title)
02 - Upside Down People
03 - The Crocodiles
04 - Pot Luck
05 - Forced Flight
06 - Dancing Shots
07 - Good Morning
08 - No Pain
09 - The Ritual
10 - No Diamonds (End Title)

Лог создания рипа

Exact Audio Copy V1.0 beta 3 from 29. August 2011
EAC extraction logfile from 23. December 2014, 17:24
Goldsmith, Jerry / King Salomon's mines
Used drive : HL-DT-STBD-RE BH10LS38 Adapter: 2 ID: 0
Read mode : SecureUtilize accurate stream : YesDefeat audio cache : YesMake use of C2 pointers : No
Read offset correction : 667Overread into Lead-In and Lead-Out : NoFill up missing offset samples with silence : YesDelete leading and trailing silent blocks : NoNull samples used in CRC calculations : YesUsed interface : Native Win32 interface for Win NT & 2000Gap handling : Appended to previous track
Used output format : User Defined EncoderSelected bitrate : 1024 kBit/sQuality : HighAdd ID3 tag : NoCommand line compressor : C:\Program Files (x86)\Exact Audio Copy\FLAC\FLAC.EXEAdditional command line options : -6 -V -T "ARTIST=%artist%" -T "TITLE=%title%" -T "ALBUM=%albumtitle%" -T "DATE=%year%" -T "TRACKNUMBER=%tracknr%" -T "GENRE=%genre%" -T "COMMENT=%comment%" -T "BAND=%albuminterpret%" -T "ALBUMARTIST=%albuminterpret%" -T "COMPOSER=%composer%" %haslyrics%--tag-from-file=LYRICS="%lyricsfile%"%haslyrics% -T "DISCNUMBER=%cdnumber%" -T "TOTALDISCS=%totalcds%" -T "TOTALTRACKS=%numtracks%" %hascover%--picture="%coverfile%"%hascover% %source% -o %dest%
TOC of the extracted CD
Track | Start | Length | Start sector | End sector --------------------------------------------------------- 1 | 0:00.00 | 3:44.60 | 0 | 16859 2 | 3:44.60 | 4:54.72 | 16860 | 38981 3 | 8:39.57 | 3:12.32 | 38982 | 53413 4 | 11:52.14 | 3:28.18 | 53414 | 69031 5 | 15:20.32 | 5:27.25 | 69032 | 93581 6 | 20:47.57 | 3:42.45 | 93582 | 110276 7 | 24:30.27 | 2:37.72 | 110277 | 122123 8 | 27:08.24 | 3:11.43 | 122124 | 136491 9 | 30:19.67 | 5:08.13 | 136492 | 159604 10 | 35:28.05 | 4:20.41 | 159605 | 179145
Track 1
Filename W:\Work\# Audio\#\01. King Salomon's mines (main title).wav
Pre-gap length 0:00:02.00
Peak level 97.7 % Extraction speed 1.1 X Track quality 100.0 % Copy CRC 0E9C3202 Track not present in AccurateRip database Copy OK
Track 2
Filename W:\Work\# Audio\#\02. Upside down people.wav
Pre-gap length 0:00:02.00
Peak level 97.7 % Extraction speed 1.2 X Track quality 100.0 % Copy CRC A1FEE6BF Track not present in AccurateRip database Copy OK
Track 3
Filename W:\Work\# Audio\#\03. The crocodiles.wav
Pre-gap length 0:00:02.00
Peak level 97.7 % Extraction speed 1.3 X Track quality 100.0 % Copy CRC 006B6F4E Track not present in AccurateRip database Copy OK
Track 4
Filename W:\Work\# Audio\#\04. Pot luck.wav
Pre-gap length 0:00:02.00
Peak level 97.7 % Extraction speed 1.4 X Track quality 100.0 % Copy CRC 8F971D66 Track not present in AccurateRip database Copy OK
Track 5
Filename W:\Work\# Audio\#\05. Forced flight.wav
Pre-gap length 0:00:02.00
Peak level 97.7 % Extraction speed 1.4 X Track quality 99.9 % Copy CRC 79F50496 Track not present in AccurateRip database Copy OK
Track 6
Filename W:\Work\# Audio\#\06. Dancing shots.wav
Pre-gap length 0:00:02.00
Peak level 97.7 % Extraction speed 1.6 X Track quality 100.0 % Copy CRC F11301A5 Track not present in AccurateRip database Copy OK
Track 7
Filename W:\Work\# Audio\#\07. Good morning.wav
Pre-gap length 0:00:02.00
Peak level 96.4 % Extraction speed 1.6 X Track quality 100.0 % Copy CRC 4ADFB471 Track not present in AccurateRip database Copy OK
Track 8
Filename W:\Work\# Audio\#\08. No pain.wav
Pre-gap length 0:00:02.00
Peak level 97.7 % Extraction speed 1.4 X Track quality 99.9 % Copy CRC 80663460 Track not present in AccurateRip database Copy OK
Track 9
Filename W:\Work\# Audio\#\09. The ritual.wav
Pre-gap length 0:00:02.00
Peak level 97.7 % Extraction speed 1.9 X Track quality 100.0 % Copy CRC D142E139 Track not present in AccurateRip database Copy OK
Track 10
Filename W:\Work\# Audio\#\10. No diamonds (end title).wav
Pre-gap length 0:00:01.73
Peak level 97.7 % Extraction speed 1.9 X Track quality 100.0 % Copy CRC 23B754BB Track not present in AccurateRip database Copy OK
None of the tracks are present in the AccurateRip database
No errors occurred
End of status report
---- CUETools DB Plugin V2.1.3
[CTDB TOCID: 17lU_Hvn2AgJ5pqRBQkyh9_L1Ws-] disk not present in database, Submit result: 17lU_Hvn2AgJ5pqRBQkyh9_L1Ws- has been uploaded
==== Log checksum D135E46AEA8466EADB87CD41C10305E85B7F64704A94E07BC4BEF22E738D02FB ====

Содержание индексной карты (.CUE)

REM GENRE ScoreREM DATE 2014REM DISCID 6709540AREM COMMENT "ExactAudioCopy v1.0b3"PERFORMER "Goldsmith, Jerry"TITLE "King Salomon's mines"FILE "01. King Salomon's mines (main title).wav" WAVE TRACK 01 AUDIO TITLE "King Salomon's mines (main title)" PERFORMER "Goldsmith, Jerry" INDEX 01 00:00:00 TRACK 02 AUDIO TITLE "Upside down people" PERFORMER "Goldsmith, Jerry" INDEX 00 03:42:60FILE "02. Upside down people.wav" WAVE INDEX 01 00:00:00 TRACK 03 AUDIO TITLE "The crocodiles" PERFORMER "Goldsmith, Jerry" INDEX 00 04:52:72FILE "03. The crocodiles.wav" WAVE INDEX 01 00:00:00 TRACK 04 AUDIO TITLE "Pot luck" PERFORMER "Goldsmith, Jerry" INDEX 00 03:10:32FILE "04. Pot luck.wav" WAVE INDEX 01 00:00:00 TRACK 05 AUDIO TITLE "Forced flight" PERFORMER "Goldsmith, Jerry" INDEX 00 03:26:18FILE "05. Forced flight.wav" WAVE INDEX 01 00:00:00 TRACK 06 AUDIO TITLE "Dancing shots" PERFORMER "Goldsmith, Jerry" INDEX 00 05:25:25FILE "06. Dancing shots.wav" WAVE INDEX 01 00:00:00 TRACK 07 AUDIO TITLE "Good morning" PERFORMER "Goldsmith, Jerry" INDEX 00 03:40:45FILE "07. Good morning.wav" WAVE INDEX 01 00:00:00 TRACK 08 AUDIO TITLE "No pain" PERFORMER "Goldsmith, Jerry" INDEX 00 02:35:72FILE "08. No pain.wav" WAVE INDEX 01 00:00:00 TRACK 09 AUDIO TITLE "The ritual" PERFORMER "Goldsmith, Jerry" INDEX 00 03:09:43FILE "09. The ritual.wav" WAVE INDEX 01 00:00:00 TRACK 10 AUDIO TITLE "No diamonds (end title)" PERFORMER "Goldsmith, Jerry" INDEX 00 05:06:15FILE "10. No diamonds (end title).wav" WAVE INDEX 01 00:00:00

Лог проверки качества

-----------------------
DON'T MODIFY THIS FILE
-----------------------
PERFORMER: auCDtect Task Manager, ver. 1.6.0 RC1 build 1.6.0.1Copyright (c) 2008-2010 y-soft. All rights reservedhttp://y-soft.org
ANALYZER: auCDtect: CD records authenticity detector, version 0.8.2Copyright (c) 2004 Oleg Berngardt. All rights reserved.Copyright (c) 2004 Alexander Djourik. All rights reserved.
FILE: 10. No diamonds (end title).flac Size: 25036928 Hash: 52198FB5ABAF6CFE60521BDA96BFB364 Accuracy: -m0 Conclusion: CDDA 100% Signature: CF6A8B793618834ECD7EF5AEE94E1E711FB44BC1FILE: 09. The ritual.flac Size: 28349319 Hash: F58E1570D040F41797B8DE1F24D69CC4 Accuracy: -m0 Conclusion: CDDA 100% Signature: 184E8D3C9B45FCDC4DD288FE0CD043139282F341FILE: 08. No pain.flac Size: 15542819 Hash: 7F96BC23BA6A9559259A532B718E2FA5 Accuracy: -m0 Conclusion: CDDA 100% Signature: 88229C2AEDF0F93D651D013137881CF1E85B15C4FILE: 07. Good morning.flac Size: 11577308 Hash: 5079E444B52F879492C12D439A0906BD Accuracy: -m0 Conclusion: CDDA 100% Signature: F631CBC88333D08405ECA2F4C4040FAA9D1C30FCFILE: 06. Dancing shots.flac Size: 19627238 Hash: 0175C247959A3248A8E012A2CC1AD9AF Accuracy: -m0 Conclusion: CDDA 100% Signature: 371E2BCAC1FB8BEB3BFEF67B515A632B77CB413FFILE: 05. Forced flight.flac Size: 31804014 Hash: 73472654D9F14289D6C404DF657DEB09 Accuracy: -m0 Conclusion: CDDA 100% Signature: 9203A4B0EA22457F44C79207CD29FD08D85E4198FILE: 04. Pot luck.flac Size: 15404682 Hash: F06BAF1177ADEDA64D3475CA56E90C29 Accuracy: -m0 Conclusion: CDDA 100% Signature: 2E35EDB9F0D778C52074219A80F2CED3DBEA51F3FILE: 03. The crocodiles.flac Size: 17161224 Hash: 5C1B1C8C92D9AED6CAB2D5B369C418A4 Accuracy: -m0 Conclusion: CDDA 100% Signature: B262A13D15DFD26FC46D8A80A95F88F21DAD6754FILE: 02. Upside down people.flac Size: 21083240 Hash: B21F6D0525E089CE6FA467526C541554 Accuracy: -m0 Conclusion: CDDA 100% Signature: DDB7ED2CBACD33BCF622A5E3BC81B4F950EFB3AAFILE: 01. King Salomon's mines (main title).flac Size: 18462015 Hash: 0665915B1106D39A023B30BC8F82BA49 Accuracy: -m0 Conclusion: CDDA 100% Signature: 862A6716396BA8427FB0F3EA931ADE82B12644D4

Скриншот спектра частот

Дополнительная информация

CD1
Score: 90 (out of 100)
The following properties decreased the score:
This rip was not done using Test & Copy, -10 points [10]
Log entry is fine!-CD2
Score: 90 (out of 100)
The following properties decreased the score:
This rip was not done using Test & Copy, -10 points [10]
Log entry is fine!
[teatrix.ru].t10330.torrent 
Торрент: Зарегистрирован [ 2015-11-01 20:51 ] · 37505268C90E4E8AB6D5E767C8DF8294A794051D

Скачать .torrent

Скачать

17 KB

Статус: проверено
Скачан: 0 раз
Размер: 641 MB
terms.php



Быстрый ответ

Имя:

      
Для отправки сообщений необходимо включить JavaScript
Показать сообщения:    

Текущее время: 09-Дек 16:35

Часовой пояс: UTC + 3


Вы можете начинать темы
Вы можете отвечать на сообщения
Вы не можете редактировать свои сообщения
Вы не можете удалять свои сообщения
Вы не можете голосовать в опросах
Вы не можете прикреплять файлы к сообщениям
Вы можете скачивать файлы