(Score) Геркулес / Hercules (by Pino Donaggio) - 2007 (1983), WavPack (image+.cue), lossless


Статистика раздачи [Обновить пиров]
Размер:  411 MB   |    Зарегистрирован:  1 год 1 месяц   |    Скачан:  0 раз

Полного источника не было: Никогда

 
   
 
 
 

[Цитировать]

Геркулес / Hercules
Жанр: Score
Композитор: Pino Donaggio
Год выпуска диска: 2007
Год выпуска фильма: 1983
Страна-производитель диска: США
Издатель (лейбл): Intrada
Номер по каталогу: Signature Editions ISE1013
Аудиокодек: WavPack (*.wv)
Тип рипа: image+.cue
Битрейт аудио: lossless
Продолжительность: 01:12:22
Источник: hqshare.net
Наличие сканов в содержимом раздачи: да
Доп. информация: Саундтрек Пино Донаджо к фильму Луиджи Коцци.

Треклист

01 Opening Titles (1:47)
02 Creation (4:16)
03 Thief In Thebes (3:26)
04 Kill The Baby (3:27)
05 Baby's Ship # 1 (2:24)
06 Hand Of God (2:04)
07 Evil Minos (2:49)
08 Bad Bear (1:31)
09 Bird Monster Attack (1:15)
10 Arena (1:32)
11 Love Theme (1:25)
12 Hercules ''River'' Theme (3:11)
13 Hercules Breaks Chains (4:14)
14 Ariana's Boat (1:20)
15 Old Circe (0:51)
16 Isla Of Thera (0:26)
17 Hell's Theme (3:00)
18 Hand Of Destiny (4:44)
19 Near Inferno (0:30)
20 The Inferno (2:48)
21 Approach Temple (2:27)
22 The Temple (1:21)
23 Baby's Ship # 2 (1:34)
24 Centaur (2:08)
25 Thera's Labyrinth (2:55)
26 Prison Captives (Film Version) (2:38)
27 Prison Captives (LP Version) (3:10)
28 Casseopia's Descent (1:59)
29 True Love & Closing Titles (3:21)
30 Theme From Hercules (3:49)

-

Лог создания рипа

Exact Audio Copy V0.99 prebeta 1 from 25. May 2007
EAC extraction logfile from 27. October 2007, 19:29
Pino Donaggio / Hercules
Used drive : PLEXTOR DVDR PX-760A Adapter: 1 ID: 0
Read mode : SecureUtilize accurate stream : YesDefeat audio cache : YesMake use of C2 pointers : No
Read offset correction : 30Overread into Lead-In and Lead-Out : YesFill up missing offset samples with silence : YesDelete leading and trailing silent blocks : NoUsed interface : Installed external ASPI interface
Used output format : Internal WAV RoutinesSample format : 44.100 Hz; 16 Bit; Stereo
TOC of the extracted CD
Track | Start | Length | Start sector | End sector --------------------------------------------------------- 1 | 0:00.00 | 1:47.24 | 0 | 8048 2 | 1:47.24 | 4:16.29 | 8049 | 27277 3 | 6:03.53 | 3:25.58 | 27278 | 42710 4 | 9:29.36 | 3:26.68 | 42711 | 58228 5 | 12:56.29 | 2:24.22 | 58229 | 69050 6 | 15:20.51 | 2:04.23 | 69051 | 78373 7 | 17:24.74 | 2:49.32 | 78374 | 91080 8 | 20:14.31 | 1:31.00 | 91081 | 97905 9 | 21:45.31 | 1:14.39 | 97906 | 103494 10 | 22:59.70 | 1:31.74 | 103495 | 110393 11 | 24:31.69 | 1:24.70 | 110394 | 116763 12 | 25:56.64 | 3:10.42 | 116764 | 131055 13 | 29:07.31 | 4:13.63 | 131056 | 150093 14 | 33:21.19 | 1:20.19 | 150094 | 156112 15 | 34:41.38 | 0:50.41 | 156113 | 159903 16 | 35:32.04 | 0:26.09 | 159904 | 161862 17 | 35:58.13 | 2:59.68 | 161863 | 175355 18 | 38:58.06 | 4:43.59 | 175356 | 196639 19 | 43:41.65 | 0:30.32 | 196640 | 198921 20 | 44:12.22 | 2:48.37 | 198922 | 211558 21 | 47:00.59 | 2:26.56 | 211559 | 222564 22 | 49:27.40 | 1:20.66 | 222565 | 228630 23 | 50:48.31 | 1:34.35 | 228631 | 235715 24 | 52:22.66 | 2:07.39 | 235716 | 245279 25 | 54:30.30 | 2:54.49 | 245280 | 258378 26 | 57:25.04 | 2:37.72 | 258379 | 270225 27 | 60:03.01 | 3:09.39 | 270226 | 284439 28 | 63:12.40 | 1:59.13 | 284440 | 293377 29 | 65:11.53 | 3:20.67 | 293378 | 308444 30 | 68:32.45 | 3:49.14 | 308445 | 325633
Range status and errors
Selected range
Filename E:\EAC\Pino Donaggio - Hercules.wav
Peak level 100.0 % Range quality 100.0 % Copy CRC 1CCF26CF Copy OK
No errors occurred
End of status report

Содержание индексной карты (.CUE)

REM GENRE SoundtrackREM DATE 1983REM DISCID 9610F51EREM COMMENT "ExactAudioCopy v0.99pb1"PERFORMER "Pino Donaggio"TITLE "Hercules"FILE "Pino Donaggio - Hercules.wv" WAVE TRACK 01 AUDIO TITLE "Opening Titles" PERFORMER "Pino Donaggio" INDEX 01 00:00:00 TRACK 02 AUDIO TITLE "Creation" PERFORMER "Pino Donaggio" INDEX 01 01:47:24 TRACK 03 AUDIO TITLE "Thief In Thebes" PERFORMER "Pino Donaggio" INDEX 01 06:03:53 TRACK 04 AUDIO TITLE "Kill The Baby" PERFORMER "Pino Donaggio" INDEX 01 09:29:36 TRACK 05 AUDIO TITLE "Baby's Ship # 1" PERFORMER "Pino Donaggio" INDEX 01 12:56:29 TRACK 06 AUDIO TITLE "Hand Of God" PERFORMER "Pino Donaggio" INDEX 01 15:20:51 TRACK 07 AUDIO TITLE "Evil Minos" PERFORMER "Pino Donaggio" INDEX 01 17:24:74 TRACK 08 AUDIO TITLE "Bad Bear" PERFORMER "Pino Donaggio" INDEX 01 20:14:31 TRACK 09 AUDIO TITLE "Bird Monster Attack" PERFORMER "Pino Donaggio" INDEX 01 21:45:31 TRACK 10 AUDIO TITLE "Arena" PERFORMER "Pino Donaggio" INDEX 01 22:59:70 TRACK 11 AUDIO TITLE "Love Theme" PERFORMER "Pino Donaggio" INDEX 01 24:31:69 TRACK 12 AUDIO TITLE "Hercules ''River'' Theme" PERFORMER "Pino Donaggio" INDEX 01 25:56:64 TRACK 13 AUDIO TITLE "Hercules Breaks Chains" PERFORMER "Pino Donaggio" INDEX 01 29:07:31 TRACK 14 AUDIO TITLE "Ariana's Boat" PERFORMER "Pino Donaggio" INDEX 01 33:21:19 TRACK 15 AUDIO TITLE "Old Circe" PERFORMER "Pino Donaggio" INDEX 01 34:41:38 TRACK 16 AUDIO TITLE "Isla Of Thera" PERFORMER "Pino Donaggio" INDEX 01 35:32:04 TRACK 17 AUDIO TITLE "Hell's Theme" PERFORMER "Pino Donaggio" INDEX 01 35:58:13 TRACK 18 AUDIO TITLE "Hand Of Destiny" PERFORMER "Pino Donaggio" INDEX 01 38:58:06 TRACK 19 AUDIO TITLE "Near Inferno" PERFORMER "Pino Donaggio" INDEX 01 43:41:65 TRACK 20 AUDIO TITLE "The Inferno" PERFORMER "Pino Donaggio" INDEX 01 44:12:22 TRACK 21 AUDIO TITLE "Approach Temple" PERFORMER "Pino Donaggio" INDEX 01 47:00:59 TRACK 22 AUDIO TITLE "The Temple" PERFORMER "Pino Donaggio" INDEX 01 49:27:40 TRACK 23 AUDIO TITLE "Baby's Ship # 2" PERFORMER "Pino Donaggio" INDEX 01 50:48:31 TRACK 24 AUDIO TITLE "Centaur" PERFORMER "Pino Donaggio" INDEX 01 52:22:66 TRACK 25 AUDIO TITLE "Thera's Labyrinth" PERFORMER "Pino Donaggio" INDEX 01 54:30:30 TRACK 26 AUDIO TITLE "Prison Captives (Film Version)" PERFORMER "Pino Donaggio" INDEX 01 57:25:04 TRACK 27 AUDIO TITLE "Prison Captives (LP Version)" PERFORMER "Pino Donaggio" FLAGS DCP INDEX 01 60:03:01 TRACK 28 AUDIO TITLE "Casseopia's Descent" PERFORMER "Pino Donaggio" INDEX 01 63:12:40 TRACK 29 AUDIO TITLE "True Love & Closing Titles" PERFORMER "Pino Donaggio" FLAGS DCP INDEX 01 65:11:53 TRACK 30 AUDIO TITLE "Theme From Hercules" PERFORMER "Pino Donaggio" INDEX 01 68:32:45

Скриншот спектра частот

- -
[teatrix.ru].t10331.torrent 
Торрент: Зарегистрирован [ 2015-11-01 20:51 ] · 314BC8F76CC9192A0F45595C152DDCC626257278

Скачать .torrent

Скачать

17 KB

Статус: проверено
Скачан: 0 раз
Размер: 411 MB
terms.php



Быстрый ответ

Имя:

      
Для отправки сообщений необходимо включить JavaScript
Показать сообщения:    

Текущее время: 08-Дек 14:57

Часовой пояс: UTC + 3


Вы можете начинать темы
Вы можете отвечать на сообщения
Вы не можете редактировать свои сообщения
Вы не можете удалять свои сообщения
Вы не можете голосовать в опросах
Вы не можете прикреплять файлы к сообщениям
Вы можете скачивать файлы