(Score) Мотель Бэйтсов / Bates Motel (by Chris Bacon) - 2014, FLAC (tracks+.cue), lossless


Статистика раздачи [Обновить пиров]
Размер:  307 MB   |    Зарегистрирован:  1 год 1 месяц   |    Скачан:  0 раз

Полного источника не было: Никогда

 
   
 
 
 

[Цитировать]

Мотель Бэйтсов / Bates Motel
Жанр: Score
Композитор: Chris Bacon
Год выпуска диска: 2014
Издатель (лейбл): Varese Sarabande
Номер по каталогу: VSD-7267
Аудиокодек: FLAC (*.flac)
Тип рипа: tracks+.cue
Битрейт аудио: lossless
Продолжительность: 1:05:05
Источник: what.cd
Наличие сканов в содержимом раздачи: да

Треклист01. A Fresh Start (2:03)
02. New Home (1:17)
03. Keith Summers, Sore Loser (1:18)
04. No One Has Ever Helped Us (1:32)
05. Norman Sneaks Out (1:51)
06. The Rape (2:42)
07. Flipping Pages (1:23)
08. Norma And Norman (1:36)
09. Emma’s Meditation (1:05)
10. Previously On Bates Motel 1 (1:01)
11. Dylan’s New Job (1:35)
12. Dylan’s Gotta Gun (0:44)
13. Norman Leaves The Hospital (1:40)
14. Shelby And Norma (2:19)
15. Brothers (1:29)
16. I’m Here For You (1:19)
17. Norman Discovers Jiao (2:34)
18. Previously On Bates Motel 2 (0:44)
19. Dumpster Drive (1:36)
20. Bradley And Norman (2:44)
21. Motorcycle Ride (1:13)
22. Shelby’s Back (1:09)
23. Getting Jiao To The Motel (1:53)
24. What Really Happened (4:01)
25. Awkward Hugs (1:11)
26. Abernathy Checks In (2:09)
27. Norma Doesn’t Approve (2:48)
28. Bradley Rejects Norman (1:47)
29. Abernathy Makes Reservations (2:14)
30. The End Of A Horrible Day (1:34)
31. Bradley Needs Dylan’s Help (1:38)
32. Norman Doesn’t Have A Note (2:20)
33. Emma Likes Cupcakes (0:50)
34. Norma’s Story (2:43)
35. Three’s A Crowd (2:25)
36. Everything’s Going To Be Okay (2:40)

Лог создания рипа

Exact Audio Copy V1.0 beta 3 from 29. August 2011
EAC extraction logfile from 13. August 2014, 16:12
Chris Bacon / Bates Motel
Used drive : HL-DT-STBD-RE BH10LS38 Adapter: 2 ID: 0
Read mode : SecureUtilize accurate stream : YesDefeat audio cache : YesMake use of C2 pointers : No
Read offset correction : 667Overread into Lead-In and Lead-Out : NoFill up missing offset samples with silence : YesDelete leading and trailing silent blocks : NoNull samples used in CRC calculations : YesUsed interface : Native Win32 interface for Win NT & 2000Gap handling : Appended to previous track
Used output format : User Defined EncoderSelected bitrate : 768 kBit/sQuality : HighAdd ID3 tag : NoCommand line compressor : C:\Program Files (x86)\Exact Audio Copy\FLAC\FLAC.EXEAdditional command line options : -8 -V -T "ARTIST=%artist%" -T "TITLE=%title%" -T "ALBUM=%albumtitle%" -T "DATE=%year%" -T "TRACKNUMBER=%tracknr%" -T "GENRE=%genre%" -T "PERFORMER=%albuminterpret%" -T "COMPOSER=%composer%" %haslyrics%--tag-from-file=LYRICS="%lyricsfile%"%haslyrics% -T "ALBUMARTIST=%albumartist%" -T "ALBUM ARTIST=%albumartist%" -T "DISCNUMBER=%cdnumber%" -T "TOTALDISCS=%totalcds%" -T "TOTALTRACKS=%numtracks%" -T "COMMENT=%comment%" %source% -o %dest%
TOC of the extracted CD
Track | Start | Length | Start sector | End sector --------------------------------------------------------- 1 | 0:00.00 | 2:03.03 | 0 | 9227 2 | 2:03.03 | 1:16.60 | 9228 | 14987 3 | 3:19.63 | 1:18.36 | 14988 | 20873 4 | 4:38.24 | 1:31.64 | 20874 | 27762 5 | 6:10.13 | 1:50.69 | 27763 | 36081 6 | 8:01.07 | 2:42.28 | 36082 | 48259 7 | 10:43.35 | 1:22.60 | 48260 | 54469 8 | 12:06.20 | 1:35.44 | 54470 | 61638 9 | 13:41.64 | 1:04.67 | 61639 | 66505 10 | 14:46.56 | 1:01.07 | 66506 | 71087 11 | 15:47.63 | 1:34.40 | 71088 | 78177 12 | 17:22.28 | 0:44.12 | 78178 | 81489 13 | 18:06.40 | 1:39.73 | 81490 | 88987 14 | 19:46.38 | 2:18.62 | 88988 | 99399 15 | 22:05.25 | 1:28.70 | 99400 | 106069 16 | 23:34.20 | 1:18.67 | 106070 | 111986 17 | 24:53.12 | 2:34.06 | 111987 | 123542 18 | 27:27.18 | 0:43.57 | 123543 | 126824 19 | 28:11.00 | 1:36.36 | 126825 | 134060 20 | 29:47.36 | 2:44.11 | 134061 | 146371 21 | 32:31.47 | 1:12.61 | 146372 | 151832 22 | 33:44.33 | 1:08.44 | 151833 | 156976 23 | 34:53.02 | 1:53.06 | 156977 | 165457 24 | 36:46.08 | 4:00.45 | 165458 | 183502 25 | 40:46.53 | 1:11.03 | 183503 | 188830 26 | 41:57.56 | 2:09.25 | 188831 | 198530 27 | 44:07.06 | 2:48.15 | 198531 | 211145 28 | 46:55.21 | 1:46.49 | 211146 | 219144 29 | 48:41.70 | 2:14.33 | 219145 | 229227 30 | 50:56.28 | 1:33.49 | 229228 | 236251 31 | 52:30.02 | 1:37.40 | 236252 | 243566 32 | 54:07.42 | 2:19.71 | 243567 | 254062 33 | 56:27.38 | 0:50.06 | 254063 | 257818 34 | 57:17.44 | 2:42.38 | 257819 | 270006 35 | 60:00.07 | 2:25.17 | 270007 | 280898 36 | 62:25.24 | 2:39.63 | 280899 | 292886
Track 1
Filename C:\Rips\01 - A Fresh Start.wav
Pre-gap length 0:00:02.00
Peak level 63.3 % Extraction speed 1.0 X Track quality 100.0 % Test CRC 5E415E15 Copy CRC 5E415E15 Track not present in AccurateRip database Copy OK
Track 2
Filename C:\Rips\02 - New Home.wav
Peak level 55.5 % Extraction speed 0.9 X Track quality 100.0 % Test CRC D2574FFE Copy CRC D2574FFE Track not present in AccurateRip database Copy OK
Track 3
Filename C:\Rips\03 - Keith Summers, Sore Loser.wav
Peak level 44.6 % Extraction speed 1.0 X Track quality 100.0 % Test CRC B99AD566 Copy CRC B99AD566 Track not present in AccurateRip database Copy OK
Track 4
Filename C:\Rips\04 - No One Has Ever Helped Us.wav
Peak level 51.3 % Extraction speed 1.1 X Track quality 100.0 % Test CRC 7046DCB2 Copy CRC 7046DCB2 Track not present in AccurateRip database Copy OK
Track 5
Filename C:\Rips\05 - Norman Sneaks Out.wav
Peak level 55.9 % Extraction speed 1.2 X Track quality 100.0 % Test CRC 34924E3A Copy CRC 34924E3A Track not present in AccurateRip database Copy OK
Track 6
Filename C:\Rips\06 - The Rape.wav
Peak level 94.5 % Extraction speed 1.3 X Track quality 100.0 % Test CRC 6FEBEFBE Copy CRC 6FEBEFBE Track not present in AccurateRip database Copy OK
Track 7
Filename C:\Rips\07 - Flipping Pages.wav
Peak level 84.4 % Extraction speed 1.2 X Track quality 100.0 % Test CRC 5D569C1C Copy CRC 5D569C1C Track not present in AccurateRip database Copy OK
Track 8
Filename C:\Rips\08 - Norma And Norman.wav
Peak level 41.1 % Extraction speed 1.0 X Track quality 99.8 % Test CRC 9C114CB8 Copy CRC 9C114CB8 Track not present in AccurateRip database Copy OK
Track 9
Filename C:\Rips\09 - Emma’s Meditation.wav
Peak level 44.0 % Extraction speed 1.1 X Track quality 100.0 % Test CRC 6F2C033D Copy CRC 6F2C033D Track not present in AccurateRip database Copy OK
Track 10
Filename C:\Rips\10 - Previously On Bates Motel 1.wav
Peak level 94.3 % Extraction speed 0.8 X Track quality 99.8 % Test CRC A4F66E99 Copy CRC A4F66E99 Track not present in AccurateRip database Copy OK
Track 11
Filename C:\Rips\11 - Dylan’s New Job.wav
Peak level 94.3 % Extraction speed 1.3 X Track quality 100.0 % Test CRC 840C1F7E Copy CRC 840C1F7E Track not present in AccurateRip database Copy OK
Track 12
Filename C:\Rips\12 - Dylan’s Gotta Gun.wav
Peak level 63.0 % Extraction speed 0.7 X Track quality 99.7 % Test CRC 953E2ECE Copy CRC 953E2ECE Track not present in AccurateRip database Copy OK
Track 13
Filename C:\Rips\13 - Norman Leaves The Hospital.wav
Peak level 94.3 % Extraction speed 1.4 X Track quality 100.0 % Test CRC 273C6A33 Copy CRC 273C6A33 Track not present in AccurateRip database Copy OK
Track 14
Filename C:\Rips\14 - Shelby And Norma.wav
Peak level 57.6 % Extraction speed 1.6 X Track quality 100.0 % Test CRC 767F0A19 Copy CRC 767F0A19 Track not present in AccurateRip database Copy OK
Track 15
Filename C:\Rips\15 - Brothers.wav
Peak level 38.7 % Extraction speed 1.1 X Track quality 99.8 % Test CRC B9C4B854 Copy CRC B9C4B854 Track not present in AccurateRip database Copy OK
Track 16
Filename C:\Rips\16 - I’m Here For You.wav
Peak level 52.8 % Extraction speed 1.4 X Track quality 100.0 % Test CRC C12700EB Copy CRC C12700EB Track not present in AccurateRip database Copy OK
Track 17
Filename C:\Rips\17 - Norman Discovers Jiao.wav
Peak level 96.5 % Extraction speed 1.7 X Track quality 100.0 % Test CRC 46E3A4DB Copy CRC 46E3A4DB Track not present in AccurateRip database Copy OK
Track 18
Filename C:\Rips\18 - Previously On Bates Motel 2.wav
Peak level 94.3 % Extraction speed 1.1 X Track quality 100.0 % Test CRC 83DFB1A5 Copy CRC 83DFB1A5 Track not present in AccurateRip database Copy OK
Track 19
Filename C:\Rips\19 - Dumpster Drive.wav
Peak level 98.1 % Extraction speed 1.5 X Track quality 100.0 % Test CRC 9042297F Copy CRC 9042297F Track not present in AccurateRip database Copy OK
Track 20
Filename C:\Rips\20 - Bradley And Norman.wav
Peak level 94.3 % Extraction speed 1.8 X Track quality 100.0 % Test CRC 37A95F6D Copy CRC 37A95F6D Track not present in AccurateRip database Copy OK
Track 21
Filename C:\Rips\21 - Motorcycle Ride.wav
Peak level 94.3 % Extraction speed 1.5 X Track quality 100.0 % Test CRC D50FC964 Copy CRC D50FC964 Track not present in AccurateRip database Copy OK
Track 22
Filename C:\Rips\22 - Shelby’s Back.wav
Peak level 94.3 % Extraction speed 1.5 X Track quality 100.0 % Test CRC 9A07EF52 Copy CRC 9A07EF52 Track not present in AccurateRip database Copy OK
Track 23
Filename C:\Rips\23 - Getting Jiao To The Motel.wav
Peak level 82.9 % Extraction speed 1.7 X Track quality 100.0 % Test CRC 519A89EF Copy CRC 519A89EF Track not present in AccurateRip database Copy OK
Track 24
Filename C:\Rips\24 - What Really Happened.wav
Peak level 98.8 % Extraction speed 2.0 X Track quality 100.0 % Test CRC A5CA3F85 Copy CRC A5CA3F85 Track not present in AccurateRip database Copy OK
Track 25
Filename C:\Rips\25 - Awkward Hugs.wav
Peak level 51.4 % Extraction speed 1.2 X Track quality 99.8 % Test CRC 18AB3E06 Copy CRC 18AB3E06 Track not present in AccurateRip database Copy OK
Track 26
Filename C:\Rips\26 - Abernathy Checks In.wav
Peak level 48.6 % Extraction speed 1.9 X Track quality 100.0 % Test CRC 68952A67 Copy CRC 68952A67 Track not present in AccurateRip database Copy OK
Track 27
Filename C:\Rips\27 - Norma Doesn’t Approve.wav
Peak level 63.5 % Extraction speed 2.0 X Track quality 100.0 % Test CRC A057AE11 Copy CRC A057AE11 Track not present in AccurateRip database Copy OK
Track 28
Filename C:\Rips\28 - Bradley Rejects Norman.wav
Peak level 83.2 % Extraction speed 1.9 X Track quality 100.0 % Test CRC 997B54C8 Copy CRC 997B54C8 Track not present in AccurateRip database Copy OK
Track 29
Filename C:\Rips\29 - Abernathy Makes Reservations.wav
Peak level 44.9 % Extraction speed 1.7 X Track quality 99.9 % Test CRC 74951D90 Copy CRC 74951D90 Track not present in AccurateRip database Copy OK
Track 30
Filename C:\Rips\30 - The End Of A Horrible Day.wav
Peak level 83.2 % Extraction speed 1.8 X Track quality 100.0 % Test CRC 81A21CD5 Copy CRC 81A21CD5 Track not present in AccurateRip database Copy OK
Track 31
Filename C:\Rips\31 - Bradley Needs Dylan’s Help.wav
Peak level 49.4 % Extraction speed 1.9 X Track quality 100.0 % Test CRC BE287CFE Copy CRC BE287CFE Track not present in AccurateRip database Copy OK
Track 32
Filename C:\Rips\32 - Norman Doesn’t Have A Note.wav
Peak level 66.9 % Extraction speed 2.1 X Track quality 100.0 % Test CRC C944F1A1 Copy CRC C944F1A1 Track not present in AccurateRip database Copy OK
Track 33
Filename C:\Rips\33 - Emma Likes Cupcakes.wav
Peak level 43.7 % Extraction speed 1.5 X Track quality 100.0 % Test CRC 8B0A5564 Copy CRC 8B0A5564 Track not present in AccurateRip database Copy OK
Track 34
Filename C:\Rips\34 - Norma’s Story.wav
Peak level 73.7 % Extraction speed 2.2 X Track quality 100.0 % Test CRC 20D6E613 Copy CRC 20D6E613 Track not present in AccurateRip database Copy OK
Track 35
Filename C:\Rips\35 - Three’s A Crowd.wav
Peak level 94.3 % Extraction speed 2.2 X Track quality 100.0 % Test CRC 04F9E4F5 Copy CRC 04F9E4F5 Track not present in AccurateRip database Copy OK
Track 36
Filename C:\Rips\36 - Everything’s Going To Be Okay.wav
Peak level 94.5 % Extraction speed 2.3 X Track quality 100.0 % Test CRC 69752011 Copy CRC 69752011 Track not present in AccurateRip database Copy OK
None of the tracks are present in the AccurateRip database
No errors occurred
End of status report
==== Log checksum DD814E2260E71E85757F5B2FCBCBE1F3F01CFC1DB312E2684765602F27ED2F0B ====

Содержание индексной карты (.CUE)

REM GENRE SoundtrackREM DATE 2014REM DISCID 300F4124REM COMMENT "ExactAudioCopy v1.0b3"FILE "01 - A Fresh Start.wav" WAVE TRACK 01 AUDIO INDEX 01 00:00:00FILE "02 - New Home.wav" WAVE TRACK 02 AUDIO INDEX 01 00:00:00FILE "03 - Keith Summers, Sore Loser.wav" WAVE TRACK 03 AUDIO INDEX 01 00:00:00FILE "04 - No One Has Ever Helped Us.wav" WAVE TRACK 04 AUDIO INDEX 01 00:00:00FILE "05 - Norman Sneaks Out.wav" WAVE TRACK 05 AUDIO INDEX 01 00:00:00FILE "06 - The Rape.wav" WAVE TRACK 06 AUDIO INDEX 01 00:00:00FILE "07 - Flipping Pages.wav" WAVE TRACK 07 AUDIO INDEX 01 00:00:00FILE "08 - Norma And Norman.wav" WAVE TRACK 08 AUDIO INDEX 01 00:00:00FILE "09 - Emma’s Meditation.wav" WAVE TRACK 09 AUDIO INDEX 01 00:00:00FILE "10 - Previously On Bates Motel 1.wav" WAVE TRACK 10 AUDIO INDEX 01 00:00:00FILE "11 - Dylan’s New Job.wav" WAVE TRACK 11 AUDIO INDEX 01 00:00:00FILE "12 - Dylan’s Gotta Gun.wav" WAVE TRACK 12 AUDIO INDEX 01 00:00:00FILE "13 - Norman Leaves The Hospital.wav" WAVE TRACK 13 AUDIO INDEX 01 00:00:00FILE "14 - Shelby And Norma.wav" WAVE TRACK 14 AUDIO INDEX 01 00:00:00FILE "15 - Brothers.wav" WAVE TRACK 15 AUDIO INDEX 01 00:00:00FILE "16 - I’m Here For You.wav" WAVE TRACK 16 AUDIO INDEX 01 00:00:00FILE "17 - Norman Discovers Jiao.wav" WAVE TRACK 17 AUDIO INDEX 01 00:00:00FILE "18 - Previously On Bates Motel 2.wav" WAVE TRACK 18 AUDIO INDEX 01 00:00:00FILE "19 - Dumpster Drive.wav" WAVE TRACK 19 AUDIO INDEX 01 00:00:00FILE "20 - Bradley And Norman.wav" WAVE TRACK 20 AUDIO INDEX 01 00:00:00FILE "21 - Motorcycle Ride.wav" WAVE TRACK 21 AUDIO INDEX 01 00:00:00FILE "22 - Shelby’s Back.wav" WAVE TRACK 22 AUDIO INDEX 01 00:00:00FILE "23 - Getting Jiao To The Motel.wav" WAVE TRACK 23 AUDIO INDEX 01 00:00:00FILE "24 - What Really Happened.wav" WAVE TRACK 24 AUDIO INDEX 01 00:00:00FILE "25 - Awkward Hugs.wav" WAVE TRACK 25 AUDIO INDEX 01 00:00:00FILE "26 - Abernathy Checks In.wav" WAVE TRACK 26 AUDIO INDEX 01 00:00:00FILE "27 - Norma Doesn’t Approve.wav" WAVE TRACK 27 AUDIO INDEX 01 00:00:00FILE "28 - Bradley Rejects Norman.wav" WAVE TRACK 28 AUDIO INDEX 01 00:00:00FILE "29 - Abernathy Makes Reservations.wav" WAVE TRACK 29 AUDIO INDEX 01 00:00:00FILE "30 - The End Of A Horrible Day.wav" WAVE TRACK 30 AUDIO INDEX 01 00:00:00FILE "31 - Bradley Needs Dylan’s Help.wav" WAVE TRACK 31 AUDIO INDEX 01 00:00:00FILE "32 - Norman Doesn’t Have A Note.wav" WAVE TRACK 32 AUDIO INDEX 01 00:00:00FILE "33 - Emma Likes Cupcakes.wav" WAVE TRACK 33 AUDIO INDEX 01 00:00:00FILE "34 - Norma’s Story.wav" WAVE TRACK 34 AUDIO INDEX 01 00:00:00FILE "35 - Three’s A Crowd.wav" WAVE TRACK 35 AUDIO INDEX 01 00:00:00FILE "36 - Everything’s Going To Be Okay.wav" WAVE TRACK 36 AUDIO INDEX 01 00:00:00

Лог проверки качества

AUDIOCHECKER v2.0 beta (build 457) - by Dester - opdester@freemail.hu~~~~~~~~~~~~~~~~~~~~~~~~~~~~~~~~~~-=== НЕ РЕДАКТИРУЙТЕ ЭТОТ ФАЙЛ! ===-
Путь: ...\Chris Bacon - Bates Motel (2014)
01 -=- 01 - A Fresh Start.flac -=- CDDA (100%)02 -=- 02 - New Home.flac -=- CDDA (100%)03 -=- 03 - Keith Summers, Sore Loser.flac -=- CDDA (100%)04 -=- 04 - No One Has Ever Helped Us.flac -=- CDDA (100%)05 -=- 05 - Norman Sneaks Out.flac -=- CDDA (99%)06 -=- 06 - The Rape.flac -=- CDDA (99%)07 -=- 07 - Flipping Pages.flac -=- CDDA (100%)08 -=- 08 - Norma And Norman.flac -=- CDDA (100%)09 -=- 09 - Emma’s Meditation.flac -=- CDDA (100%)10 -=- 10 - Previously On Bates Motel 1.flac -=- CDDA (99%)11 -=- 11 - Dylan’s New Job.flac -=- CDDA (100%)12 -=- 12 - Dylan’s Gotta Gun.flac -=- CDDA (100%)13 -=- 13 - Norman Leaves The Hospital.flac -=- CDDA (100%)14 -=- 14 - Shelby And Norma.flac -=- CDDA (99%)15 -=- 15 - Brothers.flac -=- CDDA (100%)16 -=- 16 - I’m Here For You.flac -=- CDDA (99%)17 -=- 17 - Norman Discovers Jiao.flac -=- CDDA (100%)18 -=- 18 - Previously On Bates Motel 2.flac -=- CDDA (99%)19 -=- 19 - Dumpster Drive.flac -=- CDDA (100%)20 -=- 20 - Bradley And Norman.flac -=- CDDA (100%)21 -=- 21 - Motorcycle Ride.flac -=- CDDA (100%)22 -=- 22 - Shelby’s Back.flac -=- CDDA (100%)23 -=- 23 - Getting Jiao To The Motel.flac -=- CDDA (100%)24 -=- 24 - What Really Happened.flac -=- CDDA (100%)25 -=- 25 - Awkward Hugs.flac -=- CDDA (100%)26 -=- 26 - Abernathy Checks In.flac -=- CDDA (100%)27 -=- 27 - Norma Doesn’t Approve.flac -=- CDDA (99%)28 -=- 28 - Bradley Rejects Norman.flac -=- CDDA (100%)29 -=- 29 - Abernathy Makes Reservations.flac -=- CDDA (100%)30 -=- 30 - The End Of A Horrible Day.flac -=- CDDA (100%)31 -=- 31 - Bradley Needs Dylan’s Help.flac -=- CDDA (100%)32 -=- 32 - Norman Doesn’t Have A Note.flac -=- CDDA (100%)33 -=- 33 - Emma Likes Cupcakes.flac -=- CDDA (100%)34 -=- 34 - Norma’s Story.flac -=- CDDA (99%)35 -=- 35 - Three’s A Crowd.flac -=- CDDA (100%)36 -=- 36 - Everything’s Going To Be Okay.flac -=- CDDA (99%)
Сводка 99,75% CDDA
236740628
[teatrix.ru].t10335.torrent 
Торрент: Зарегистрирован [ 2015-11-01 20:51 ] · 8C9892F803DCDDB12CBB8BC58777DC47103BD13A

Скачать .torrent

Скачать

15 KB

Статус: проверено
Скачан: 0 раз
Размер: 307 MB
terms.php



Быстрый ответ

Имя:

      
Для отправки сообщений необходимо включить JavaScript
Показать сообщения:    

Текущее время: 10-Дек 09:56

Часовой пояс: UTC + 3


Вы можете начинать темы
Вы можете отвечать на сообщения
Вы не можете редактировать свои сообщения
Вы не можете удалять свои сообщения
Вы не можете голосовать в опросах
Вы не можете прикреплять файлы к сообщениям
Вы можете скачивать файлы