(Soundtrack) Виноваты звезды / The Fault in Our Stars (VA) - 2014, FLAC (tracks+.cue), lossless


Статистика раздачи [Обновить пиров]
Размер:  368 MB   |    Зарегистрирован:  1 год 1 месяц   |    Скачан:  0 раз

Полного источника не было: Никогда

 
   
 
 
 

[Цитировать]

Виноваты звезды / The Fault in Our Stars
Жанр: Soundtrack
Композитор: VA
Год выпуска диска: 2014
Страна-производитель диска: USA
Издатель (лейбл): Atlantic Records
Аудиокодек: FLAC (*.flac)
Тип рипа: tracks+.cue
Битрейт аудио: lossless
Продолжительность: 1:00:16
Источник: what.cd
Наличие сканов в содержимом раздачи: нет
Треклист:

01. Ed Sheeran - All Of The Stars (3:55)
02. Jake Bugg - Simple As This (3:17)
03. Grouplove - Let Me In (4:00)
04. Birdy - Tee Shirt (2:40)
05. Kodaline - All I Want (5:06)
06. Tom Odell - Long Way Down (2:30)
07. Charli XCX - Boom Clap (2:49)
08. STRFKR - While I'm Alive (3:48)
09. Indians - Oblivion (3:39)
10. The Radio Dept. - Strange Things Will Happen (4:26)
11. Afasi & Filthy - Bomfalleralla (3:57)
12. Ray LaMontagne - Without Words (4:18)
13. Birdy - Not About Angels (3:10)
14. Lykke Li - No One Ever Loved (4:06)
15. M83 - Wait (5:41)
16. Birdy & Jaymes Young - Best Shot [Bonus Track] (2:56)

Лог создания рипа

Exact Audio Copy V1.0 beta 3 from 29. August 2011
EAC extraction logfile from 21. May 2014, 22:24
Various Artists / The Fault In Our Stars (Music From The Motion Picture)
Used drive : ASUS BW-12B1ST Adapter: 2 ID: 0
Read mode : SecureUtilize accurate stream : YesDefeat audio cache : YesMake use of C2 pointers : No
Read offset correction : 6Overread into Lead-In and Lead-Out : NoFill up missing offset samples with silence : YesDelete leading and trailing silent blocks : NoNull samples used in CRC calculations : YesUsed interface : Native Win32 interface for Win NT & 2000Gap handling : Appended to previous track
Used output format : User Defined EncoderSelected bitrate : 1024 kBit/sQuality : HighAdd ID3 tag : NoCommand line compressor : C:\Exact Audio Copy\Flac\flac.exeAdditional command line options : -8 -V -T "ARTIST=%artist%" -T "TITLE=%title%" -T "ALBUM=%albumtitle%" -T "DATE=%year%" -T "TRACKNUMBER=%tracknr%" -T "GENRE=%genre%" -T "PERFORMER=%albuminterpret%" -T "COMPOSER=%composer%" %haslyrics%--tag-from-file=LYRICS="%lyricsfile%"%haslyrics% -T "ALBUMARTIST=%albumartist%" -T "DISCNUMBER=%cdnumber%" -T "TOTALDISCS=%totalcds%" -T "TOTALTRACKS=%numtracks%" -T "COMMENT=%comment%" %source% -o %dest%
TOC of the extracted CD
Track | Start | Length | Start sector | End sector --------------------------------------------------------- 1 | 0:00.00 | 3:54.74 | 0 | 17623 2 | 3:54.74 | 3:17.33 | 17624 | 32431 3 | 7:12.32 | 3:59.49 | 32432 | 50405 4 | 11:12.06 | 2:39.38 | 50406 | 62368 5 | 13:51.44 | 5:05.71 | 62369 | 85314 6 | 18:57.40 | 2:29.40 | 85315 | 96529 7 | 21:27.05 | 2:49.22 | 96530 | 109226 8 | 24:16.27 | 3:47.47 | 109227 | 126298 9 | 28:03.74 | 3:38.53 | 126299 | 142701 10 | 31:42.52 | 4:25.69 | 142702 | 162645 11 | 36:08.46 | 3:57.33 | 162646 | 180453 12 | 40:06.04 | 4:17.70 | 180454 | 199798 13 | 44:23.74 | 3:09.66 | 199799 | 214039 14 | 47:33.65 | 4:05.61 | 214040 | 232475 15 | 51:39.51 | 5:41.15 | 232476 | 258065 16 | 57:20.66 | 2:55.47 | 258066 | 271237
Track 1
Filename C:\Ripping\01 - Ed Sheeran - All Of The Stars.wav
Pre-gap length 0:00:02.00
Peak level 99.9 % Extraction speed 4.4 X Track quality 100.0 % Test CRC 62C824F4 Copy CRC 62C824F4 Track not present in AccurateRip database Copy OK
Track 2
Filename C:\Ripping\02 - Jake Bugg - Simple As This.wav
Peak level 99.9 % Extraction speed 4.7 X Track quality 100.0 % Test CRC 291DC65F Copy CRC 291DC65F Track not present in AccurateRip database Copy OK
Track 3
Filename C:\Ripping\03 - Grouplove - Let Me In.wav
Peak level 99.8 % Extraction speed 4.4 X Track quality 99.9 % Test CRC 0B3CC6C5 Copy CRC 0B3CC6C5 Track not present in AccurateRip database Copy OK
Track 4
Filename C:\Ripping\04 - Birdy - Tee Shirt.wav
Peak level 98.2 % Extraction speed 5.3 X Track quality 100.0 % Test CRC 27CE2F6B Copy CRC 27CE2F6B Track not present in AccurateRip database Copy OK
Track 5
Filename C:\Ripping\05 - Kodaline - All I Want.wav
Peak level 99.9 % Extraction speed 6.1 X Track quality 100.0 % Test CRC 91EFD12D Copy CRC 91EFD12D Track not present in AccurateRip database Copy OK
Track 6
Filename C:\Ripping\06 - Tom Odell - Long Way Down.wav
Peak level 99.9 % Extraction speed 5.8 X Track quality 100.0 % Test CRC 452BEDFF Copy CRC 452BEDFF Track not present in AccurateRip database Copy OK
Track 7
Filename C:\Ripping\07 - Charli XCX - Boom Clap.wav
Peak level 99.9 % Extraction speed 4.8 X Track quality 99.9 % Test CRC 11AB461A Copy CRC 11AB461A Track not present in AccurateRip database Copy OK
Track 8
Filename C:\Ripping\08 - STRFKR - While I'm Alive.wav
Peak level 99.9 % Extraction speed 6.6 X Track quality 100.0 % Test CRC ECD3178F Copy CRC ECD3178F Track not present in AccurateRip database Copy OK
Track 9
Filename C:\Ripping\09 - Indians - Oblivion.wav
Peak level 99.9 % Extraction speed 6.9 X Track quality 100.0 % Test CRC 801FD325 Copy CRC 801FD325 Track not present in AccurateRip database Copy OK
Track 10
Filename C:\Ripping\10 - The Radio Dept. - Strange Things Will Happen.wav
Peak level 97.6 % Extraction speed 6.2 X Track quality 99.9 % Test CRC FE04A2D1 Copy CRC FE04A2D1 Track not present in AccurateRip database Copy OK
Track 11
Filename C:\Ripping\11 - Afasi & Filthy - Bomfalleralla.wav
Peak level 99.9 % Extraction speed 7.5 X Track quality 100.0 % Test CRC E02D0213 Copy CRC E02D0213 Track not present in AccurateRip database Copy OK
Track 12
Filename C:\Ripping\12 - Ray LaMontagne - Without Words.wav
Peak level 99.9 % Extraction speed 6.6 X Track quality 99.9 % Test CRC BD287F4F Copy CRC BD287F4F Track not present in AccurateRip database Copy OK
Track 13
Filename C:\Ripping\13 - Birdy - Not About Angels.wav
Peak level 99.9 % Extraction speed 6.0 X Track quality 99.9 % Test CRC 10332443 Copy CRC 10332443 Track not present in AccurateRip database Copy OK
Track 14
Filename C:\Ripping\14 - Lykke Li - No One Ever Loved.wav
Peak level 99.9 % Extraction speed 8.3 X Track quality 100.0 % Test CRC EF4C31F7 Copy CRC EF4C31F7 Track not present in AccurateRip database Copy OK
Track 15
Filename C:\Ripping\15 - M83 - Wait.wav
Peak level 99.9 % Extraction speed 8.8 X Track quality 100.0 % Test CRC 53831135 Copy CRC 53831135 Track not present in AccurateRip database Copy OK
Track 16
Filename C:\Ripping\16 - Birdy & Jaymes Young - Best Shot [Bonus Track].wav
Peak level 99.9 % Extraction speed 6.5 X Track quality 99.9 % Test CRC 75A4A766 Copy CRC 75A4A766 Track not present in AccurateRip database Copy OK
None of the tracks are present in the AccurateRip database
No errors occurred
End of status report
---- CUETools DB Plugin V2.1.3
[CTDB TOCID: DfXIR91lAtb4BIUBNTGWbbGQujY-] disk not present in database, Submit result: DfXIR91lAtb4BIUBNTGWbbGQujY- has been uploaded
==== Log checksum 7905BBB05927973825A8C37F7A0685D5C45CD41608448179169F147A90FF5215 ====

Содержание индексной карты (.CUE)

REM GENRE SoundtrackREM DATE 2014REM DISCID DE0E2010REM COMMENT "ExactAudioCopy v1.0b3"FILE "01 - Ed Sheeran - All Of The Stars.wav" WAVE TRACK 01 AUDIO INDEX 01 00:00:00FILE "02 - Jake Bugg - Simple As This.wav" WAVE TRACK 02 AUDIO INDEX 01 00:00:00FILE "03 - Grouplove - Let Me In.wav" WAVE TRACK 03 AUDIO INDEX 01 00:00:00FILE "04 - Birdy - Tee Shirt.wav" WAVE TRACK 04 AUDIO INDEX 01 00:00:00FILE "05 - Kodaline - All I Want.wav" WAVE TRACK 05 AUDIO INDEX 01 00:00:00FILE "06 - Tom Odell - Long Way Down.wav" WAVE TRACK 06 AUDIO INDEX 01 00:00:00FILE "07 - Charli XCX - Boom Clap.wav" WAVE TRACK 07 AUDIO INDEX 01 00:00:00FILE "08 - STRFKR - While I'm Alive.wav" WAVE TRACK 08 AUDIO INDEX 01 00:00:00FILE "09 - Indians - Oblivion.wav" WAVE TRACK 09 AUDIO INDEX 01 00:00:00FILE "10 - The Radio Dept. - Strange Things Will Happen.wav" WAVE TRACK 10 AUDIO INDEX 01 00:00:00FILE "11 - Afasi & Filthy - Bomfalleralla.wav" WAVE TRACK 11 AUDIO INDEX 01 00:00:00FILE "12 - Ray LaMontagne - Without Words.wav" WAVE TRACK 12 AUDIO INDEX 01 00:00:00FILE "13 - Birdy - Not About Angels.wav" WAVE TRACK 13 AUDIO INDEX 01 00:00:00FILE "14 - Lykke Li - No One Ever Loved.wav" WAVE TRACK 14 AUDIO INDEX 01 00:00:00FILE "15 - M83 - Wait.wav" WAVE TRACK 15 AUDIO INDEX 01 00:00:00FILE "16 - Birdy & Jaymes Young - Best Shot [Bonus Track].wav" WAVE TRACK 16 AUDIO INDEX 01 00:00:00

Лог проверки качества

AUDIOCHECKER v2.0 beta (build 457) - by Dester - opdester@freemail.hu~~~~~~~~~~~~~~~~~~~~~~~~~~~~~~~~~~-=== НЕ РЕДАКТИРУЙТЕ ЭТОТ ФАЙЛ! ===-
Путь: ...\Various Artists - The Fault In Our Stars (2014)
01 -=- 01 - Ed Sheeran - All Of The Stars.flac -=- CDDA (100%)02 -=- 02 - Jake Bugg - Simple As This.flac -=- CDDA (100%)03 -=- 03 - Grouplove - Let Me In.flac -=- CDDA (100%)04 -=- 04 - Birdy - Tee Shirt.flac -=- CDDA (100%)05 -=- 05 - Kodaline - All I Want.flac -=- CDDA (100%)06 -=- 06 - Tom Odell - Long Way Down.flac -=- MPEG (95%)07 -=- 07 - Charli XCX - Boom Clap.flac -=- CDDA (100%)08 -=- 08 - STRFKR - While I'm Alive.flac -=- CDDA (100%)09 -=- 09 - Indians - Oblivion.flac -=- CDDA (100%)10 -=- 10 - The Radio Dept. - Strange Things Will Happen.flac -=- CDDA (100%)11 -=- 11 - Afasi & Filthy - Bomfalleralla.flac -=- CDDA (100%)12 -=- 12 - Ray LaMontagne - Without Words.flac -=- CDDA (100%)13 -=- 13 - Birdy - Not About Angels.flac -=- CDDA (100%)14 -=- 14 - Lykke Li - No One Ever Loved.flac -=- CDDA (100%)15 -=- 15 - M83 - Wait.flac -=- CDDA (100%)16 -=- 16 - Birdy & Jaymes Young - Best Shot [Bonus Track].flac -=- CDDA (100%)
Сводка 94,06% CDDA
206810532

Скриншот спектра частот

-
[teatrix.ru].t10336.torrent 
Торрент: Зарегистрирован [ 2015-11-01 20:51 ] · 621CCEB019434D9C8D6CCB968776DA0927765D9F

Скачать .torrent

Скачать

16 KB

Статус: проверено
Скачан: 0 раз
Размер: 368 MB
terms.php



Быстрый ответ

Имя:

      
Для отправки сообщений необходимо включить JavaScript
Показать сообщения:    

Текущее время: 11-Дек 01:27

Часовой пояс: UTC + 3


Вы можете начинать темы
Вы можете отвечать на сообщения
Вы не можете редактировать свои сообщения
Вы не можете удалять свои сообщения
Вы не можете голосовать в опросах
Вы не можете прикреплять файлы к сообщениям
Вы можете скачивать файлы