(Soundtrack) Академия вампиров / Vampire Academy - 2014, FLAC (tracks+.cue), lossless


Статистика раздачи [Обновить пиров]
Размер:  300 MB   |    Зарегистрирован:  1 год 1 месяц   |    Скачан:  0 раз

Полного источника не было: Никогда

 
   
 
 
 

[Цитировать]

Академия вампиров / Vampire Academy
Жанр: Soundtrack
Год выпуска диска: 2014
Издатель (лейбл): Universal Music
Аудиокодек: FLAC (*.flac)
Тип рипа: tracks+.cue
Битрейт аудио: lossless
Продолжительность: 44:34
Источник: what.cd
Треклист:
[03:11] 01. Jaymes Bullet - In Your Grave
[03:50] 02. Sky Ferreira - Red Lips (DSL Remix)
[03:50] 03. Max Frost - Nice And Slow
[04:48] 04. Goldfrapp - Thea
[03:36] 05. Natalia Kills - Boys Don't Cry
[02:46] 06. Iggy Azalea - Bounce
[03:30] 07. Bear In Heaven - Sinful Nature
[03:05] 08. Naughty Boy - Think About It (feat. Wiz Khalifa & Ella Eyre)
[04:32] 09. Rainy Milo - Rats
[04:34] 10. Katy Perry - Spiritual
[02:57] 11. Au Revoir Simon - Crazy
[03:50] 12. CHVRCHES - Bela Lugosi's Dead

Лог создания рипа

Exact Audio Copy V1.0 beta 3 from 29. August 2011
EAC extraction logfile from 24. May 2014, 17:14
Various / Vampire Academy
Used drive : TSSTcorpDVD+-RW TS-H653B Adapter: 2 ID: 0
Read mode : SecureUtilize accurate stream : YesDefeat audio cache : YesMake use of C2 pointers : No
Read offset correction : 6Overread into Lead-In and Lead-Out : NoFill up missing offset samples with silence : YesDelete leading and trailing silent blocks : NoNull samples used in CRC calculations : YesUsed interface : Installed external ASPI interfaceGap handling : Appended to previous track
Used output format : User Defined EncoderSelected bitrate : 1024 kBit/sQuality : HighAdd ID3 tag : NoCommand line compressor : C:\Program Files (x86)\Exact Audio Copy\Flac\flac.exeAdditional command line options : -8 -V -T "ARTIST=%artist%" -T "TITLE=%title%" -T "ALBUM=%albumtitle%" -T "DATE=%year%" -T "TRACKNUMBER=%tracknr%" -T "GENRE=%genre%" -T "PERFORMER=%albuminterpret%" -T "COMPOSER=%composer%" %haslyrics%--tag-from-file=LYRICS="%lyricsfile%"%haslyrics% -T "ALBUMARTIST=%albumartist%" -T "DISCNUMBER=%cdnumber%" -T "TOTALDISCS=%totalcds%" -T "TOTALTRACKS=%numtracks%" -T "COMMENT=%comment%" %source% -o %dest%
TOC of the extracted CD
Track | Start | Length | Start sector | End sector --------------------------------------------------------- 1 | 0:00.00 | 3:11.67 | 0 | 14391 2 | 3:11.67 | 3:50.72 | 14392 | 31713 3 | 7:02.64 | 3:50.28 | 31714 | 48991 4 | 10:53.17 | 4:48.36 | 48992 | 70627 5 | 15:41.53 | 3:36.02 | 70628 | 86829 6 | 19:17.55 | 2:46.00 | 86830 | 99279 7 | 22:03.55 | 3:30.43 | 99280 | 115072 8 | 25:34.23 | 3:05.08 | 115073 | 128955 9 | 28:39.31 | 4:32.20 | 128956 | 149375 10 | 33:11.51 | 4:34.61 | 149376 | 169986 11 | 37:46.37 | 2:57.46 | 169987 | 183307 12 | 40:44.08 | 3:50.55 | 183308 | 200612
Track 1
Filename C:\Various Artists - Vampire Academy [2014]\01 - Jaymes Bullet - In Your Grave.wav
Pre-gap length 0:00:02.00
Peak level 98.8 % Extraction speed 3.6 X Track quality 99.9 % Test CRC E8D31F8B Copy CRC E8D31F8B Accurately ripped (confidence 3) [BEC69879] (AR v2) Copy OK
Track 2
Filename C:\Various Artists - Vampire Academy [2014]\02 - Sky Ferreira - Red Lips (DSL Remix).wav
Peak level 100.0 % Extraction speed 5.2 X Track quality 100.0 % Test CRC C7736C8F Copy CRC C7736C8F Accurately ripped (confidence 3) [29382B56] (AR v2) Copy OK
Track 3
Filename C:\Various Artists - Vampire Academy [2014]\03 - Max Frost - Nice And Slow.wav
Peak level 98.8 % Extraction speed 4.5 X Track quality 99.9 % Test CRC D0395434 Copy CRC D0395434 Accurately ripped (confidence 3) [0E6538CE] (AR v2) Copy OK
Track 4
Filename C:\Various Artists - Vampire Academy [2014]\04 - Goldfrapp - Thea.wav
Peak level 98.8 % Extraction speed 5.1 X Track quality 99.9 % Test CRC 72F3E28B Copy CRC 72F3E28B Accurately ripped (confidence 3) [E8384560] (AR v2) Copy OK
Track 5
Filename C:\Various Artists - Vampire Academy [2014]\05 - Natalia Kills - Boys Don't Cry.wav
Peak level 93.3 % Extraction speed 6.3 X Track quality 100.0 % Test CRC 6AAB30FF Copy CRC 6AAB30FF Accurately ripped (confidence 3) [E438E1F7] (AR v2) Copy OK
Track 6
Filename C:\Various Artists - Vampire Academy [2014]\06 - Iggy Azalea - Bounce.wav
Peak level 96.6 % Extraction speed 4.6 X Track quality 99.9 % Test CRC A37FD030 Copy CRC A37FD030 Accurately ripped (confidence 3) [EF1D9A7D] (AR v2) Copy OK
Track 7
Filename C:\Various Artists - Vampire Academy [2014]\07 - Bear In Heaven - Sinful Nature.wav
Peak level 92.5 % Extraction speed 6.8 X Track quality 100.0 % Test CRC B371EDEA Copy CRC B371EDEA Accurately ripped (confidence 3) [CBE04125] (AR v2) Copy OK
Track 8
Filename C:\Various Artists - Vampire Academy [2014]\08 - Naughty Boy - Think About It (feat. Wiz Khalifa & Ella Eyre).wav
Peak level 95.7 % Extraction speed 6.9 X Track quality 100.0 % Test CRC C2A30EFF Copy CRC C2A30EFF Accurately ripped (confidence 3) [45BBCB0C] (AR v2) Copy OK
Track 9
Filename C:\Various Artists - Vampire Academy [2014]\09 - Rainy Milo - Rats.wav
Peak level 98.8 % Extraction speed 7.6 X Track quality 100.0 % Test CRC E0AF9E37 Copy CRC E0AF9E37 Accurately ripped (confidence 3) [3184CA57] (AR v2) Copy OK
Track 10
Filename C:\Various Artists - Vampire Academy [2014]\10 - Katy Perry - Spiritual.wav
Peak level 98.8 % Extraction speed 7.8 X Track quality 100.0 % Test CRC AC6F6A81 Copy CRC AC6F6A81 Accurately ripped (confidence 3) [F9783B99] (AR v2) Copy OK
Track 11
Filename C:\Various Artists - Vampire Academy [2014]\11 - Au Revoir Simon - Crazy.wav
Peak level 95.5 % Extraction speed 5.7 X Track quality 99.9 % Test CRC 3CD5CFF6 Copy CRC 3CD5CFF6 Accurately ripped (confidence 3) [ECDEC0DD] (AR v2) Copy OK
Track 12
Filename C:\Various Artists - Vampire Academy [2014]\12 - CHVRCHES - Bela Lugosi's Dead.wav
Peak level 98.8 % Extraction speed 6.3 X Track quality 99.9 % Test CRC DC8F8AC7 Copy CRC DC8F8AC7 Accurately ripped (confidence 3) [08D0F18E] (AR v2) Copy OK
All tracks accurately ripped
No errors occurred
End of status report
==== Log checksum 1301404058143FCB61061AF1EB787386D8C73A99F89661FC006FBB118283FE95 ====

Содержание индексной карты (.CUE)

REM GENRE SoundtrackREM DATE 2014REM DISCID A60A720CREM COMMENT "ExactAudioCopy v1.0b3"CATALOG 0600753502266PERFORMER "Various"TITLE "Vampire Academy"FILE "01 - Jaymes Bullet - In Your Grave.wav" WAVE TRACK 01 AUDIO TITLE "In Your Grave" PERFORMER "Jaymes Bullet" ISRC EMAPK1400001 INDEX 01 00:00:00FILE "02 - Sky Ferreira - Red Lips (DSL Remix).wav" WAVE TRACK 02 AUDIO TITLE "Red Lips (DSL Remix)" PERFORMER "Sky Ferreira" ISRC H2MM71400284 INDEX 01 00:00:00FILE "03 - Max Frost - Nice And Slow.wav" WAVE TRACK 03 AUDIO TITLE "Nice And Slow" PERFORMER "Max Frost" ISRC H29021302844 INDEX 01 00:00:00FILE "04 - Goldfrapp - Thea.wav" WAVE TRACK 04 AUDIO TITLE "Thea" PERFORMER "Goldfrapp" ISRC GAaHF1300989 INDEX 01 00:00:00FILE "05 - Natalia Kills - Boys Don't Cry.wav" WAVE TRACK 05 AUDIO TITLE "Boys Don't Cry" PERFORMER "Natalia Kills" ISRC H2MM71310250 INDEX 01 00:00:00FILE "06 - Iggy Azalea - Bounce.wav" WAVE TRACK 06 AUDIO TITLE "Bounce" PERFORMER "Iggy Azalea" ISRC GAeM71303208 INDEX 01 00:00:00FILE "07 - Bear In Heaven - Sinful Nature.wav" WAVE TRACK 07 AUDIO TITLE "Sinful Nature" PERFORMER "Bear In Heaven" INDEX 01 00:00:00FILE "08 - Naughty Boy - Think About It (feat. Wiz Khalifa & Ella Eyre).wav" WAVE TRACK 08 AUDIO TITLE "Think About It (feat. Wiz Khalifa & Ella Eyre)" PERFORMER "Naughty Boy" ISRC GAeM71400389 INDEX 01 00:00:00FILE "09 - Rainy Milo - Rats.wav" WAVE TRACK 09 AUDIO TITLE "Rats" PERFORMER "Rainy Milo" ISRC GAeM71301751 INDEX 01 00:00:00FILE "10 - Katy Perry - Spiritual.wav" WAVE TRACK 10 AUDIO TITLE "Spiritual" PERFORMER "Katy Perry" ISRC H2MM71311304 INDEX 01 00:00:00FILE "11 - Au Revoir Simon - Crazy.wav" WAVE TRACK 11 AUDIO TITLE "Crazy" PERFORMER "Au Revoir Simon" ISRC EMFM=1393705 INDEX 01 00:00:00FILE "12 - CHVRCHES - Bela Lugosi's Dead.wav" WAVE TRACK 12 AUDIO TITLE "Bela Lugosi's Dead" PERFORMER "CHVRCHES" ISRC H3Xc?1400000 INDEX 01 00:00:00
[teatrix.ru].t10337.torrent 
Торрент: Зарегистрирован [ 2015-11-01 20:51 ] · 648FA828ECD172E20853904B9C5A298743A2A2BC

Скачать .torrent

Скачать

13 KB

Статус: проверено
Скачан: 0 раз
Размер: 300 MB
terms.php



Быстрый ответ

Имя:

      
Для отправки сообщений необходимо включить JavaScript
Показать сообщения:    

Текущее время: 05-Дек 13:27

Часовой пояс: UTC + 3


Вы можете начинать темы
Вы можете отвечать на сообщения
Вы не можете редактировать свои сообщения
Вы не можете удалять свои сообщения
Вы не можете голосовать в опросах
Вы не можете прикреплять файлы к сообщениям
Вы можете скачивать файлы