(Score) Джон Уик / John Wick (Tyler Bates / Joel Richard) - 2014, FLAC (tracks+.cue), lossless


Статистика раздачи [Обновить пиров]
Размер:  380 MB   |    Зарегистрирован:  1 год 1 месяц   |    Скачан:  3 раза
Сидов:  2  [  0 KB/s  ]   Личеров:  1  [  0 KB/s  ]   Подробная статистика пиров
 
   
 
 
 

[Цитировать]

Джон Уик / John Wick- Жанр: Score
Композитор: Tyler Bates / Joel Richard
Год выпуска диска: 2014
Страна-производитель диска: USA
Издатель (лейбл): Varese Sarabande
Номер по каталогу: VSD-7309 / 030206730982
Аудиокодек: FLAC (*.flac)
Тип рипа: tracks+.cue
Битрейт аудио: lossless
Продолжительность: 67:35
Источник: what.cd
Треклист:
1. Every Ending Has A Beginning (1:31)
2. Story Of Wick (3:05)
3. John Mourns (2:29)
4. Assassins (2:12)
5. Dear John (1:49)
6. Daisy (1:29)
7. Evil Man Blues (The Candy Shop Boys) (4:20)
8. The Red Circle (Le Castle Vania) (1:00)
9. Lure The Wolf (2:04)
10. Iosef The Terrible (2:34)
11. Chop Shop (2:52)
12. Baba Yaga (1:46)
13. On The Hunt (2:11)
14. In My Mind (M86 & Susie Q) (3:07)
15. The Drowning (Le Castle Vania) (2:24)
16. Think (Kaleida) (3:59)
17. Led Spirals (Le Castle Vania) (:59)
18. Shots Fired (Le Castle Vania) (3:11)
19. Old Friend Marcus (1:33)
20. Hotel Throw Down (2:55)
21. Warehouse Smack Down (2:44)
22. Who You Talkin' To Man? (Ciscandra Nostalghia) (4:41)
23. Membership Revoked (2:04)
24. Unfortunate Priest (1:49)
25. Dock Shootout (2:42)
26. No More Guns (2:05)
27. Be Seeing You (3:38)

Лог создания рипа

X Lossless Decoder version 20141129 (148.1)
XLD extraction logfile from 2014-12-04 21:15:14 -0500
Various Artists / John Wick [Varese Sarabande Records]
Used drive : MATSHITA DVD-R UJ-8A8 (revision HB14)Media type : Pressed CD
Ripper mode : XLD Secure RipperDisable audio cache : OK for the drive with a cache less than 1375KiBMake use of C2 pointers : NORead offset correction : 102Max retry count : 100Gap status : Analyzed, Appended (except HTOA)
TOC of the extracted CD Track | Start | Length | Start sector | End sector --------------------------------------------------------- 1 | 00:00:00 | 01:31:37 | 0 | 6861 2 | 01:31:37 | 03:05:69 | 6862 | 20805 3 | 04:37:31 | 02:30:34 | 20806 | 32089 4 | 07:07:65 | 02:12:42 | 32090 | 42031 5 | 09:20:32 | 01:49:56 | 42032 | 50262 6 | 11:10:13 | 01:29:67 | 50263 | 57004 7 | 12:40:05 | 04:21:34 | 57005 | 76613 8 | 17:01:39 | 01:00:73 | 76614 | 81186 9 | 18:02:37 | 02:04:74 | 81187 | 90560 10 | 20:07:36 | 02:35:18 | 90561 | 102203 11 | 22:42:54 | 02:52:41 | 102204 | 115144 12 | 25:35:20 | 01:46:49 | 115145 | 123143 13 | 27:21:69 | 02:12:29 | 123144 | 133072 14 | 29:34:23 | 03:07:51 | 133073 | 147148 15 | 32:41:74 | 02:25:08 | 147149 | 158031 16 | 35:07:07 | 03:59:46 | 158032 | 176002 17 | 39:06:53 | 00:58:40 | 176003 | 180392 18 | 40:05:18 | 03:12:30 | 180393 | 194822 19 | 43:17:48 | 01:34:04 | 194823 | 201876 20 | 44:51:52 | 02:56:09 | 201877 | 215085 21 | 47:47:61 | 02:44:59 | 215086 | 227444 22 | 50:32:45 | 04:42:31 | 227445 | 248625 23 | 55:15:01 | 02:05:30 | 248626 | 258030 24 | 57:20:31 | 01:47:56 | 258031 | 266111 25 | 59:08:12 | 02:43:13 | 266112 | 278349 26 | 61:51:25 | 02:06:24 | 278350 | 287823 27 | 63:57:49 | 03:37:49 | 287824 | 304147
AccurateRip Summary Disc not found in AccurateRip DB.
All Tracks Album gain : -7.69 dB Peak : 0.988586 Statistics Read error : 0 Jitter error (maybe fixed) : 0 Retry sector count : 0 Damaged sector count : 0
Track 01 Filename : /Users/JM/Documents/Music RIps/Various Artists - John Wick [Varese Sarabande Records] (2014) [FLAC]/01 Every Ending Has A BeginningVarious Artists - John Wick [Varese Sarabande Records] (2014) [FLAC]/01 Every Ending Has A BeginningVarious Artists - John Wick [Varese Sarabande Records] (2014) [FLAC]/01 Every Ending Has A BeginningVarious Artists - John Wick [Varese Sarabande Records] (2014) [FLAC]/01 Every Ending Has A Beginning.flac Pre-gap length : 00:02:00
Track gain : -3.43 dB Peak : 0.943909 CRC32 hash (test run) : B86CACF3 CRC32 hash : B86CACF3 CRC32 hash (skip zero) : FC807245 AccurateRip v1 signature : 1E459E91 AccurateRip v2 signature : E3789A73 ->Track not present in AccurateRip database. Statistics Read error : 0 Jitter error (maybe fixed) : 0 Retry sector count : 0 Damaged sector count : 0
Track 02 Filename : /Users/JM/Documents/Music RIps/Various Artists - John Wick [Varese Sarabande Records] (2014) [FLAC]/02 Story Of WickVarious Artists - John Wick [Varese Sarabande Records] (2014) [FLAC]/02 Story Of WickVarious Artists - John Wick [Varese Sarabande Records] (2014) [FLAC]/02 Story Of WickVarious Artists - John Wick [Varese Sarabande Records] (2014) [FLAC]/02 Story Of Wick.flac Pre-gap length : 00:01:00
Track gain : -5.53 dB Peak : 0.943909 CRC32 hash (test run) : 7E26335C CRC32 hash : 7E26335C CRC32 hash (skip zero) : D37A1054 AccurateRip v1 signature : 21BA51AB AccurateRip v2 signature : FCE970E2 ->Track not present in AccurateRip database. Statistics Read error : 0 Jitter error (maybe fixed) : 0 Retry sector count : 0 Damaged sector count : 0
Track 03 Filename : /Users/JM/Documents/Music RIps/Various Artists - John Wick [Varese Sarabande Records] (2014) [FLAC]/03 John MournsVarious Artists - John Wick [Varese Sarabande Records] (2014) [FLAC]/03 John MournsVarious Artists - John Wick [Varese Sarabande Records] (2014) [FLAC]/03 John MournsVarious Artists - John Wick [Varese Sarabande Records] (2014) [FLAC]/03 John Mourns.flac Pre-gap length : 00:01:00
Track gain : -1.64 dB Peak : 0.943909 CRC32 hash (test run) : 9E17F17E CRC32 hash : 9E17F17E CRC32 hash (skip zero) : 5AF47497 AccurateRip v1 signature : 6A92C8B1 AccurateRip v2 signature : 52CB8E58 ->Track not present in AccurateRip database. Statistics Read error : 0 Jitter error (maybe fixed) : 0 Retry sector count : 0 Damaged sector count : 0
Track 04 Filename : /Users/JM/Documents/Music RIps/Various Artists - John Wick [Varese Sarabande Records] (2014) [FLAC]/04 AssassinsVarious Artists - John Wick [Varese Sarabande Records] (2014) [FLAC]/04 AssassinsVarious Artists - John Wick [Varese Sarabande Records] (2014) [FLAC]/04 AssassinsVarious Artists - John Wick [Varese Sarabande Records] (2014) [FLAC]/04 Assassins.flac Pre-gap length : 00:01:00
Track gain : -6.47 dB Peak : 0.943909 CRC32 hash (test run) : 11B93ECB CRC32 hash : 11B93ECB CRC32 hash (skip zero) : 933D8150 AccurateRip v1 signature : FBD9303D AccurateRip v2 signature : 8A176BBF ->Track not present in AccurateRip database. Statistics Read error : 0 Jitter error (maybe fixed) : 0 Retry sector count : 0 Damaged sector count : 0
Track 05 Filename : /Users/JM/Documents/Music RIps/Various Artists - John Wick [Varese Sarabande Records] (2014) [FLAC]/05 Dear JohnVarious Artists - John Wick [Varese Sarabande Records] (2014) [FLAC]/05 Dear JohnVarious Artists - John Wick [Varese Sarabande Records] (2014) [FLAC]/05 Dear JohnVarious Artists - John Wick [Varese Sarabande Records] (2014) [FLAC]/05 Dear John.flac Pre-gap length : 00:01:00
Track gain : 0.57 dB Peak : 0.602386 CRC32 hash (test run) : D0E7DF78 CRC32 hash : D0E7DF78 CRC32 hash (skip zero) : E73AE43C AccurateRip v1 signature : 6973AE3D AccurateRip v2 signature : 2B85742D ->Track not present in AccurateRip database. Statistics Read error : 0 Jitter error (maybe fixed) : 0 Retry sector count : 0 Damaged sector count : 0
Track 06 Filename : /Users/JM/Documents/Music RIps/Various Artists - John Wick [Varese Sarabande Records] (2014) [FLAC]/06 DaisyVarious Artists - John Wick [Varese Sarabande Records] (2014) [FLAC]/06 DaisyVarious Artists - John Wick [Varese Sarabande Records] (2014) [FLAC]/06 DaisyVarious Artists - John Wick [Varese Sarabande Records] (2014) [FLAC]/06 Daisy.flac Pre-gap length : 00:01:00
Track gain : -2.36 dB Peak : 0.673248 CRC32 hash (test run) : C9BEADF3 CRC32 hash : C9BEADF3 CRC32 hash (skip zero) : 0B94EFCF AccurateRip v1 signature : 7B85E103 AccurateRip v2 signature : 75F5F251 ->Track not present in AccurateRip database. Statistics Read error : 0 Jitter error (maybe fixed) : 0 Retry sector count : 0 Damaged sector count : 0
Track 07 Filename : /Users/JM/Documents/Music RIps/Various Artists - John Wick [Varese Sarabande Records] (2014) [FLAC]/07 Evil Man BluesVarious Artists - John Wick [Varese Sarabande Records] (2014) [FLAC]/07 Evil Man BluesVarious Artists - John Wick [Varese Sarabande Records] (2014) [FLAC]/07 Evil Man BluesVarious Artists - John Wick [Varese Sarabande Records] (2014) [FLAC]/07 Evil Man Blues.flac Pre-gap length : 00:01:00
Track gain : -7.46 dB Peak : 0.943909 CRC32 hash (test run) : 3578F429 CRC32 hash : 3578F429 CRC32 hash (skip zero) : 1F61D9E3 AccurateRip v1 signature : 642C6A71 AccurateRip v2 signature : 04F27F04 ->Track not present in AccurateRip database. Statistics Read error : 0 Jitter error (maybe fixed) : 0 Retry sector count : 0 Damaged sector count : 0
Track 08 Filename : /Users/JM/Documents/Music RIps/Various Artists - John Wick [Varese Sarabande Records] (2014) [FLAC]/08 The Red CircleVarious Artists - John Wick [Varese Sarabande Records] (2014) [FLAC]/08 The Red CircleVarious Artists - John Wick [Varese Sarabande Records] (2014) [FLAC]/08 The Red CircleVarious Artists - John Wick [Varese Sarabande Records] (2014) [FLAC]/08 The Red Circle.flac Pre-gap length : 00:01:00
Track gain : -7.00 dB Peak : 0.988586 CRC32 hash (test run) : 1977E6C1 CRC32 hash : 1977E6C1 CRC32 hash (skip zero) : 740D5077 AccurateRip v1 signature : B195D788 AccurateRip v2 signature : 6844B033 ->Track not present in AccurateRip database. Statistics Read error : 0 Jitter error (maybe fixed) : 0 Retry sector count : 0 Damaged sector count : 0
Track 09 Filename : /Users/JM/Documents/Music RIps/Various Artists - John Wick [Varese Sarabande Records] (2014) [FLAC]/09 Lure The WolfVarious Artists - John Wick [Varese Sarabande Records] (2014) [FLAC]/09 Lure The WolfVarious Artists - John Wick [Varese Sarabande Records] (2014) [FLAC]/09 Lure The WolfVarious Artists - John Wick [Varese Sarabande Records] (2014) [FLAC]/09 Lure The Wolf.flac Pre-gap length : 00:01:00
Track gain : -7.34 dB Peak : 0.943909 CRC32 hash (test run) : FCF40CD3 CRC32 hash : FCF40CD3 CRC32 hash (skip zero) : E74D9F3C AccurateRip v1 signature : 1457738E AccurateRip v2 signature : 22809330 ->Track not present in AccurateRip database. Statistics Read error : 0 Jitter error (maybe fixed) : 0 Retry sector count : 0 Damaged sector count : 0
Track 10 Filename : /Users/JM/Documents/Music RIps/Various Artists - John Wick [Varese Sarabande Records] (2014) [FLAC]/10 Iosef The TerribleVarious Artists - John Wick [Varese Sarabande Records] (2014) [FLAC]/10 Iosef The TerribleVarious Artists - John Wick [Varese Sarabande Records] (2014) [FLAC]/10 Iosef The TerribleVarious Artists - John Wick [Varese Sarabande Records] (2014) [FLAC]/10 Iosef The Terrible.flac Pre-gap length : 00:01:00
Track gain : -3.83 dB Peak : 0.943909 CRC32 hash (test run) : BC4778B3 CRC32 hash : BC4778B3 CRC32 hash (skip zero) : B62C372A AccurateRip v1 signature : BC8FBD4C AccurateRip v2 signature : 2EC970E2 ->Track not present in AccurateRip database. Statistics Read error : 0 Jitter error (maybe fixed) : 0 Retry sector count : 0 Damaged sector count : 0
Track 11 Filename : /Users/JM/Documents/Music RIps/Various Artists - John Wick [Varese Sarabande Records] (2014) [FLAC]/11 Chop ShopVarious Artists - John Wick [Varese Sarabande Records] (2014) [FLAC]/11 Chop ShopVarious Artists - John Wick [Varese Sarabande Records] (2014) [FLAC]/11 Chop ShopVarious Artists - John Wick [Varese Sarabande Records] (2014) [FLAC]/11 Chop Shop.flac Pre-gap length : 00:01:00
Track gain : -5.07 dB Peak : 0.943909 CRC32 hash (test run) : 2796B64C CRC32 hash : 2796B64C CRC32 hash (skip zero) : E782FC1D AccurateRip v1 signature : ED2D3FF5 AccurateRip v2 signature : F5AA8518 ->Track not present in AccurateRip database. Statistics Read error : 0 Jitter error (maybe fixed) : 0 Retry sector count : 0 Damaged sector count : 0
Track 12 Filename : /Users/JM/Documents/Music RIps/Various Artists - John Wick [Varese Sarabande Records] (2014) [FLAC]/12 Baba YagaVarious Artists - John Wick [Varese Sarabande Records] (2014) [FLAC]/12 Baba YagaVarious Artists - John Wick [Varese Sarabande Records] (2014) [FLAC]/12 Baba YagaVarious Artists - John Wick [Varese Sarabande Records] (2014) [FLAC]/12 Baba Yaga.flac Pre-gap length : 00:01:00
Track gain : -2.90 dB Peak : 0.943909 CRC32 hash (test run) : 01A8C558 CRC32 hash : 01A8C558 CRC32 hash (skip zero) : EE74690C AccurateRip v1 signature : 98556E5B AccurateRip v2 signature : D7CEC0C4 ->Track not present in AccurateRip database. Statistics Read error : 0 Jitter error (maybe fixed) : 0 Retry sector count : 0 Damaged sector count : 0
Track 13 Filename : /Users/JM/Documents/Music RIps/Various Artists - John Wick [Varese Sarabande Records] (2014) [FLAC]/13 On The HuntVarious Artists - John Wick [Varese Sarabande Records] (2014) [FLAC]/13 On The HuntVarious Artists - John Wick [Varese Sarabande Records] (2014) [FLAC]/13 On The HuntVarious Artists - John Wick [Varese Sarabande Records] (2014) [FLAC]/13 On The Hunt.flac Pre-gap length : 00:01:00
Track gain : -5.45 dB Peak : 0.943909 CRC32 hash (test run) : E927ED86 CRC32 hash : E927ED86 CRC32 hash (skip zero) : 327ABEB3 AccurateRip v1 signature : 8EDC14E3 AccurateRip v2 signature : FCEA7B96 ->Track not present in AccurateRip database. Statistics Read error : 0 Jitter error (maybe fixed) : 0 Retry sector count : 0 Damaged sector count : 0
Track 14 Filename : /Users/JM/Documents/Music RIps/Various Artists - John Wick [Varese Sarabande Records] (2014) [FLAC]/14 In My MindVarious Artists - John Wick [Varese Sarabande Records] (2014) [FLAC]/14 In My MindVarious Artists - John Wick [Varese Sarabande Records] (2014) [FLAC]/14 In My MindVarious Artists - John Wick [Varese Sarabande Records] (2014) [FLAC]/14 In My Mind.flac Pre-gap length : 00:01:00
Track gain : -6.11 dB Peak : 0.988586 CRC32 hash (test run) : F5AEC27E CRC32 hash : F5AEC27E CRC32 hash (skip zero) : DD96376C AccurateRip v1 signature : AC98C14B AccurateRip v2 signature : BF4E80B0 ->Track not present in AccurateRip database. Statistics Read error : 0 Jitter error (maybe fixed) : 0 Retry sector count : 0 Damaged sector count : 0
Track 15 Filename : /Users/JM/Documents/Music RIps/Various Artists - John Wick [Varese Sarabande Records] (2014) [FLAC]/15 The DrowningVarious Artists - John Wick [Varese Sarabande Records] (2014) [FLAC]/15 The DrowningVarious Artists - John Wick [Varese Sarabande Records] (2014) [FLAC]/15 The DrowningVarious Artists - John Wick [Varese Sarabande Records] (2014) [FLAC]/15 The Drowning.flac Pre-gap length : 00:01:00
Track gain : -9.33 dB Peak : 0.973175 CRC32 hash (test run) : B0ACA201 CRC32 hash : B0ACA201 CRC32 hash (skip zero) : A7F4B55B AccurateRip v1 signature : 4F14D699 AccurateRip v2 signature : 98444B08 ->Track not present in AccurateRip database. Statistics Read error : 0 Jitter error (maybe fixed) : 0 Retry sector count : 0 Damaged sector count : 0
Track 16 Filename : /Users/JM/Documents/Music RIps/Various Artists - John Wick [Varese Sarabande Records] (2014) [FLAC]/16 ThinkVarious Artists - John Wick [Varese Sarabande Records] (2014) [FLAC]/16 ThinkVarious Artists - John Wick [Varese Sarabande Records] (2014) [FLAC]/16 ThinkVarious Artists - John Wick [Varese Sarabande Records] (2014) [FLAC]/16 Think.flac Pre-gap length : 00:01:00
Track gain : -5.46 dB Peak : 0.817780 CRC32 hash (test run) : B327D927 CRC32 hash : B327D927 CRC32 hash (skip zero) : D752280E AccurateRip v1 signature : 7FC159C2 AccurateRip v2 signature : 33730E37 ->Track not present in AccurateRip database. Statistics Read error : 0 Jitter error (maybe fixed) : 0 Retry sector count : 0 Damaged sector count : 0
Track 17 Filename : /Users/JM/Documents/Music RIps/Various Artists - John Wick [Varese Sarabande Records] (2014) [FLAC]/17 LED SpiralsVarious Artists - John Wick [Varese Sarabande Records] (2014) [FLAC]/17 LED SpiralsVarious Artists - John Wick [Varese Sarabande Records] (2014) [FLAC]/17 LED SpiralsVarious Artists - John Wick [Varese Sarabande Records] (2014) [FLAC]/17 LED Spirals.flac Pre-gap length : 00:01:00
Track gain : -8.97 dB Peak : 0.961914 CRC32 hash (test run) : 31E687FE CRC32 hash : 31E687FE CRC32 hash (skip zero) : A262442A AccurateRip v1 signature : 9ECB5283 AccurateRip v2 signature : DAC1B35D ->Track not present in AccurateRip database. Statistics Read error : 0 Jitter error (maybe fixed) : 0 Retry sector count : 0 Damaged sector count : 0
Track 18 Filename : /Users/JM/Documents/Music RIps/Various Artists - John Wick [Varese Sarabande Records] (2014) [FLAC]/18 Shots FiredVarious Artists - John Wick [Varese Sarabande Records] (2014) [FLAC]/18 Shots FiredVarious Artists - John Wick [Varese Sarabande Records] (2014) [FLAC]/18 Shots FiredVarious Artists - John Wick [Varese Sarabande Records] (2014) [FLAC]/18 Shots Fired.flac Pre-gap length : 00:00:05
Track gain : -8.50 dB Peak : 0.897766 CRC32 hash (test run) : B87E3C51 CRC32 hash : B87E3C51 CRC32 hash (skip zero) : E04930E9 AccurateRip v1 signature : EB1FFC80 AccurateRip v2 signature : B63812DD ->Track not present in AccurateRip database. Statistics Read error : 0 Jitter error (maybe fixed) : 0 Retry sector count : 0 Damaged sector count : 0
Track 19 Filename : /Users/JM/Documents/Music RIps/Various Artists - John Wick [Varese Sarabande Records] (2014) [FLAC]/19 Old Friend MarcusVarious Artists - John Wick [Varese Sarabande Records] (2014) [FLAC]/19 Old Friend MarcusVarious Artists - John Wick [Varese Sarabande Records] (2014) [FLAC]/19 Old Friend MarcusVarious Artists - John Wick [Varese Sarabande Records] (2014) [FLAC]/19 Old Friend Marcus.flac Pre-gap length : 00:01:00
Track gain : -3.03 dB Peak : 0.940155 CRC32 hash (test run) : 10C96768 CRC32 hash : 10C96768 CRC32 hash (skip zero) : 6B5AEA04 AccurateRip v1 signature : BFF3A908 AccurateRip v2 signature : B42C83EC ->Track not present in AccurateRip database. Statistics Read error : 0 Jitter error (maybe fixed) : 0 Retry sector count : 0 Damaged sector count : 0
Track 20 Filename : /Users/JM/Documents/Music RIps/Various Artists - John Wick [Varese Sarabande Records] (2014) [FLAC]/20 Hotel Throw DownVarious Artists - John Wick [Varese Sarabande Records] (2014) [FLAC]/20 Hotel Throw DownVarious Artists - John Wick [Varese Sarabande Records] (2014) [FLAC]/20 Hotel Throw DownVarious Artists - John Wick [Varese Sarabande Records] (2014) [FLAC]/20 Hotel Throw Down.flac Pre-gap length : 00:01:00
Track gain : -8.31 dB Peak : 0.943909 CRC32 hash (test run) : C56E5A28 CRC32 hash : C56E5A28 CRC32 hash (skip zero) : 5B853999 AccurateRip v1 signature : D2740DF9 AccurateRip v2 signature : E20CF49A ->Track not present in AccurateRip database. Statistics Read error : 0 Jitter error (maybe fixed) : 0 Retry sector count : 0 Damaged sector count : 0
Track 21 Filename : /Users/JM/Documents/Music RIps/Various Artists - John Wick [Varese Sarabande Records] (2014) [FLAC]/21 Warehouse Smack DownVarious Artists - John Wick [Varese Sarabande Records] (2014) [FLAC]/21 Warehouse Smack DownVarious Artists - John Wick [Varese Sarabande Records] (2014) [FLAC]/21 Warehouse Smack DownVarious Artists - John Wick [Varese Sarabande Records] (2014) [FLAC]/21 Warehouse Smack Down.flac Pre-gap length : 00:01:00
Track gain : -8.23 dB Peak : 0.943909 CRC32 hash (test run) : 2CF2F1E4 CRC32 hash : 2CF2F1E4 CRC32 hash (skip zero) : 3DF5956D AccurateRip v1 signature : 3115B04C AccurateRip v2 signature : 7906656A ->Track not present in AccurateRip database. Statistics Read error : 0 Jitter error (maybe fixed) : 0 Retry sector count : 0 Damaged sector count : 0
Track 22 Filename : /Users/JM/Documents/Music RIps/Various Artists - John Wick [Varese Sarabande Records] (2014) [FLAC]/22 Who You Talkin' To Man?Various Artists - John Wick [Varese Sarabande Records] (2014) [FLAC]/22 Who You Talkin' To Man?Various Artists - John Wick [Varese Sarabande Records] (2014) [FLAC]/22 Who You Talkin' To Man?Various Artists - John Wick [Varese Sarabande Records] (2014) [FLAC]/22 Who You Talkin' To Man?.flac Pre-gap length : 00:01:00
Track gain : -9.16 dB Peak : 0.943909 CRC32 hash (test run) : CB6DE834 CRC32 hash : CB6DE834 CRC32 hash (skip zero) : 7F867AC4 AccurateRip v1 signature : 377C7944 AccurateRip v2 signature : 94628FAB ->Track not present in AccurateRip database. Statistics Read error : 0 Jitter error (maybe fixed) : 0 Retry sector count : 0 Damaged sector count : 0
Track 23 Filename : /Users/JM/Documents/Music RIps/Various Artists - John Wick [Varese Sarabande Records] (2014) [FLAC]/23 Membership RevokedVarious Artists - John Wick [Varese Sarabande Records] (2014) [FLAC]/23 Membership RevokedVarious Artists - John Wick [Varese Sarabande Records] (2014) [FLAC]/23 Membership RevokedVarious Artists - John Wick [Varese Sarabande Records] (2014) [FLAC]/23 Membership Revoked.flac Pre-gap length : 00:01:00
Track gain : -8.42 dB Peak : 0.955078 CRC32 hash (test run) : 4D4CBB15 CRC32 hash : 4D4CBB15 CRC32 hash (skip zero) : ECC68317 AccurateRip v1 signature : 73ED33E0 AccurateRip v2 signature : 9C5FC35F ->Track not present in AccurateRip database. Statistics Read error : 0 Jitter error (maybe fixed) : 0 Retry sector count : 0 Damaged sector count : 0
Track 24 Filename : /Users/JM/Documents/Music RIps/Various Artists - John Wick [Varese Sarabande Records] (2014) [FLAC]/24 Unfortunate PriestVarious Artists - John Wick [Varese Sarabande Records] (2014) [FLAC]/24 Unfortunate PriestVarious Artists - John Wick [Varese Sarabande Records] (2014) [FLAC]/24 Unfortunate PriestVarious Artists - John Wick [Varese Sarabande Records] (2014) [FLAC]/24 Unfortunate Priest.flac Pre-gap length : 00:00:74
Track gain : -5.80 dB Peak : 0.943909 CRC32 hash (test run) : ECED3440 CRC32 hash : ECED3440 CRC32 hash (skip zero) : C065DA18 AccurateRip v1 signature : 10BE23C9 AccurateRip v2 signature : C31BB23A ->Track not present in AccurateRip database. Statistics Read error : 0 Jitter error (maybe fixed) : 0 Retry sector count : 0 Damaged sector count : 0
Track 25 Filename : /Users/JM/Documents/Music RIps/Various Artists - John Wick [Varese Sarabande Records] (2014) [FLAC]/25 Dock ShootoutVarious Artists - John Wick [Varese Sarabande Records] (2014) [FLAC]/25 Dock ShootoutVarious Artists - John Wick [Varese Sarabande Records] (2014) [FLAC]/25 Dock ShootoutVarious Artists - John Wick [Varese Sarabande Records] (2014) [FLAC]/25 Dock Shootout.flac
Track gain : -7.67 dB Peak : 0.943909 CRC32 hash (test run) : B6936929 CRC32 hash : B6936929 CRC32 hash (skip zero) : E0E5A0B2 AccurateRip v1 signature : D0E9AA74 AccurateRip v2 signature : 1267898A ->Track not present in AccurateRip database. Statistics Read error : 0 Jitter error (maybe fixed) : 0 Retry sector count : 0 Damaged sector count : 0
Track 26 Filename : /Users/JM/Documents/Music RIps/Various Artists - John Wick [Varese Sarabande Records] (2014) [FLAC]/26 No More GunsVarious Artists - John Wick [Varese Sarabande Records] (2014) [FLAC]/26 No More GunsVarious Artists - John Wick [Varese Sarabande Records] (2014) [FLAC]/26 No More GunsVarious Artists - John Wick [Varese Sarabande Records] (2014) [FLAC]/26 No More Guns.flac Pre-gap length : 00:00:74
Track gain : -5.35 dB Peak : 0.943909 CRC32 hash (test run) : F4492D6F CRC32 hash : F4492D6F CRC32 hash (skip zero) : D567223E AccurateRip v1 signature : 05C35388 AccurateRip v2 signature : C5458741 ->Track not present in AccurateRip database. Statistics Read error : 0 Jitter error (maybe fixed) : 0 Retry sector count : 0 Damaged sector count : 0
Track 27 Filename : /Users/JM/Documents/Music RIps/Various Artists - John Wick [Varese Sarabande Records] (2014) [FLAC]/27 Be Seeing YouVarious Artists - John Wick [Varese Sarabande Records] (2014) [FLAC]/27 Be Seeing YouVarious Artists - John Wick [Varese Sarabande Records] (2014) [FLAC]/27 Be Seeing YouVarious Artists - John Wick [Varese Sarabande Records] (2014) [FLAC]/27 Be Seeing You.flac Pre-gap length : 00:00:74
Track gain : -3.84 dB Peak : 0.898010 CRC32 hash (test run) : 8FF38A81 CRC32 hash : 8FF38A81 CRC32 hash (skip zero) : B6C68910 AccurateRip v1 signature : 2D08EA02 AccurateRip v2 signature : F73DEB2E ->Track not present in AccurateRip database. Statistics Read error : 0 Jitter error (maybe fixed) : 0 Retry sector count : 0 Damaged sector count : 0
No errors occurred
End of status report
-----BEGIN XLD SIGNATURE-----OpqCEXUTCkagNlZ0_SXFBx06safhcbrnoptN1EZ.6PPjGphXgTyui_VZhZ_Lb0aou_9vsaF8SnvumFe.02owoml1Knnus8XnXESCKUy-----END XLD SIGNATURE-----

Содержание индексной карты (.CUE)

TITLE "John Wick [Varese Sarabande Records]"CATALOG 0030206730982REM DATE "2014"REM DISCID 950FD71BREM REPLAYGAIN_ALBUM_GAIN -7.69 dBREM REPLAYGAIN_ALBUM_PEAK 0.988586FILE "01 Every Ending Has A Beginning.flac" WAVE TRACK 01 AUDIO TITLE "Every Ending Has A Beginning" PERFORMER "Tyler Bates & Joel J. Richard" ISRC US3M51430901 REM REPLAYGAIN_TRACK_GAIN -3.43 dB REM REPLAYGAIN_TRACK_PEAK 0.943909 INDEX 01 00:00:00 TRACK 02 AUDIO TITLE "Story Of Wick" PERFORMER "Tyler Bates & Joel J. Richard" ISRC US3M51430902 REM REPLAYGAIN_TRACK_GAIN -5.53 dB REM REPLAYGAIN_TRACK_PEAK 0.943909 INDEX 00 01:30:37FILE "02 Story Of Wick.flac" WAVE INDEX 01 00:00:00 TRACK 03 AUDIO TITLE "John Mourns" PERFORMER "Tyler Bates & Joel J. Richard" ISRC US3M51430903 REM REPLAYGAIN_TRACK_GAIN -1.64 dB REM REPLAYGAIN_TRACK_PEAK 0.943909 INDEX 00 03:04:69FILE "03 John Mourns.flac" WAVE INDEX 01 00:00:00 TRACK 04 AUDIO TITLE "Assassins" PERFORMER "Tyler Bates & Joel J. Richard" ISRC US3M51430904 REM REPLAYGAIN_TRACK_GAIN -6.47 dB REM REPLAYGAIN_TRACK_PEAK 0.943909 INDEX 00 02:29:34FILE "04 Assassins.flac" WAVE INDEX 01 00:00:00 TRACK 05 AUDIO TITLE "Dear John" PERFORMER "Tyler Bates & Joel J. Richard" ISRC US3M51430905 REM REPLAYGAIN_TRACK_GAIN 0.57 dB REM REPLAYGAIN_TRACK_PEAK 0.602386 INDEX 00 02:11:42FILE "05 Dear John.flac" WAVE INDEX 01 00:00:00 TRACK 06 AUDIO TITLE "Daisy" PERFORMER "Tyler Bates & Joel J. Richard" ISRC US3M51430906 REM REPLAYGAIN_TRACK_GAIN -2.36 dB REM REPLAYGAIN_TRACK_PEAK 0.673248 INDEX 00 01:48:56FILE "06 Daisy.flac" WAVE INDEX 01 00:00:00 TRACK 07 AUDIO TITLE "Evil Man Blues" PERFORMER "The Candy Shop Boys" ISRC US3M51430907 REM REPLAYGAIN_TRACK_GAIN -7.46 dB REM REPLAYGAIN_TRACK_PEAK 0.943909 INDEX 00 01:28:67FILE "07 Evil Man Blues.flac" WAVE INDEX 01 00:00:00 TRACK 08 AUDIO TITLE "The Red Circle" PERFORMER "Le Castle Vania" ISRC US3M51430908 REM REPLAYGAIN_TRACK_GAIN -7.00 dB REM REPLAYGAIN_TRACK_PEAK 0.988586 INDEX 00 04:20:34FILE "08 The Red Circle.flac" WAVE INDEX 01 00:00:00 TRACK 09 AUDIO TITLE "Lure The Wolf" PERFORMER "Tyler Bates & Joel J. Richard" ISRC US3M51430909 REM REPLAYGAIN_TRACK_GAIN -7.34 dB REM REPLAYGAIN_TRACK_PEAK 0.943909 INDEX 00 00:59:73FILE "09 Lure The Wolf.flac" WAVE INDEX 01 00:00:00 TRACK 10 AUDIO TITLE "Iosef The Terrible" PERFORMER "Tyler Bates & Joel J. Richard" ISRC US3M51430910 REM REPLAYGAIN_TRACK_GAIN -3.83 dB REM REPLAYGAIN_TRACK_PEAK 0.943909 INDEX 00 02:03:74FILE "10 Iosef The Terrible.flac" WAVE INDEX 01 00:00:00 TRACK 11 AUDIO TITLE "Chop Shop" PERFORMER "Tyler Bates & Joel J. Richard" ISRC US3M51430911 REM REPLAYGAIN_TRACK_GAIN -5.07 dB REM REPLAYGAIN_TRACK_PEAK 0.943909 INDEX 00 02:34:18FILE "11 Chop Shop.flac" WAVE INDEX 01 00:00:00 TRACK 12 AUDIO TITLE "Baba Yaga" PERFORMER "Tyler Bates & Joel J. Richard" ISRC US3M51430912 REM REPLAYGAIN_TRACK_GAIN -2.90 dB REM REPLAYGAIN_TRACK_PEAK 0.943909 INDEX 00 02:51:41FILE "12 Baba Yaga.flac" WAVE INDEX 01 00:00:00 TRACK 13 AUDIO TITLE "On The Hunt" PERFORMER "Tyler Bates & Joel J. Richard" ISRC US3M51430913 REM REPLAYGAIN_TRACK_GAIN -5.45 dB REM REPLAYGAIN_TRACK_PEAK 0.943909 INDEX 00 01:45:49FILE "13 On The Hunt.flac" WAVE INDEX 01 00:00:00 TRACK 14 AUDIO TITLE "In My Mind" PERFORMER "M86 & Susie Q" ISRC US3M51430914 REM REPLAYGAIN_TRACK_GAIN -6.11 dB REM REPLAYGAIN_TRACK_PEAK 0.988586 INDEX 00 02:11:29FILE "14 In My Mind.flac" WAVE INDEX 01 00:00:00 TRACK 15 AUDIO TITLE "The Drowning" PERFORMER "Le Castle Vania" ISRC US3M51430915 REM REPLAYGAIN_TRACK_GAIN -9.33 dB REM REPLAYGAIN_TRACK_PEAK 0.973175 INDEX 00 03:06:51FILE "15 The Drowning.flac" WAVE INDEX 01 00:00:00 TRACK 16 AUDIO TITLE "Think" PERFORMER "KALEIDA" ISRC US3M51430916 REM REPLAYGAIN_TRACK_GAIN -5.46 dB REM REPLAYGAIN_TRACK_PEAK 0.817780 INDEX 00 02:24:08FILE "16 Think.flac" WAVE INDEX 01 00:00:00 TRACK 17 AUDIO TITLE "LED Spirals" PERFORMER "Le Castle Vania" ISRC US3M51430917 REM REPLAYGAIN_TRACK_GAIN -8.97 dB REM REPLAYGAIN_TRACK_PEAK 0.961914 INDEX 00 03:58:46FILE "17 LED Spirals.flac" WAVE INDEX 01 00:00:00 TRACK 18 AUDIO TITLE "Shots Fired" PERFORMER "Le Castle Vania" ISRC US3M51430918 REM REPLAYGAIN_TRACK_GAIN -8.50 dB REM REPLAYGAIN_TRACK_PEAK 0.897766 INDEX 00 00:58:35FILE "18 Shots Fired.flac" WAVE INDEX 01 00:00:00 TRACK 19 AUDIO TITLE "Old Friend Marcus" PERFORMER "Tyler Bates & Joel J. Richard" ISRC US3M51430919 REM REPLAYGAIN_TRACK_GAIN -3.03 dB REM REPLAYGAIN_TRACK_PEAK 0.940155 INDEX 00 03:11:30FILE "19 Old Friend Marcus.flac" WAVE INDEX 01 00:00:00 TRACK 20 AUDIO TITLE "Hotel Throw Down" PERFORMER "Tyler Bates & Joel J. Richard" ISRC US3M51430920 REM REPLAYGAIN_TRACK_GAIN -8.31 dB REM REPLAYGAIN_TRACK_PEAK 0.943909 INDEX 00 01:33:04FILE "20 Hotel Throw Down.flac" WAVE INDEX 01 00:00:00 TRACK 21 AUDIO TITLE "Warehouse Smack Down" PERFORMER "Tyler Bates & Joel J. Richard" ISRC US3M51430921 REM REPLAYGAIN_TRACK_GAIN -8.23 dB REM REPLAYGAIN_TRACK_PEAK 0.943909 INDEX 00 02:55:09FILE "21 Warehouse Smack Down.flac" WAVE INDEX 01 00:00:00 TRACK 22 AUDIO TITLE "Who You Talkin' To Man?" PERFORMER "Ciscandra Nostalghia" ISRC US3M51430922 REM REPLAYGAIN_TRACK_GAIN -9.16 dB REM REPLAYGAIN_TRACK_PEAK 0.943909 INDEX 00 02:43:59FILE "22 Who You Talkin' To Man?.flac" WAVE INDEX 01 00:00:00 TRACK 23 AUDIO TITLE "Membership Revoked" PERFORMER "Tyler Bates & Joel J. Richard" ISRC US3M51430923 REM REPLAYGAIN_TRACK_GAIN -8.42 dB REM REPLAYGAIN_TRACK_PEAK 0.955078 INDEX 00 04:41:31FILE "23 Membership Revoked.flac" WAVE INDEX 01 00:00:00 TRACK 24 AUDIO TITLE "Unfortunate Priest" PERFORMER "Tyler Bates & Joel J. Richard" ISRC US3M51430924 REM REPLAYGAIN_TRACK_GAIN -5.80 dB REM REPLAYGAIN_TRACK_PEAK 0.943909 INDEX 00 02:04:31FILE "24 Unfortunate Priest.flac" WAVE INDEX 01 00:00:00FILE "25 Dock Shootout.flac" WAVE TRACK 25 AUDIO TITLE "Dock Shootout" PERFORMER "Tyler Bates & Joel J. Richard" ISRC US3M51430925 REM REPLAYGAIN_TRACK_GAIN -7.67 dB REM REPLAYGAIN_TRACK_PEAK 0.943909 INDEX 01 00:00:00 TRACK 26 AUDIO TITLE "No More Guns" PERFORMER "Tyler Bates & Joel J. Richard" ISRC US3M51430926 REM REPLAYGAIN_TRACK_GAIN -5.35 dB REM REPLAYGAIN_TRACK_PEAK 0.943909 INDEX 00 02:42:14FILE "26 No More Guns.flac" WAVE INDEX 01 00:00:00 TRACK 27 AUDIO TITLE "Be Seeing You" PERFORMER "Tyler Bates & Joel J. Richard" ISRC US3M51430927 REM REPLAYGAIN_TRACK_GAIN -3.84 dB REM REPLAYGAIN_TRACK_PEAK 0.898010 INDEX 00 02:05:25FILE "27 Be Seeing You.flac" WAVE INDEX 01 00:00:00
[teatrix.ru].t10338.torrent 
Торрент: Зарегистрирован [ 2015-11-01 20:51 ] · AF1007A88868BE6122EB5BE87C2053B4C48C48B4

Скачать .torrent

Скачать

17 KB

Статус: проверено
Скачан: 3 раз
Размер: 380 MB
terms.php



Быстрый ответ

Имя:

      
Для отправки сообщений необходимо включить JavaScript
Показать сообщения:    

Текущее время: 07-Дек 23:19

Часовой пояс: UTC + 3


Вы можете начинать темы
Вы можете отвечать на сообщения
Вы не можете редактировать свои сообщения
Вы не можете удалять свои сообщения
Вы не можете голосовать в опросах
Вы не можете прикреплять файлы к сообщениям
Вы можете скачивать файлы