(Score) Такова моя воля / Le bon plaisir (by Georges Delerue) - 2011 (1984), FLAC (image+.cue), lossless


Статистика раздачи [Обновить пиров]
Размер:  419 MB   |    Зарегистрирован:  1 год 1 месяц   |    Скачан:  0 раз

Полного источника не было: Никогда

 
   
 
 
 

[Цитировать]

-Такова моя воля / Le bon plaisir
Composed and Conducted by Georges Delerue
Limited Edition of 1000 Copies
- -Жанр: Score | Дата выпуска: 15 июня 2011
Издатель (лейбл): Music Box Records | Номер по каталогу: MBR-003
Аудиокодек: FLAC | Тип рипа: image+.cue | Битрейт аудио: lossless
Общая продолжительность: 38:58
Источник: Рип оригинального диска из личной коллекции
-
01. Thème du Président [0:56]
02. Générique début [4:32]
03. Thème de Mike [1:08]
04. Voyage en Syldavie [1:20]
05. Chantage / Pierre interroge Claire [1:59]
06. Pollux chez Claire [1:37]
07. La lettre du Président [0:39]
08. Partie d'échecs [1:29]
09. Le portefeuille [3:03]
10. Le complot - 1ère version [2:16]
11. Arrivée au château [0:20]
12. Claire et le Président [2:32]
13. Ballade américaine [1:56]
14. Mort de Pierre [2:11]
15. Marche funèbre [0:45]
16. Le complot - 2ème version [2:16]
17. La bibliothèque de la résidence [2:06]
18. Suicide d'Herbert [2:24]
19. Hymne à l'américaine [0:36]
20. Pierre et Herbert [1:47]
21. Générique fin [3:06]

Лог создания рипа

Exact Audio Copy V1.0 beta 3 from 29. August 2011
EAC extraction logfile from 24. October 2014, 18:07
Georges Delerue / Le bon plaisir
Used drive : TSSTcorpCDDVDW TS-L633C Adapter: 2 ID: 0
Read mode : SecureUtilize accurate stream : YesDefeat audio cache : YesMake use of C2 pointers : No
Read offset correction : 6Overread into Lead-In and Lead-Out : NoFill up missing offset samples with silence : YesDelete leading and trailing silent blocks : NoNull samples used in CRC calculations : YesUsed interface : Native Win32 interface for Win NT & 2000
Used output format : Internal WAV RoutinesSample format : 44.100 Hz; 16 Bit; Stereo
TOC of the extracted CD
Track | Start | Length | Start sector | End sector --------------------------------------------------------- 1 | 0:00.00 | 0:58.63 | 0 | 4412 2 | 0:58.63 | 4:33.37 | 4413 | 24924 3 | 5:32.25 | 1:10.72 | 24925 | 30246 4 | 6:43.22 | 1:21.71 | 30247 | 36392 5 | 8:05.18 | 2:01.45 | 36393 | 45512 6 | 10:06.63 | 1:39.57 | 45513 | 52994 7 | 11:46.45 | 0:41.29 | 52995 | 56098 8 | 12:27.74 | 1:31.70 | 56099 | 62993 9 | 13:59.69 | 3:05.09 | 62994 | 76877 10 | 17:05.03 | 2:18.52 | 76878 | 87279 11 | 19:23.55 | 0:22.61 | 87280 | 88990 12 | 19:46.41 | 2:33.40 | 88991 | 100505 13 | 22:20.06 | 1:58.14 | 100506 | 109369 14 | 24:18.20 | 2:13.12 | 109370 | 119356 15 | 26:31.32 | 0:47.16 | 119357 | 122897 16 | 27:18.48 | 2:17.02 | 122898 | 133174 17 | 29:35.50 | 2:07.67 | 133175 | 142766 18 | 31:43.42 | 2:26.29 | 142767 | 153745 19 | 34:09.71 | 0:38.25 | 153746 | 156620 20 | 34:48.21 | 1:49.39 | 156621 | 164834 21 | 36:37.60 | 3:06.60 | 164835 | 178844
Range status and errors
Selected range
Filename H:\Georges Delerue - CD Collection [by italia57]\Georges Delerue (1984) Le bon plaisir\Georges Delerue - Le bon plaisir (MBR-003).wav
Peak level 76.2 % Extraction speed 3.3 X Range quality 100.0 % Test CRC C59E3E24 Copy CRC C59E3E24 Copy OK
No errors occurred
AccurateRip summary
Track 1 accurately ripped (confidence 5) [2EFCE761] (AR v2)Track 2 accurately ripped (confidence 5) [4075BCB4] (AR v2)Track 3 accurately ripped (confidence 5) [7534104C] (AR v2)Track 4 accurately ripped (confidence 5) [14D0049D] (AR v2)Track 5 accurately ripped (confidence 5) [226A04FE] (AR v2)Track 6 accurately ripped (confidence 5) [0BB1819C] (AR v2)Track 7 accurately ripped (confidence 5) [0F5FEBC4] (AR v2)Track 8 accurately ripped (confidence 5) [4291A7C7] (AR v2)Track 9 accurately ripped (confidence 5) [09210D31] (AR v2)Track 10 accurately ripped (confidence 5) [567C86D5] (AR v2)Track 11 accurately ripped (confidence 5) [933732E0] (AR v2)Track 12 accurately ripped (confidence 5) [84895183] (AR v2)Track 13 accurately ripped (confidence 5) [FD187146] (AR v2)Track 14 accurately ripped (confidence 5) [B01AC6E1] (AR v2)Track 15 accurately ripped (confidence 5) [6BE57E13] (AR v2)Track 16 accurately ripped (confidence 5) [E420FD73] (AR v2)Track 17 accurately ripped (confidence 5) [A5C8CB50] (AR v2)Track 18 accurately ripped (confidence 5) [1CD33D46] (AR v2)Track 19 accurately ripped (confidence 5) [7BD242A4] (AR v2)Track 20 accurately ripped (confidence 5) [5EB44543] (AR v2)Track 21 accurately ripped (confidence 5) [7D50BA18] (AR v2)
All tracks accurately ripped
End of status report
---- CUETools DB Plugin V2.1.4
[CTDB TOCID: D4Y5lx9vdBSQdWt4ybrF.jfFXXU-] foundSubmit result: D4Y5lx9vdBSQdWt4ybrF.jfFXXU- has been confirmedTrack | CTDB Status 1 | (5/5) Accurately ripped 2 | (5/5) Accurately ripped 3 | (5/5) Accurately ripped 4 | (5/5) Accurately ripped 5 | (5/5) Accurately ripped 6 | (5/5) Accurately ripped 7 | (5/5) Accurately ripped 8 | (5/5) Accurately ripped 9 | (5/5) Accurately ripped 10 | (5/5) Accurately ripped 11 | (5/5) Accurately ripped 12 | (5/5) Accurately ripped 13 | (5/5) Accurately ripped 14 | (5/5) Accurately ripped 15 | (5/5) Accurately ripped 16 | (5/5) Accurately ripped 17 | (5/5) Accurately ripped 18 | (5/5) Accurately ripped 19 | (5/5) Accurately ripped 20 | (5/5) Accurately ripped 21 | (5/5) Accurately ripped
==== Log checksum A54D07E45FABC48D7E94A040968C67A1F0460BA8FDBC65B43CE7B3BE5F4B223F ====

Содержание индексной карты (.CUE)

REM GENRE SoundtrackREM DATE 1984REM DISCID 15095015REM COMMENT "ExactAudioCopy v1.0b3"PERFORMER "Georges Delerue"TITLE "Le bon plaisir"FILE "Georges Delerue - Le bon plaisir (MBR-003).flac" WAVE TRACK 01 AUDIO TITLE "Theme du President" PERFORMER "Georges Delerue" INDEX 01 00:00:00 TRACK 02 AUDIO TITLE "Generique debut" PERFORMER "Georges Delerue" INDEX 00 00:56:63 INDEX 01 00:58:63 TRACK 03 AUDIO TITLE "Theme de Mike" PERFORMER "Georges Delerue" INDEX 00 05:31:25 INDEX 01 05:32:25 TRACK 04 AUDIO TITLE "Voyage en Syldavie" PERFORMER "Georges Delerue" INDEX 00 06:41:22 INDEX 01 06:43:22 TRACK 05 AUDIO TITLE "Chantage - Pierre interroge Claire" PERFORMER "Georges Delerue" INDEX 00 08:04:18 INDEX 01 08:05:18 TRACK 06 AUDIO TITLE "Pollux chez Claire" PERFORMER "Georges Delerue" INDEX 00 10:04:63 INDEX 01 10:06:63 TRACK 07 AUDIO TITLE "La lettre du President" PERFORMER "Georges Delerue" INDEX 00 11:44:45 INDEX 01 11:46:45 TRACK 08 AUDIO TITLE "Partie d'echecs" PERFORMER "Georges Delerue" INDEX 00 12:25:74 INDEX 01 12:27:74 TRACK 09 AUDIO TITLE "Le Portefeuille" PERFORMER "Georges Delerue" INDEX 00 13:57:39 INDEX 01 13:59:69 TRACK 10 AUDIO TITLE "Le complot - 1ere Version" PERFORMER "Georges Delerue" INDEX 00 17:03:03 INDEX 01 17:05:03 TRACK 11 AUDIO TITLE "Arrivee au chateau" PERFORMER "Georges Delerue" INDEX 00 19:21:55 INDEX 01 19:23:55 TRACK 12 AUDIO TITLE "Claire et le President" PERFORMER "Georges Delerue" INDEX 00 19:44:41 INDEX 01 19:46:41 TRACK 13 AUDIO TITLE "Ballade americaine" PERFORMER "Georges Delerue" INDEX 00 22:18:65 INDEX 01 22:20:06 TRACK 14 AUDIO TITLE "Mort de Pierre" PERFORMER "Georges Delerue" INDEX 00 24:16:20 INDEX 01 24:18:20 TRACK 15 AUDIO TITLE "Marche funebre" PERFORMER "Georges Delerue" INDEX 00 26:29:32 INDEX 01 26:31:32 TRACK 16 AUDIO TITLE "Le complot - 2eme Version" PERFORMER "Georges Delerue" INDEX 00 27:16:48 INDEX 01 27:18:48 TRACK 17 AUDIO TITLE "La bibliotheque de la residence" PERFORMER "Georges Delerue" INDEX 00 29:34:50 INDEX 01 29:35:50 TRACK 18 AUDIO TITLE "Suicide d'Herbert" PERFORMER "Georges Delerue" INDEX 00 31:42:42 INDEX 01 31:43:42 TRACK 19 AUDIO TITLE "Hymne a l'americaine" PERFORMER "Georges Delerue" INDEX 00 34:07:71 INDEX 01 34:09:71 TRACK 20 AUDIO TITLE "Pierre et Herbert" PERFORMER "Georges Delerue" INDEX 00 34:46:21 INDEX 01 34:48:21 TRACK 21 AUDIO TITLE "Generique fin" PERFORMER "Georges Delerue" INDEX 00 36:35:60 INDEX 01 36:37:60
[teatrix.ru].t10339.torrent 
Торрент: Зарегистрирован [ 2015-11-01 20:51 ] · 96FC5DD1813A8B0FC5E180B4B02F5E9F72A8CE6B

Скачать .torrent

Скачать

18 KB

Статус: проверено
Скачан: 0 раз
Размер: 419 MB
terms.php



Быстрый ответ

Имя:

      
Для отправки сообщений необходимо включить JavaScript
Показать сообщения:    

Текущее время: 09-Дек 12:46

Часовой пояс: UTC + 3


Вы можете начинать темы
Вы можете отвечать на сообщения
Вы не можете редактировать свои сообщения
Вы не можете удалять свои сообщения
Вы не можете голосовать в опросах
Вы не можете прикреплять файлы к сообщениям
Вы можете скачивать файлы