(Score) Жюль и Джим / Jules et Jim || Две англичанки и Континент / Les deux Anglaises et le Сontinent (by Georges Delerue) [Écoutez Le Cinéma!] - 2008 (1961, 1971), FLAC (image+.cue), lossless


Статистика раздачи [Обновить пиров]
Размер:  568 MB   |    Зарегистрирован:  1 год 1 месяц   |    Скачан:  0 раз

Полного источника не было: Никогда

Личеров:  1  [  0 KB/s  ]   Подробная статистика пиров
 
   
 
 
 

[Цитировать]

-Жюль и Джим / Jules et Jim
Две англичанки и Континент / Les deux Anglaises et le Сontinent

Composed and Conducted by Georges Delerue
- -Жанр: Score | Дата выпуска: 2008
Издатель (лейбл): Universal Music France | Номер по каталогу: 530 846 3
Аудиокодек: FLAC | Тип рипа: image+.cue | Битрейт аудио: lossless
Общая продолжительность: 59:33
Источник: Рип оригинального диска из личной коллекции
-
★★ Jules et Jim ★★ (1961)
01. Jules et Jim [1:52]
02. Vacances [2:45]
03. Le tourbillon (par Jeanne Moreau) [2:04]
04. Retrouvailles à l'Auberge de la Bécasse [3:07]
05. Brouillard (version I) [2:01]
06. Jules et Thérése [2:19]
07. Confession au clair de lune [4:16]
08. La terre promise [1:27]
09. Rixe [2:34]
10. Brouillard (version II) [2:34]
11. Jim et Catherine [2:40]
12. Le cimetiére [2:29]
★★ Les deux anglaises et le Continent ★★ (1971)
13. Anne et Claude au musée [2:28]
14. La séparation / La déclaration d'amour [3:01]
15. La passion de Muriel [1:02]
16. Prologue [2:19]
17. Anne et Claude [2:05]
18. Muriel / Le désespoir [4:22]
19. Les retrouvailles / Le baiser à la religieuse [1:48]
20. Muriel et Claude [1:31]
21. Une petite île [1:32]
22. Le voyage en Perse [1:36]
23. La rupture [2:19]
24. Epilogue [3:44]

Лог создания рипа

Exact Audio Copy V1.0 beta 3 from 29. August 2011
EAC extraction logfile from 20. December 2014, 12:09
Georges Delerue / Jules et Jim + Les deux anglaises et le Continent
Used drive : TSSTcorpCDDVDW TS-L633C Adapter: 2 ID: 0
Read mode : SecureUtilize accurate stream : YesDefeat audio cache : YesMake use of C2 pointers : No
Read offset correction : 6Overread into Lead-In and Lead-Out : NoFill up missing offset samples with silence : YesDelete leading and trailing silent blocks : NoNull samples used in CRC calculations : YesUsed interface : Native Win32 interface for Win NT & 2000
Used output format : Internal WAV RoutinesSample format : 44.100 Hz; 16 Bit; Stereo
TOC of the extracted CD
Track | Start | Length | Start sector | End sector --------------------------------------------------------- 1 | 0:00.00 | 1:56.46 | 0 | 8745 2 | 1:56.46 | 2:48.28 | 8746 | 21373 3 | 4:44.74 | 2:07.53 | 21374 | 30951 4 | 6:52.52 | 3:12.08 | 30952 | 45359 5 | 10:04.60 | 2:04.65 | 45360 | 54724 6 | 12:09.50 | 2:22.23 | 54725 | 65397 7 | 14:31.73 | 4:20.48 | 65398 | 84945 8 | 18:52.46 | 1:31.37 | 84946 | 91807 9 | 20:24.08 | 2:37.46 | 91808 | 103628 10 | 23:01.54 | 2:38.69 | 103629 | 115547 11 | 25:40.48 | 2:42.11 | 115548 | 127708 12 | 28:22.59 | 2:37.10 | 127709 | 139493 13 | 30:59.69 | 2:33.14 | 139494 | 150982 14 | 33:33.08 | 3:04.45 | 150983 | 164827 15 | 36:37.53 | 1:06.03 | 164828 | 169780 16 | 37:43.56 | 2:24.01 | 169781 | 180581 17 | 40:07.57 | 2:10.01 | 180582 | 190332 18 | 42:17.58 | 4:26.33 | 190333 | 210315 19 | 46:44.16 | 1:53.03 | 210316 | 218793 20 | 48:37.19 | 1:36.50 | 218794 | 226043 21 | 50:13.69 | 1:38.36 | 226044 | 233429 22 | 51:52.30 | 1:40.40 | 233430 | 240969 23 | 53:32.70 | 2:24.10 | 240970 | 251779 24 | 55:57.05 | 3:45.44 | 251780 | 268698
Range status and errors
Selected range
Filename H:\Georges Delerue - CD Collection [by italia57]\Georges Delerue (1961) Jules et Jim\Georges Delerue - Jules et Jim + Les deux anglaises et le Continent (ELC 49).wav
Peak level 100.0 % Extraction speed 1.4 X Range quality 100.0 % Test CRC E49BDDD7 Copy CRC E49BDDD7 Copy OK
No errors occurred
AccurateRip summary
Track 1 accurately ripped (confidence 5) [BD83AAB0] (AR v2)Track 2 accurately ripped (confidence 5) [52A9D990] (AR v2)Track 3 accurately ripped (confidence 5) [BC8D223F] (AR v2)Track 4 accurately ripped (confidence 5) [157C4EB7] (AR v2)Track 5 accurately ripped (confidence 5) [591F9CEE] (AR v2)Track 6 accurately ripped (confidence 5) [24AFFC67] (AR v2)Track 7 accurately ripped (confidence 5) [C03DD13C] (AR v2)Track 8 accurately ripped (confidence 5) [E8F75389] (AR v2)Track 9 accurately ripped (confidence 5) [269D12B4] (AR v2)Track 10 accurately ripped (confidence 5) [CD06CFC5] (AR v2)Track 11 accurately ripped (confidence 5) [3F5D3362] (AR v2)Track 12 accurately ripped (confidence 5) [C03D3ADD] (AR v2)Track 13 accurately ripped (confidence 5) [8EFD8DCC] (AR v2)Track 14 accurately ripped (confidence 5) [1F06EB7B] (AR v2)Track 15 accurately ripped (confidence 4) [EF964AB8] (AR v2)Track 16 accurately ripped (confidence 4) [3C4E87A1] (AR v2)Track 17 accurately ripped (confidence 5) [CA567C94] (AR v2)Track 18 accurately ripped (confidence 5) [E941C724] (AR v2)Track 19 accurately ripped (confidence 5) [01A2975F] (AR v2)Track 20 accurately ripped (confidence 5) [7A37DD4A] (AR v2)Track 21 accurately ripped (confidence 5) [5CA32B78] (AR v2)Track 22 accurately ripped (confidence 5) [414E8553] (AR v2)Track 23 accurately ripped (confidence 5) [3B00BA26] (AR v2)Track 24 accurately ripped (confidence 5) [10519660] (AR v2)
All tracks accurately ripped
End of status report
---- CUETools DB Plugin V2.1.4
[CTDB TOCID: gfOZubZOwnFPi1yU.0X6enSqmrk-] foundSubmit result: gfOZubZOwnFPi1yU.0X6enSqmrk- has been confirmedTrack | CTDB Status 1 | (3/3) Accurately ripped 2 | (3/3) Accurately ripped 3 | (3/3) Accurately ripped 4 | (3/3) Accurately ripped 5 | (3/3) Accurately ripped 6 | (3/3) Accurately ripped 7 | (3/3) Accurately ripped 8 | (3/3) Accurately ripped 9 | (3/3) Accurately ripped 10 | (3/3) Accurately ripped 11 | (3/3) Accurately ripped 12 | (3/3) Accurately ripped 13 | (3/3) Accurately ripped 14 | (3/3) Accurately ripped 15 | (2/3) Accurately ripped 16 | (2/3) Accurately ripped 17 | (3/3) Accurately ripped 18 | (3/3) Accurately ripped 19 | (3/3) Accurately ripped 20 | (3/3) Accurately ripped 21 | (3/3) Accurately ripped 22 | (3/3) Accurately ripped 23 | (3/3) Accurately ripped 24 | (3/3) Accurately ripped
==== Log checksum 89819C6BCD6BAAF77D2BB31AD6610512352DBB00B40CDEFF2CBE911375D2C5CE ====

Содержание индексной карты (.CUE)

REM GENRE SoundtrackREM DATE 1961REM DISCID 3D0DFE18REM COMMENT "ExactAudioCopy v1.0b3"PERFORMER "Georges Delerue"TITLE "Jules et Jim + Les deux anglaises et le Continent"FILE "Georges Delerue - Jules et Jim + Les deux anglaises et le Continent (ELC 49).flac" WAVE TRACK 01 AUDIO TITLE "Jules et Jim" PERFORMER "Georges Delerue" INDEX 01 00:00:00 TRACK 02 AUDIO TITLE "Vacances" PERFORMER "Georges Delerue" INDEX 00 01:53:01 INDEX 01 01:56:46 TRACK 03 AUDIO TITLE "Le tourbillon (par Jeanne Moreau)" PERFORMER "Georges Delerue" INDEX 00 04:42:74 INDEX 01 04:44:74 TRACK 04 AUDIO TITLE "Retrouvailles a l'auberge de la becasse" PERFORMER "Georges Delerue" INDEX 00 06:50:52 INDEX 01 06:52:52 TRACK 05 AUDIO TITLE "Brouillard (version I)" PERFORMER "Georges Delerue" INDEX 00 10:01:45 INDEX 01 10:04:60 TRACK 06 AUDIO TITLE "Jules et Therese" PERFORMER "Georges Delerue" INDEX 00 12:07:50 INDEX 01 12:09:50 TRACK 07 AUDIO TITLE "Confession au clair de lune" PERFORMER "Georges Delerue" INDEX 00 14:30:00 INDEX 01 14:31:73 TRACK 08 AUDIO TITLE "La terre promise" PERFORMER "Georges Delerue" INDEX 00 18:49:46 INDEX 01 18:52:46 TRACK 09 AUDIO TITLE "Rixe" PERFORMER "Georges Delerue" INDEX 00 20:21:08 INDEX 01 20:24:08 TRACK 10 AUDIO TITLE "Brouillard (version II)" PERFORMER "Georges Delerue" INDEX 00 22:59:54 INDEX 01 23:01:54 TRACK 11 AUDIO TITLE "Jim et Catherine" PERFORMER "Georges Delerue" INDEX 00 25:37:18 INDEX 01 25:40:48 TRACK 12 AUDIO TITLE "Le cimetiere" PERFORMER "Georges Delerue" INDEX 00 28:21:59 INDEX 01 28:22:59 TRACK 13 AUDIO TITLE "Anne et Claude au musee" PERFORMER "Georges Delerue" INDEX 00 30:53:20 INDEX 01 30:59:69 TRACK 14 AUDIO TITLE "La separation / La declaration d'amour" PERFORMER "Georges Delerue" INDEX 00 33:29:43 INDEX 01 33:33:08 TRACK 15 AUDIO TITLE "La passion de Muriel" PERFORMER "Georges Delerue" INDEX 00 36:35:53 INDEX 01 36:37:53 TRACK 16 AUDIO TITLE "Prologue" PERFORMER "Georges Delerue" INDEX 00 37:41:06 INDEX 01 37:43:56 TRACK 17 AUDIO TITLE "Anne et Claude" PERFORMER "Georges Delerue" INDEX 00 40:04:37 INDEX 01 40:07:57 TRACK 18 AUDIO TITLE "Muriel / Le desespoir" PERFORMER "Georges Delerue" INDEX 00 42:13:58 INDEX 01 42:17:58 TRACK 19 AUDIO TITLE "Les retrouvailles / Le baiser a la religieuse" PERFORMER "Georges Delerue" INDEX 00 46:41:41 INDEX 01 46:44:16 TRACK 20 AUDIO TITLE "Muriel et Claude" PERFORMER "Georges Delerue" INDEX 00 48:33:34 INDEX 01 48:37:19 TRACK 21 AUDIO TITLE "Une petite ile" PERFORMER "Georges Delerue" INDEX 00 50:10:09 INDEX 01 50:13:69 TRACK 22 AUDIO TITLE "Le voyage en Perse" PERFORMER "Georges Delerue" INDEX 00 51:47:55 INDEX 01 51:52:30 TRACK 23 AUDIO TITLE "La rupture" PERFORMER "Georges Delerue" INDEX 00 53:29:20 INDEX 01 53:32:70 TRACK 24 AUDIO TITLE "Epilogue" PERFORMER "Georges Delerue" INDEX 00 55:53:30 INDEX 01 55:57:05
Сам фильм BDRemux - http://teatrix.ru/viewtopic.php?t=6690
[teatrix.ru].t10340.torrent 
Торрент: Зарегистрирован [ 2015-11-01 20:51 ] · 474A909376660108A2507306F591B18E2240D82C

Скачать .torrent

Скачать

25 KB

Статус: проверено
Скачан: 0 раз
Размер: 568 MB
terms.php



Быстрый ответ

Имя:

      
Для отправки сообщений необходимо включить JavaScript
Показать сообщения:    

Текущее время: 09-Дек 20:33

Часовой пояс: UTC + 3


Вы можете начинать темы
Вы можете отвечать на сообщения
Вы не можете редактировать свои сообщения
Вы не можете удалять свои сообщения
Вы не можете голосовать в опросах
Вы не можете прикреплять файлы к сообщениям
Вы можете скачивать файлы