(Score/MF) Город героев / Big Hero 6 (by Henry Jackman) - 2014, FLAC (tracks+.cue) lossless


Статистика раздачи [Обновить пиров]
Размер:  285 MB   |    Зарегистрирован:  1 год 1 месяц   |    Скачан:  1 раз

Полного источника не было: 3 месяца 16 дней

 
   
 
 
 

[Цитировать]

Город героев / Big Hero 6
Жанр: Score
Композитор: Henry Jackman
Год выпуска диска: 2014
Страна-производитель диска: US
Издатель (лейбл): Walt Disney Records
Номер по каталогу: D002118502
Аудиокодек: FLAC
Тип рипа: tracks+.cue
Битрейт аудио: lossless
Продолжительность: 00:54:15
Источник: lztr
Наличие сканов в содержимом раздачи: да (только обложки)
ID3-теги: да
Треклист:
01. Fall Out Boy - Immortals (3:15) [1007 Kb/s]
02. Henry Jackman - Hiro Hamada (1:57) [778 Kb/s]
03. Henry Jackman - Nerd School (2:13) [705 Kb/s]
04. Henry Jackman - Microbots (1:47) [824 Kb/s]
05. Henry Jackman - Tadashi (1:47) [476 Kb/s]
06. Henry Jackman - Inflatable Friend (1:57) [545 Kb/s]
07. Henry Jackman - Huggable Detective (1:35) [789 Kb/s]
08. Henry Jackman - The Masked Man (1:29) [886 Kb/s]
09. Henry Jackman - One Of The Family (1:49) [530 Kb/s]
10. Henry Jackman - Upgrades (2:27) [787 Kb/s]
11. Henry Jackman - The Streets Of San Fransokyo (4:08) [799 Kb/s]
12. Henry Jackman - To The Manor Born (1:16) [575 Kb/s]
13. Henry Jackman - So Much More (3:02) [711 Kb/s]
14. Henry Jackman - First Flight (2:36) [843 Kb/s]
15. Henry Jackman - Silent Sparrow (4:40) [627 Kb/s]
16. Henry Jackman - Family Reunion (2:39) [540 Kb/s]
17. Henry Jackman - Big Hero 6 (6:58) [849 Kb/s]
18. Henry Jackman - I Am Satisfied With My Care (5:30) [699 Kb/s]
19. Henry Jackman - Signs Of Life (1:14) [608 Kb/s]
20. Henry Jackman - Reboot (1:49) [728 Kb/s]

LOG EAC:

Exact Audio Copy V1.0 beta 3 from 29. August 2011
EAC extraction logfile from 17. December 2014, 13:58
Henry Jackman / Big Hero 6 (Original Motion Picture Soundtrack)
Used drive : hp DVD RAM UJ8C2 Adapter: 0 ID: 0
Read mode : SecureUtilize accurate stream : YesDefeat audio cache : YesMake use of C2 pointers : No
Read offset correction : 103Overread into Lead-In and Lead-Out : NoFill up missing offset samples with silence : YesDelete leading and trailing silent blocks : NoNull samples used in CRC calculations : YesUsed interface : Native Win32 interface for Win NT & 2000Gap handling : Appended to previous track
Used output format : User Defined EncoderSelected bitrate : 1024 kBit/sQuality : HighAdd ID3 tag : NoCommand line compressor : C:\Program Files (x86)\Exact Audio Copy\Flac\flac.exeAdditional command line options : -8 -V -T "ARTIST=%artist%" -T "TITLE=%title%" -T "ALBUM=%albumtitle%" -T "DATE=%year%" -T "TRACKNUMBER=%tracknr%" -T "GENRE=%genre%" -T "PERFORMER=%albuminterpret%" -T "COMPOSER=%composer%" %haslyrics%--tag-from-file=LYRICS="%lyricsfile%"%haslyrics% -T "ALBUMARTIST=%albumartist%" -T "DISCNUMBER=%cdnumber%" -T "TOTALDISCS=%totalcds%" -T "TOTALTRACKS=%numtracks%" -T "COMMENT=%comment%" %source% -o %dest%
TOC of the extracted CD
Track | Start | Length | Start sector | End sector --------------------------------------------------------- 1 | 0:00.00 | 3:15.02 | 0 | 14626 2 | 3:15.02 | 1:57.26 | 14627 | 23427 3 | 5:12.28 | 2:12.64 | 23428 | 33391 4 | 7:25.17 | 1:46.48 | 33392 | 41389 5 | 9:11.65 | 1:46.45 | 41390 | 49384 6 | 10:58.35 | 1:56.60 | 49385 | 58144 7 | 12:55.20 | 1:35.29 | 58145 | 65298 8 | 14:30.49 | 1:29.12 | 65299 | 71985 9 | 15:59.61 | 1:49.19 | 71986 | 80179 10 | 17:49.05 | 2:27.16 | 80180 | 91220 11 | 20:16.21 | 4:08.20 | 91221 | 109840 12 | 24:24.41 | 1:15.52 | 109841 | 115517 13 | 25:40.18 | 3:01.43 | 115518 | 129135 14 | 28:41.61 | 2:35.47 | 129136 | 140807 15 | 31:17.33 | 4:39.56 | 140808 | 161788 16 | 35:57.14 | 2:39.15 | 161789 | 173728 17 | 38:36.29 | 6:57.67 | 173729 | 205070 18 | 45:34.21 | 5:29.39 | 205071 | 229784 19 | 51:03.60 | 1:14.12 | 229785 | 235346 20 | 52:17.72 | 1:48.39 | 235347 | 243485
Track 1
Filename C:\EAC Rips\Big Hero 6 (Original Motion Picture Soundtrack) [FLAC]\01 - Fall Out Boy - Immortals.wav
Pre-gap length 0:00:02.00
Peak level 95.2 % Extraction speed 2.4 X Track quality 100.0 % Test CRC 6B1139AC Copy CRC 6B1139AC Track not present in AccurateRip database Copy OK
Track 2
Filename C:\EAC Rips\Big Hero 6 (Original Motion Picture Soundtrack) [FLAC]\02 - Henry Jackman - Hiro Hamada.wav
Peak level 97.7 % Extraction speed 2.3 X Track quality 100.0 % Test CRC 96F2059D Copy CRC 96F2059D Track not present in AccurateRip database Copy OK
Track 3
Filename C:\EAC Rips\Big Hero 6 (Original Motion Picture Soundtrack) [FLAC]\03 - Henry Jackman - Nerd School.wav
Peak level 97.7 % Extraction speed 2.5 X Track quality 100.0 % Test CRC FC4EAF27 Copy CRC FC4EAF27 Track not present in AccurateRip database Copy OK
Track 4
Filename C:\EAC Rips\Big Hero 6 (Original Motion Picture Soundtrack) [FLAC]\04 - Henry Jackman - Microbots.wav
Peak level 98.8 % Extraction speed 2.4 X Track quality 100.0 % Test CRC 451CE1B7 Copy CRC 451CE1B7 Track not present in AccurateRip database Copy OK
Track 5
Filename C:\EAC Rips\Big Hero 6 (Original Motion Picture Soundtrack) [FLAC]\05 - Henry Jackman - Tadashi.wav
Peak level 96.2 % Extraction speed 1.5 X Track quality 99.9 % Test CRC E3FD3417 Copy CRC E3FD3417 Track not present in AccurateRip database Copy OK
Track 6
Filename C:\EAC Rips\Big Hero 6 (Original Motion Picture Soundtrack) [FLAC]\06 - Henry Jackman - Inflatable Friend.wav
Peak level 97.7 % Extraction speed 2.7 X Track quality 100.0 % Test CRC DC7EDA50 Copy CRC DC7EDA50 Track not present in AccurateRip database Copy OK
Track 7
Filename C:\EAC Rips\Big Hero 6 (Original Motion Picture Soundtrack) [FLAC]\07 - Henry Jackman - Huggable Detective.wav
Peak level 97.7 % Extraction speed 2.6 X Track quality 100.0 % Test CRC E435F419 Copy CRC E435F419 Track not present in AccurateRip database Copy OK
Track 8
Filename C:\EAC Rips\Big Hero 6 (Original Motion Picture Soundtrack) [FLAC]\08 - Henry Jackman - The Masked Man.wav
Peak level 97.7 % Extraction speed 2.6 X Track quality 100.0 % Test CRC 340172D4 Copy CRC 340172D4 Track not present in AccurateRip database Copy OK
Track 9
Filename C:\EAC Rips\Big Hero 6 (Original Motion Picture Soundtrack) [FLAC]\09 - Henry Jackman - One Of The Family.wav
Peak level 45.0 % Extraction speed 2.8 X Track quality 100.0 % Test CRC 1BDD0A6B Copy CRC 1BDD0A6B Track not present in AccurateRip database Copy OK
Track 10
Filename C:\EAC Rips\Big Hero 6 (Original Motion Picture Soundtrack) [FLAC]\10 - Henry Jackman - Upgrades.wav
Peak level 98.8 % Extraction speed 3.1 X Track quality 100.0 % Test CRC 34F6765D Copy CRC 34F6765D Track not present in AccurateRip database Copy OK
Track 11
Filename C:\EAC Rips\Big Hero 6 (Original Motion Picture Soundtrack) [FLAC]\11 - Henry Jackman - The Streets Of San Fransokyo.wav
Peak level 98.8 % Extraction speed 3.5 X Track quality 100.0 % Test CRC 8AA295CB Copy CRC 8AA295CB Track not present in AccurateRip database Copy OK
Track 12
Filename C:\EAC Rips\Big Hero 6 (Original Motion Picture Soundtrack) [FLAC]\12 - Henry Jackman - To The Manor Born.wav
Peak level 97.7 % Extraction speed 1.5 X Track quality 99.8 % Test CRC 9AD41ACA Copy CRC 9AD41ACA Track not present in AccurateRip database Copy OK
Track 13
Filename C:\EAC Rips\Big Hero 6 (Original Motion Picture Soundtrack) [FLAC]\13 - Henry Jackman - So Much More.wav
Peak level 98.8 % Extraction speed 2.5 X Track quality 99.9 % Test CRC 56314338 Copy CRC 56314338 Track not present in AccurateRip database Copy OK
Track 14
Filename C:\EAC Rips\Big Hero 6 (Original Motion Picture Soundtrack) [FLAC]\14 - Henry Jackman - First Flight.wav
Peak level 98.5 % Extraction speed 3.6 X Track quality 100.0 % Test CRC D3785CDB Copy CRC D3785CDB Track not present in AccurateRip database Copy OK
Track 15
Filename C:\EAC Rips\Big Hero 6 (Original Motion Picture Soundtrack) [FLAC]\15 - Henry Jackman - Silent Sparrow.wav
Peak level 98.8 % Extraction speed 4.0 X Track quality 100.0 % Test CRC ED0388FA Copy CRC ED0388FA Track not present in AccurateRip database Copy OK
Track 16
Filename C:\EAC Rips\Big Hero 6 (Original Motion Picture Soundtrack) [FLAC]\16 - Henry Jackman - Family Reunion.wav
Peak level 75.0 % Extraction speed 3.8 X Track quality 100.0 % Test CRC 582C935B Copy CRC 582C935B Track not present in AccurateRip database Copy OK
Track 17
Filename C:\EAC Rips\Big Hero 6 (Original Motion Picture Soundtrack) [FLAC]\17 - Henry Jackman - Big Hero 6.wav
Peak level 98.8 % Extraction speed 4.5 X Track quality 100.0 % Test CRC 133B01B6 Copy CRC 133B01B6 Track not present in AccurateRip database Copy OK
Track 18
Filename C:\EAC Rips\Big Hero 6 (Original Motion Picture Soundtrack) [FLAC]\18 - Henry Jackman - I Am Satisfied With My Care.wav
Peak level 98.8 % Extraction speed 4.6 X Track quality 100.0 % Test CRC 58F49632 Copy CRC 58F49632 Track not present in AccurateRip database Copy OK
Track 19
Filename C:\EAC Rips\Big Hero 6 (Original Motion Picture Soundtrack) [FLAC]\19 - Henry Jackman - Signs Of Life.wav
Peak level 97.7 % Extraction speed 3.4 X Track quality 100.0 % Test CRC 83AAB9BA Copy CRC 83AAB9BA Track not present in AccurateRip database Copy OK
Track 20
Filename C:\EAC Rips\Big Hero 6 (Original Motion Picture Soundtrack) [FLAC]\20 - Henry Jackman - Reboot.wav
Peak level 98.8 % Extraction speed 3.9 X Track quality 100.0 % Test CRC B4D05D07 Copy CRC B4D05D07 Track not present in AccurateRip database Copy OK
None of the tracks are present in the AccurateRip database
No errors occurred
End of status report
---- CUETools DB Plugin V2.1.3
[CTDB TOCID: 6_JiFdo7TeacUHm3CaZ_q9oQHmw-] disk not present in database, Submit result: 6_JiFdo7TeacUHm3CaZ_q9oQHmw- has been uploaded
==== Log checksum B5E5D0FEB6B01A0B5C15872256AE83D6649F87BAA24BECB4982C53EAD45EC67D ====

LOG (.CUE):

REM GENRE SoundtrackREM DATE 2014REM DISCID 210CAE14REM COMMENT "ExactAudioCopy v1.0b3"CATALOG 0050087317379PERFORMER "Henry Jackman"TITLE "Big Hero 6 (Original Motion Picture Soundtrack)"FILE "01 - Fall Out Boy - Immortals.wav" WAVE TRACK 01 AUDIO TITLE "Immortals" PERFORMER "Fall Out Boy" ISRC USWD11469080 INDEX 01 00:00:00FILE "02 - Henry Jackman - Hiro Hamada.wav" WAVE TRACK 02 AUDIO TITLE "Hiro Hamada" PERFORMER "Henry Jackman" ISRC USWD11469128 INDEX 01 00:00:00FILE "03 - Henry Jackman - Nerd School.wav" WAVE TRACK 03 AUDIO TITLE "Nerd School" PERFORMER "Henry Jackman" ISRC USWD11469129 INDEX 01 00:00:00FILE "04 - Henry Jackman - Microbots.wav" WAVE TRACK 04 AUDIO TITLE "Microbots" PERFORMER "Henry Jackman" ISRC USWD11469130 INDEX 01 00:00:00FILE "05 - Henry Jackman - Tadashi.wav" WAVE TRACK 05 AUDIO TITLE "Tadashi" PERFORMER "Henry Jackman" ISRC USWD11469131 INDEX 01 00:00:00FILE "06 - Henry Jackman - Inflatable Friend.wav" WAVE TRACK 06 AUDIO TITLE "Inflatable Friend" PERFORMER "Henry Jackman" ISRC USWD11469132 INDEX 01 00:00:00FILE "07 - Henry Jackman - Huggable Detective.wav" WAVE TRACK 07 AUDIO TITLE "Huggable Detective" PERFORMER "Henry Jackman" ISRC USWD11469133 INDEX 01 00:00:00FILE "08 - Henry Jackman - The Masked Man.wav" WAVE TRACK 08 AUDIO TITLE "The Masked Man" PERFORMER "Henry Jackman" ISRC USWD11469134 INDEX 01 00:00:00FILE "09 - Henry Jackman - One Of The Family.wav" WAVE TRACK 09 AUDIO TITLE "One Of The Family" PERFORMER "Henry Jackman" ISRC USWD11469135 INDEX 01 00:00:00FILE "10 - Henry Jackman - Upgrades.wav" WAVE TRACK 10 AUDIO TITLE "Upgrades" PERFORMER "Henry Jackman" ISRC USWD11469136 INDEX 01 00:00:00FILE "11 - Henry Jackman - The Streets Of San Fransokyo.wav" WAVE TRACK 11 AUDIO TITLE "The Streets Of San Fransokyo" PERFORMER "Henry Jackman" ISRC USWD11469137 INDEX 01 00:00:00FILE "12 - Henry Jackman - To The Manor Born.wav" WAVE TRACK 12 AUDIO TITLE "To The Manor Born" PERFORMER "Henry Jackman" ISRC USWD11469138 INDEX 01 00:00:00FILE "13 - Henry Jackman - So Much More.wav" WAVE TRACK 13 AUDIO TITLE "So Much More" PERFORMER "Henry Jackman" ISRC USWD11469139 INDEX 01 00:00:00FILE "14 - Henry Jackman - First Flight.wav" WAVE TRACK 14 AUDIO TITLE "First Flight" PERFORMER "Henry Jackman" ISRC USWD11469140 INDEX 01 00:00:00FILE "15 - Henry Jackman - Silent Sparrow.wav" WAVE TRACK 15 AUDIO TITLE "Silent Sparrow" PERFORMER "Henry Jackman" ISRC USWD11469141 INDEX 01 00:00:00FILE "16 - Henry Jackman - Family Reunion.wav" WAVE TRACK 16 AUDIO TITLE "Family Reunion" PERFORMER "Henry Jackman" ISRC USWD11469142 INDEX 01 00:00:00FILE "17 - Henry Jackman - Big Hero 6.wav" WAVE TRACK 17 AUDIO TITLE "Big Hero 6" PERFORMER "Henry Jackman" ISRC USWD11469143 INDEX 01 00:00:00FILE "18 - Henry Jackman - I Am Satisfied With My Care.wav" WAVE TRACK 18 AUDIO TITLE "I Am Satisfied With My Care" PERFORMER "Henry Jackman" ISRC USWD11469144 INDEX 01 00:00:00FILE "19 - Henry Jackman - Signs Of Life.wav" WAVE TRACK 19 AUDIO TITLE "Signs Of Life" PERFORMER "Henry Jackman" ISRC USWD11469145 INDEX 01 00:00:00FILE "20 - Henry Jackman - Reboot.wav" WAVE TRACK 20 AUDIO TITLE "Reboot" PERFORMER "Henry Jackman" ISRC USWD11469146 INDEX 01 00:00:00

LOG Audiochecker:

AUDIOCHECKER v2.0 beta (build 457) - by Dester - opdester@freemail.hu~~~~~~~~~~~~~~~~~~~~~~~~~~~~~~~~~~
Started at: среда, 24. 12. 2014. - 8:11.4820 files found
01 -===- D:\0TORRENTS\OST Henry Jackman - Big Hero 6 (2014)\CD\01 - Fall Out Boy - Immortals.flac Extracted successfully Conclusion: this track is CDDA with probability 99% Tempfile successfully deleted.
02 -===- D:\0TORRENTS\OST Henry Jackman - Big Hero 6 (2014)\CD\02 - Henry Jackman - Hiro Hamada.flac Extracted successfully Conclusion: this track is CDDA with probability 100% Tempfile successfully deleted.
03 -===- D:\0TORRENTS\OST Henry Jackman - Big Hero 6 (2014)\CD\03 - Henry Jackman - Nerd School.flac Extracted successfully Conclusion: this track is CDDA with probability 99% Tempfile successfully deleted.
04 -===- D:\0TORRENTS\OST Henry Jackman - Big Hero 6 (2014)\CD\04 - Henry Jackman - Microbots.flac Extracted successfully Conclusion: this track is CDDA with probability 100% Tempfile successfully deleted.
05 -===- D:\0TORRENTS\OST Henry Jackman - Big Hero 6 (2014)\CD\05 - Henry Jackman - Tadashi.flac Extracted successfully Conclusion: this track is CDDA with probability 100% Tempfile successfully deleted.
06 -===- D:\0TORRENTS\OST Henry Jackman - Big Hero 6 (2014)\CD\06 - Henry Jackman - Inflatable Friend.flac Extracted successfully Conclusion: this track is CDDA with probability 100% Tempfile successfully deleted.
07 -===- D:\0TORRENTS\OST Henry Jackman - Big Hero 6 (2014)\CD\07 - Henry Jackman - Huggable Detective.flac Extracted successfully Conclusion: this track is CDDA with probability 100% Tempfile successfully deleted.
08 -===- D:\0TORRENTS\OST Henry Jackman - Big Hero 6 (2014)\CD\08 - Henry Jackman - The Masked Man.flac Extracted successfully Conclusion: this track is CDDA with probability 100% Tempfile successfully deleted.
09 -===- D:\0TORRENTS\OST Henry Jackman - Big Hero 6 (2014)\CD\09 - Henry Jackman - One Of The Family.flac Extracted successfully Conclusion: this track is CDDA with probability 99% Tempfile successfully deleted.
10 -===- D:\0TORRENTS\OST Henry Jackman - Big Hero 6 (2014)\CD\10 - Henry Jackman - Upgrades.flac Extracted successfully Conclusion: this track is CDDA with probability 99% Tempfile successfully deleted.
11 -===- D:\0TORRENTS\OST Henry Jackman - Big Hero 6 (2014)\CD\11 - Henry Jackman - The Streets Of San Fransokyo.flac Extracted successfully Conclusion: this track is CDDA with probability 100% Tempfile successfully deleted.
12 -===- D:\0TORRENTS\OST Henry Jackman - Big Hero 6 (2014)\CD\12 - Henry Jackman - To The Manor Born.flac Extracted successfully Conclusion: this track is CDDA with probability 100% Tempfile successfully deleted.
13 -===- D:\0TORRENTS\OST Henry Jackman - Big Hero 6 (2014)\CD\13 - Henry Jackman - So Much More.flac Extracted successfully Conclusion: this track is CDDA with probability 100% Tempfile successfully deleted.
14 -===- D:\0TORRENTS\OST Henry Jackman - Big Hero 6 (2014)\CD\14 - Henry Jackman - First Flight.flac Extracted successfully Conclusion: this track is CDDA with probability 100% Tempfile successfully deleted.
15 -===- D:\0TORRENTS\OST Henry Jackman - Big Hero 6 (2014)\CD\15 - Henry Jackman - Silent Sparrow.flac Extracted successfully Conclusion: this track is CDDA with probability 100% Tempfile successfully deleted.
16 -===- D:\0TORRENTS\OST Henry Jackman - Big Hero 6 (2014)\CD\16 - Henry Jackman - Family Reunion.flac Extracted successfully Conclusion: this track is CDDA with probability 100% Tempfile successfully deleted.
17 -===- D:\0TORRENTS\OST Henry Jackman - Big Hero 6 (2014)\CD\17 - Henry Jackman - Big Hero 6.flac Extracted successfully Conclusion: this track is CDDA with probability 99% Tempfile successfully deleted.
18 -===- D:\0TORRENTS\OST Henry Jackman - Big Hero 6 (2014)\CD\18 - Henry Jackman - I Am Satisfied With My Care.flac Extracted successfully Conclusion: this track is CDDA with probability 100% Tempfile successfully deleted.
19 -===- D:\0TORRENTS\OST Henry Jackman - Big Hero 6 (2014)\CD\19 - Henry Jackman - Signs Of Life.flac Extracted successfully Conclusion: this track is CDDA with probability 100% Tempfile successfully deleted.
20 -===- D:\0TORRENTS\OST Henry Jackman - Big Hero 6 (2014)\CD\20 - Henry Jackman - Reboot.flac Extracted successfully Conclusion: this track is CDDA with probability 100% Tempfile successfully deleted.
Finished at: среда, 24. 12. 2014. - 8:15.42 (operation time: 0:03.53)

LOG foo_dr:

foobar2000 1.3.2 / Замер динамического диапазона (DR) 1.1.1Дата отчёта: 2014-12-24 08:09:20
--------------------------------------------------------------------------------Анализ: Fall Out Boy / Big Hero 6 (Original Motion Picture Soundtrack) (1) Henry Jackman / Big Hero 6 (Original Motion Picture Soundtrack) (2-20)--------------------------------------------------------------------------------
DR Пики RMS Продолжительность трека--------------------------------------------------------------------------------DR7 -0.42 дБ -9.24 дБ 3:15 01-ImmortalsDR8 -0.20 дБ -10.70 дБ 1:57 02-Hiro HamadaDR9 -0.20 дБ -13.89 дБ 2:13 03-Nerd SchoolDR7 -0.10 дБ -9.18 дБ 1:47 04-MicrobotsDR11 -0.33 дБ -17.25 дБ 1:47 05-TadashiDR15 -0.20 дБ -24.25 дБ 1:57 06-Inflatable FriendDR11 -0.20 дБ -14.89 дБ 1:35 07-Huggable DetectiveDR8 -0.20 дБ -10.36 дБ 1:29 08-The Masked ManDR11 -6.92 дБ -24.76 дБ 1:49 09-One Of The FamilyDR9 -0.10 дБ -12.64 дБ 2:27 10-UpgradesDR8 -0.10 дБ -11.70 дБ 4:08 11-The Streets Of San FransokyoDR15 -0.20 дБ -22.94 дБ 1:16 12-To The Manor BornDR9 -0.10 дБ -12.33 дБ 3:02 13-So Much MoreDR6 -0.13 дБ -9.12 дБ 2:36 14-First FlightDR7 -0.10 дБ -13.47 дБ 4:40 15-Silent SparrowDR15 -2.50 дБ -24.15 дБ 2:39 16-Family ReunionDR6 -0.10 дБ -8.95 дБ 6:58 17-Big Hero 6DR8 -0.10 дБ -13.50 дБ 5:30 18-I Am Satisfied With My CareDR12 -0.20 дБ -17.32 дБ 1:14 19-Signs Of LifeDR7 -0.10 дБ -13.58 дБ 1:49 20-Reboot--------------------------------------------------------------------------------
Количество треков: 20Реальные значения DR: DR9
Частота: 44100 ГцКаналов: 2Разрядность: 16Битрейт: 728 кбит/сКодек: FLAC================================================================================
- -mp3- RG Soundtracks
[teatrix.ru].t10341.torrent 
Торрент: Зарегистрирован [ 2015-11-01 20:51 ] · 8C7DD9D3782DB980FB74CD5F8756E837A9E91E6A

Скачать .torrent

Скачать

14 KB

Статус: проверено
Скачан: 1 раз
Размер: 285 MB
terms.php



Быстрый ответ

Имя:

      
Для отправки сообщений необходимо включить JavaScript
Показать сообщения:    

Текущее время: 03-Дек 05:28

Часовой пояс: UTC + 3


Вы можете начинать темы
Вы можете отвечать на сообщения
Вы не можете редактировать свои сообщения
Вы не можете удалять свои сообщения
Вы не можете голосовать в опросах
Вы не можете прикреплять файлы к сообщениям
Вы можете скачивать файлы