(Score) Одержимость / Whiplash (Justin Hurwitz, Tim Simonec) - 2014, FLAC (tracks+.cue), lossless


Статистика раздачи [Обновить пиров]
Размер:  291 MB   |    Зарегистрирован:  1 год 1 месяц   |    Скачан:  3 раза

Полного источника не было: 1 день 14 часов

 
   
 
 
 

[Цитировать]

Одержимость / Whiplash
Жанр: Score
Композитор: Justin Hurwitz, Tim Simonec
Год выпуска диска: 2014
Год выпуска фильма: 2014
Страна-производитель диска: US
Издатель (лейбл): Varèse Sarabande
Номер по каталогу: VSD-7286
Аудиокодек: FLAC (*.flac)
Тип рипа: tracks+.cue
Битрейт аудио: lossless
Продолжительность: 00:54:59
Источник: what.cd
Наличие сканов в содержимом раздачи: нет
Треклист:
01. Whiplash "I Want To Be One Of The Greats" - Snare Liftoff (0:43)
02. Overture (3:19)
03. Too Hip To Retire (3:03)
04. Whiplash (1:55)
05. Fletcher’s Song In Club (1:28)
06. Caravan (9:14)
07. Whiplash - "If You Want The Part, Earn It" - What’s Your Name (1:30)
08. Practicing (1:43)
09. Invited (:54)
10. Call From Dad (:40)
11. Accident (5:21)
12. Hug From Dad (1:14)
13. Drum & Drone (1:34)
14. Carnegie (:36)
15. Ryan / Breakup (:31)
16. Drum Battle (2:10)
17. Dismissed (2:46)
18. Whiplash - "He Was A Beautiful Player" - Good Job (1:28)
19. Intoit (3:19)
20. No Two Words (1:41)
21. When I Wake (3:50)
22. Casey’s Song (1:57)
23. Upswingin’ (2:12)

Лог создания рипа

Exact Audio Copy V1.0 beta 3 from 29. August 2011
EAC extraction logfile from 22. October 2014, 16:20
Various Artists / Whiplash Soundtrack
Used drive : ATAPI iHAS424 B Adapter: 0 ID: 1
Read mode : SecureUtilize accurate stream : YesDefeat audio cache : YesMake use of C2 pointers : No
Read offset correction : 6Overread into Lead-In and Lead-Out : NoFill up missing offset samples with silence : YesDelete leading and trailing silent blocks : NoNull samples used in CRC calculations : YesUsed interface : Native Win32 interface for Win NT & 2000Gap handling : Appended to previous track
Used output format : User Defined EncoderSelected bitrate : 1024 kBit/sQuality : HighAdd ID3 tag : NoCommand line compressor : C:\Program Files (x86)\FLAC\flac.exeAdditional command line options : -8 -V -T "ARTIST=%artist%" -T "TITLE=%title%" -T "ALBUM=%albumtitle%" -T "DATE=%year%" -T "TRACKNUMBER=%tracknr%" -T "GENRE=%genre%" -T "PERFORMER=%albuminterpret%" -T "COMPOSER=%composer%" %haslyrics%--tag-from-file=LYRICS="%lyricsfile%"%haslyrics% -T "ALBUMARTIST=%albumartist%" -T "ALBUM ARTIST=%albumartist%" -T "DISCNUMBER=%cdnumber%" -T "TOTALDISCS=%totalcds%" -T "TOTALTRACKS=%numtracks%" -T "COMMENT=EAC V1.0 beta 2, Secure Mode, Test & Copy, AccurateRip, FLAC -8" %source% -o %dest%
TOC of the extracted CD
Track | Start | Length | Start sector | End sector --------------------------------------------------------- 1 | 0:00.00 | 0:43.55 | 0 | 3279 2 | 0:43.55 | 3:19.35 | 3280 | 18239 3 | 4:03.15 | 3:04.03 | 18240 | 32042 4 | 7:07.18 | 1:55.27 | 32043 | 40694 5 | 9:02.45 | 1:29.02 | 40695 | 47371 6 | 10:31.47 | 9:15.00 | 47372 | 88996 7 | 19:46.47 | 1:30.43 | 88997 | 95789 8 | 21:17.15 | 1:43.22 | 95790 | 103536 9 | 23:00.37 | 0:54.62 | 103537 | 107648 10 | 23:55.24 | 0:40.17 | 107649 | 110665 11 | 24:35.41 | 5:22.04 | 110666 | 134819 12 | 29:57.45 | 1:14.48 | 134820 | 140417 13 | 31:12.18 | 1:34.15 | 140418 | 147482 14 | 32:46.33 | 0:36.42 | 147483 | 150224 15 | 33:23.00 | 0:31.16 | 150225 | 152565 16 | 33:54.16 | 2:10.07 | 152566 | 162322 17 | 36:04.23 | 2:46.61 | 162323 | 174833 18 | 38:51.09 | 1:28.74 | 174834 | 181507 19 | 40:20.08 | 3:21.41 | 181508 | 196623 20 | 43:41.49 | 1:41.28 | 196624 | 204226 21 | 45:23.02 | 3:52.15 | 204227 | 221641 22 | 49:15.17 | 1:57.23 | 221642 | 230439 23 | 51:12.40 | 2:12.33 | 230440 | 240372 24 | 53:24.73 | 1:34.20 | 240373 | 247442
Track 1
Filename D:\EAC Rips\01 - Whiplash - I WANT TO BE ONE OF THE GREATS- Snare Liftoff.wav
Pre-gap length 0:00:02.00
Peak level 100.0 % Extraction speed 1.9 X Track quality 100.0 % Test CRC 1A06845C Copy CRC 1A06845C Track not present in AccurateRip database Copy OK
Track 2
Filename D:\EAC Rips\02 - Justin Hurwitz - Overture.wav
Pre-gap length 0:00:00.06
Peak level 100.0 % Extraction speed 3.4 X Track quality 100.0 % Test CRC 4E18FDD3 Copy CRC 4E18FDD3 Track not present in AccurateRip database Copy OK
Track 3
Filename D:\EAC Rips\03 - Tim Simonec - Too Hip To Retire.wav
Pre-gap length 0:00:00.06
Peak level 100.0 % Extraction speed 3.6 X Track quality 100.0 % Test CRC 224C27A5 Copy CRC 224C27A5 Track not present in AccurateRip database Copy OK
Track 4
Filename D:\EAC Rips\04 - Hank Levy - Whiplash.wav
Pre-gap length 0:00:00.06
Peak level 100.0 % Extraction speed 3.4 X Track quality 100.0 % Test CRC A61C41EE Copy CRC A61C41EE Track not present in AccurateRip database Copy OK
Track 5
Filename D:\EAC Rips\05 - Justin Hurwitz - Fletcher's Song In Club.wav
Pre-gap length 0:00:00.06
Peak level 80.6 % Extraction speed 3.3 X Track quality 100.0 % Test CRC 6F785514 Copy CRC 6F785514 Track not present in AccurateRip database Copy OK
Track 6
Filename D:\EAC Rips\06 - Juan Tizol and Duke Ellington - Caravan.wav
Pre-gap length 0:00:00.06
Peak level 100.0 % Extraction speed 4.9 X Track quality 100.0 % Test CRC 0B4E5936 Copy CRC 0B4E5936 Track not present in AccurateRip database Copy OK
Track 7
Filename D:\EAC Rips\07 - Whiplash - IF YOU WANT THE PART, EARN IT- What's Your Name.wav
Pre-gap length 0:00:00.06
Peak level 100.0 % Extraction speed 4.0 X Track quality 100.0 % Test CRC 6FF2FB4B Copy CRC 6FF2FB4B Track not present in AccurateRip database Copy OK
Track 8
Filename D:\EAC Rips\08 - Justin Hurwitz - Practicing.wav
Pre-gap length 0:00:00.06
Peak level 100.0 % Extraction speed 4.2 X Track quality 100.0 % Test CRC A437F491 Copy CRC A437F491 Track not present in AccurateRip database Copy OK
Track 9
Filename D:\EAC Rips\09 - Justin Hurwitz - Invited.wav
Pre-gap length 0:00:00.06
Peak level 100.0 % Extraction speed 3.4 X Track quality 100.0 % Test CRC D647BC83 Copy CRC D647BC83 Track not present in AccurateRip database Copy OK
Track 10
Filename D:\EAC Rips\10 - Justin Hurwitz - Call From Dad.wav
Pre-gap length 0:00:00.06
Peak level 87.0 % Extraction speed 2.9 X Track quality 100.0 % Test CRC 6492E0A5 Copy CRC 6492E0A5 Track not present in AccurateRip database Copy OK
Track 11
Filename D:\EAC Rips\11 - Justin Hurwitz - Accident.wav
Pre-gap length 0:00:00.06
Peak level 100.0 % Extraction speed 4.6 X Track quality 99.9 % Test CRC D0BC1C1C Copy CRC D0BC1C1C Track not present in AccurateRip database Copy OK
Track 12
Filename D:\EAC Rips\12 - Justin Hurwitz - Hug From Dad.wav
Pre-gap length 0:00:00.06
Peak level 69.5 % Extraction speed 4.1 X Track quality 100.0 % Test CRC D4B6034E Copy CRC D4B6034E Track not present in AccurateRip database Copy OK
Track 13
Filename D:\EAC Rips\13 - Justin Hurwitz - Drum & Drone.wav
Pre-gap length 0:00:00.06
Peak level 100.0 % Extraction speed 4.5 X Track quality 100.0 % Test CRC 5464A86E Copy CRC 5464A86E Track not present in AccurateRip database Copy OK
Track 14
Filename D:\EAC Rips\14 - Justin Hurwitz - Carnegie.wav
Pre-gap length 0:00:00.06
Peak level 89.4 % Extraction speed 3.2 X Track quality 100.0 % Test CRC 56C7C673 Copy CRC 56C7C673 Track not present in AccurateRip database Copy OK
Track 15
Filename D:\EAC Rips\15 - Justin Hurwitz - Ryan , Breakup.wav
Pre-gap length 0:00:00.06
Peak level 100.0 % Extraction speed 1.4 X Track quality 99.6 % Test CRC 7D673737 Copy CRC 7D673737 Track not present in AccurateRip database Copy OK
Track 16
Filename D:\EAC Rips\16 - Justin Hurwitz - Drum Battle.wav
Pre-gap length 0:00:00.06
Peak level 78.7 % Extraction speed 5.1 X Track quality 100.0 % Test CRC E0BB0CF5 Copy CRC E0BB0CF5 Track not present in AccurateRip database Copy OK
Track 17
Filename D:\EAC Rips\17 - Justin Hurwitz - Dismissed.wav
Pre-gap length 0:00:00.06
Peak level 63.8 % Extraction speed 5.5 X Track quality 100.0 % Test CRC 1D4DAB11 Copy CRC 1D4DAB11 Track not present in AccurateRip database Copy OK
Track 18
Filename D:\EAC Rips\18 - Whiplash - HE WAS A BEATIFUL PLAYER- Good Job.wav
Pre-gap length 0:00:00.06
Peak level 64.3 % Extraction speed 3.0 X Track quality 99.8 % Test CRC 4C90073E Copy CRC 4C90073E Track not present in AccurateRip database Copy OK
Track 19
Filename D:\EAC Rips\19 - Stan Getz - Intoit.wav
Pre-gap length 0:00:00.06
Peak level 100.0 % Extraction speed 5.9 X Track quality 100.0 % Test CRC D84E02C1 Copy CRC D84E02C1 Track not present in AccurateRip database Copy OK
Track 20
Filename D:\EAC Rips\20 - Justin Hurwitz - No Two Words.wav
Pre-gap length 0:00:01.60
Peak level 98.8 % Extraction speed 5.2 X Track quality 100.0 % Test CRC 9E1390F0 Copy CRC 9E1390F0 Track not present in AccurateRip database Copy OK
Track 21
Filename D:\EAC Rips\21 - Justin Hurwitz - When I Wake.wav
Pre-gap length 0:00:00.06
Peak level 100.0 % Extraction speed 6.4 X Track quality 100.0 % Test CRC E243A26C Copy CRC E243A26C Track not present in AccurateRip database Copy OK
Track 22
Filename D:\EAC Rips\22 - Justin Hurwitz - Casey's Song.wav
Pre-gap length 0:00:01.60
Peak level 74.4 % Extraction speed 5.7 X Track quality 100.0 % Test CRC 4145CE49 Copy CRC 4145CE49 Track not present in AccurateRip database Copy OK
Track 23
Filename D:\EAC Rips\23 - Tim Simonec - Upswingin'.wav
Pre-gap length 0:00:00.06
Peak level 100.0 % Extraction speed 4.2 X Track quality 99.9 % Test CRC 6DD92B39 Copy CRC 6DD92B39 Track not present in AccurateRip database Copy OK
Track 24
Filename D:\EAC Rips\24 - Tim Simonec - REHEARSAL MEDLEY- First Nassau Band Rehearsal , Second Nassau Band Rehearsal , Studio Band Eavesdrop , Studio Band Rehearsal After Breakup.wav
Pre-gap length 0:00:00.06
Peak level 100.0 % Extraction speed 3.5 X Track quality 99.8 % Test CRC FCCAE4B1 Copy CRC FCCAE4B1 Track not present in AccurateRip database Copy OK
None of the tracks are present in the AccurateRip database
No errors occurred
End of status report
==== Log checksum EAEF56703C91FB49BD5506C1E2254A323E3DA82EE91D736DEE79F592B69369FF ====

Содержание индексной карты (.CUE)

REM GENRE SoundtrackREM DATE 2014REM DISCID 5D0CE318REM COMMENT "ExactAudioCopy v1.0b3"PERFORMER "Unknown Artist"TITLE "Whiplash Soundtrack"FILE "01 - Whiplash - I WANT TO BE ONE OF THE GREATS- Snare Liftoff.wav" WAVE TRACK 01 AUDIO TITLE "I WANT TO BE ONE OF THE GREATS: Snare Liftoff" PERFORMER "Whiplash" ISRC US3M51428601 INDEX 01 00:00:00 TRACK 02 AUDIO TITLE "Overture" PERFORMER "Justin Hurwitz" ISRC US3M51428602 INDEX 00 00:43:50FILE "02 - Justin Hurwitz - Overture.wav" WAVE INDEX 01 00:00:00 TRACK 03 AUDIO TITLE "Too Hip To Retire" PERFORMER "Tim Simonec" ISRC US3M51428603 INDEX 00 03:19:30FILE "03 - Tim Simonec - Too Hip To Retire.wav" WAVE INDEX 01 00:00:00 TRACK 04 AUDIO TITLE "Whiplash" PERFORMER "Hank Levy" ISRC US3M51428604 INDEX 00 03:03:73FILE "04 - Hank Levy - Whiplash.wav" WAVE INDEX 01 00:00:00 TRACK 05 AUDIO TITLE "Fletcher's Song In Club" PERFORMER "Justin Hurwitz" ISRC US3M51428605 INDEX 00 01:55:22FILE "05 - Justin Hurwitz - Fletcher's Song In Club.wav" WAVE INDEX 01 00:00:00 TRACK 06 AUDIO TITLE "Caravan" PERFORMER "Juan Tizol and Duke Ellington" ISRC US3M51428606 INDEX 00 01:28:72FILE "06 - Juan Tizol and Duke Ellington - Caravan.wav" WAVE INDEX 01 00:00:00 TRACK 07 AUDIO TITLE "IF YOU WANT THE PART, EARN IT: What's Your Name" PERFORMER "Whiplash" ISRC US3M51428607 INDEX 00 09:14:70FILE "07 - Whiplash - IF YOU WANT THE PART, EARN IT- What's Your Name.wav" WAVE INDEX 01 00:00:00 TRACK 08 AUDIO TITLE "Practicing" PERFORMER "Justin Hurwitz" ISRC US3M51428608 INDEX 00 01:30:38FILE "08 - Justin Hurwitz - Practicing.wav" WAVE INDEX 01 00:00:00 TRACK 09 AUDIO TITLE "Invited" PERFORMER "Justin Hurwitz" ISRC US3M51428609 INDEX 00 01:43:17FILE "09 - Justin Hurwitz - Invited.wav" WAVE INDEX 01 00:00:00 TRACK 10 AUDIO TITLE "Call From Dad" PERFORMER "Justin Hurwitz" ISRC US3M51428610 INDEX 00 00:54:57FILE "10 - Justin Hurwitz - Call From Dad.wav" WAVE INDEX 01 00:00:00 TRACK 11 AUDIO TITLE "Accident" PERFORMER "Justin Hurwitz" ISRC US3M51428611 INDEX 00 00:40:12FILE "11 - Justin Hurwitz - Accident.wav" WAVE INDEX 01 00:00:00 TRACK 12 AUDIO TITLE "Hug From Dad" PERFORMER "Justin Hurwitz" ISRC US3M51428612 INDEX 00 05:21:74FILE "12 - Justin Hurwitz - Hug From Dad.wav" WAVE INDEX 01 00:00:00 TRACK 13 AUDIO TITLE "Drum & Drone" PERFORMER "Justin Hurwitz" ISRC US3M51428613 INDEX 00 01:14:43FILE "13 - Justin Hurwitz - Drum & Drone.wav" WAVE INDEX 01 00:00:00 TRACK 14 AUDIO TITLE "Carnegie" PERFORMER "Justin Hurwitz" ISRC US3M51428614 INDEX 00 01:34:10FILE "14 - Justin Hurwitz - Carnegie.wav" WAVE INDEX 01 00:00:00 TRACK 15 AUDIO TITLE "Ryan / Breakup" PERFORMER "Justin Hurwitz" ISRC US3M51428615 INDEX 00 00:36:37FILE "15 - Justin Hurwitz - Ryan , Breakup.wav" WAVE INDEX 01 00:00:00 TRACK 16 AUDIO TITLE "Drum Battle" PERFORMER "Justin Hurwitz" ISRC US3M51428616 INDEX 00 00:31:11FILE "16 - Justin Hurwitz - Drum Battle.wav" WAVE INDEX 01 00:00:00 TRACK 17 AUDIO TITLE "Dismissed" PERFORMER "Justin Hurwitz" ISRC US3M51428617 INDEX 00 02:10:02FILE "17 - Justin Hurwitz - Dismissed.wav" WAVE INDEX 01 00:00:00 TRACK 18 AUDIO TITLE "HE WAS A BEATIFUL PLAYER: Good Job" PERFORMER "Whiplash" ISRC US3M51428618 INDEX 00 02:46:56FILE "18 - Whiplash - HE WAS A BEATIFUL PLAYER- Good Job.wav" WAVE INDEX 01 00:00:00 TRACK 19 AUDIO TITLE "Intoit" PERFORMER "Stan Getz" ISRC US3M51428619 INDEX 00 01:28:69FILE "19 - Stan Getz - Intoit.wav" WAVE INDEX 01 00:00:00 TRACK 20 AUDIO TITLE "No Two Words" PERFORMER "Justin Hurwitz" ISRC US3M51428620 INDEX 00 03:19:71FILE "20 - Justin Hurwitz - No Two Words.wav" WAVE INDEX 01 00:00:00 TRACK 21 AUDIO TITLE "When I Wake" PERFORMER "Justin Hurwitz" ISRC US3M51428621 INDEX 00 01:41:23FILE "21 - Justin Hurwitz - When I Wake.wav" WAVE INDEX 01 00:00:00 TRACK 22 AUDIO TITLE "Casey's Song" PERFORMER "Justin Hurwitz" ISRC US3M51428622 INDEX 00 03:50:45FILE "22 - Justin Hurwitz - Casey's Song.wav" WAVE INDEX 01 00:00:00 TRACK 23 AUDIO TITLE "Upswingin'" PERFORMER "Tim Simonec" ISRC US3M51428623 INDEX 00 01:57:18FILE "23 - Tim Simonec - Upswingin'.wav" WAVE INDEX 01 00:00:00 TRACK 24 AUDIO TITLE "REHEARSAL MEDLEY: First Nassau Band Rehearsal / Second Nassau Band Rehearsal ..." PERFORMER "Tim Simonec" ISRC US3M51428624 INDEX 00 02:12:28FILE "24 - Tim Simonec - REHEARSAL MEDLEY- First Nassau Band Rehearsal , Second Nassau Band Rehearsal , Studio Band Eavesdrop , Studio Band Rehearsal After Breakup.wav" WAVE INDEX 01 00:00:00

Об альбоме (сборнике)

Whiplash - Original Motion Picture Soundtrack
Andrew Neyman is a 19-year-old jazz drummer, dreaming of greatness but unsure if his dream will ever come true. Haunted by the failed writing career of his father, Andrew is determined to rise to the top of the country’s most elite music conservatory. One night, Terence Fletcher (J.K. Simmons), a conductor equally known for his talent for teaching as he is for the terrifying method of his instruction, discovers Andrew practicing the drums. Even though Fletcher says very little to him that night, he ignites in Andrew a passion to achieve his goal. To Andrew's surprise, the next day, Fletcher requests that he be transferred into his band. This single act changes the young man’s life forever.
The WHIPLASH soundtrack consists of 24 tracks sequenced in 3 distinct parts: Original jazz songs written for the film, original underscore written for the film, and classic jazz standards by Stan Getz, Duke Ellington and more. There are also choice snippets of dialog included on the soundtrack that sum up the narrative of the film and help to put the music in context (à la Pulp Fiction). The Original Score & Big Band Songs were created by Justin Hurwitz. The original jazz songs were created by Grammy®-nominated composer, Tim Simonec.
Sony Pictures Classics will open WHIPLASH on October 10.
WHIPLASH swept Sundance 2014 as the winner of the Grand Jury Prize and Audience Award.
[teatrix.ru].t10345.torrent 
Торрент: Зарегистрирован [ 2015-11-01 20:51 ] · 104CDAA3DCA4A80117E2ED307AC8C5A41DF96899

Скачать .torrent

Скачать

14 KB

Статус: проверено
Скачан: 3 раз
Размер: 291 MB
terms.php



Быстрый ответ

Имя:

      
Для отправки сообщений необходимо включить JavaScript
Показать сообщения:    

Текущее время: 07-Дек 11:40

Часовой пояс: UTC + 3


Вы можете начинать темы
Вы можете отвечать на сообщения
Вы не можете редактировать свои сообщения
Вы не можете удалять свои сообщения
Вы не можете голосовать в опросах
Вы не можете прикреплять файлы к сообщениям
Вы можете скачивать файлы