(Soundtrack) Берегите Моего Котенка / Присмотрите за моей кошкой / Take Care of My Cat / Goyangileul butaghae / Go-yang-i-leul Boo-tak-hae - 2001, FLAC (tracks+.cue), lossless


Статистика раздачи [Обновить пиров]
Размер:  183 MB   |    Зарегистрирован:  1 год 1 месяц   |    Скачан:  1 раз

Полного источника не было: 5 месяцев 14 дней

 
   
 
 
 

[Цитировать]

Берегите Моего Котенка / Присмотрите за моей кошкой / Take Care of My Cat / Goyangileul butaghae / Go-yang-i-leul Boo-tak-hae
Жанр: Soundtrack
Год выпуска диска: 2001
Страна-производитель диска: South Korea
Издатель (лейбл): Dreambeat Korea
Номер по каталогу: 4608080
Аудиокодек: FLAC (*.flac)
Тип рипа: tracks+.cue
Битрейт аудио: lossless
Продолжительность: 38:47
Источник: скачано с
сайт-источник/ник/другое: saerome.net
Треклист:
01 - Byul - What [Ever] Happened to the Genuine Age of French Fries
02 - Byul - 2 Stars
03 - M & F - TT
04 - M & F - Walk
05 - M & F - Unfamiliar Landscape
06 - M & F - A Friend
07 - M & F - Friendship
08 - M & F - Dream
09 - M & F - Crumple...
10 - [dialogue] - Not a Place for Children…
11 - M & F - Twenty
12 - [dialogue] - Accompanied
13 - M & F - Together They... (Ending)

Лог создания рипа

X Lossless Decoder version 20120407 (140.0)
XLD extraction logfile from 2012-05-22 07:35:55 +0000
Various Artists / Take Care of My Cat
Used drive : MATSHITA DVD-R UJ-898 (revision HC10)
Ripper mode : XLD Secure RipperDisable audio cache : OK for the drive with a cache less than 1375KiBMake use of C2 pointers : NORead offset correction : 102Max retry count : 20Gap status : Analyzed, Appended
TOC of the extracted CDTrack | Start | Length | Start sector | End sector---------------------------------------------------------1 | 00:00:00 | 05:16:28 | 0 | 237272 | 05:16:28 | 05:27:55 | 23728 | 483073 | 10:44:08 | 04:55:51 | 48308 | 704834 | 15:39:59 | 03:32:34 | 70484 | 864175 | 19:12:18 | 02:23:33 | 86418 | 971756 | 21:35:51 | 02:27:33 | 97176 | 1082337 | 24:03:09 | 02:54:46 | 108234 | 1213298 | 26:57:55 | 01:12:09 | 121330 | 1267389 | 28:09:64 | 02:50:57 | 126739 | 13954510 | 31:00:46 | 00:24:34 | 139546 | 14137911 | 31:25:05 | 03:17:66 | 141380 | 15622012 | 34:42:71 | 00:18:17 | 156221 | 15758713 | 35:01:13 | 03:46:27 | 157588 | 174564
AccurateRip SummaryDisc not found in AccurateRip DB.
All TracksAlbum gain : -4.31 dBPeak : 1.000000StatisticsRead error : 0Jitter error (maybe fixed) : 0Retry sector count : 0Damaged sector count : 0
Track 01Filename : /Users/James/Desktop/Various Artists - Take Care of My Cat (2001) [V0]/01 - Byul - What [Ever] Happened to the Genuine Age of French Fries?.mp3/Users/James/Desktop/Various Artists - Take Care of My Cat (2001) [V2]/01 - Byul - What [Ever] Happened to the Genuine Age of French Fries?.mp3/Users/James/Desktop/Various Artists - Take Care of My Cat (2001) [320]/01 - Byul - What [Ever] Happened to the Genuine Age of French Fries?.mp3/Users/James/Desktop/Various Artists - Take Care of My Cat (2001) [FLAC]/01 - Byul - What [Ever] Happened to the Genuine Age of French Fries?.flacPre-gap length : 00:02:00
Track gain : -4.95 dBPeak : 1.000000CRC32 hash (test run) : 391ABFBFCRC32 hash : 391ABFBFCRC32 hash (skip zero) : 9534F778AccurateRip signature : 5AC1126E->Track not present in AccurateRip database.StatisticsRead error : 0Jitter error (maybe fixed) : 0Retry sector count : 0Damaged sector count : 0
Track 02Filename : /Users/James/Desktop/Various Artists - Take Care of My Cat (2001) [V0]/02 - Byul - 2 Stars.mp3/Users/James/Desktop/Various Artists - Take Care of My Cat (2001) [V2]/02 - Byul - 2 Stars.mp3/Users/James/Desktop/Various Artists - Take Care of My Cat (2001) [320]/02 - Byul - 2 Stars.mp3/Users/James/Desktop/Various Artists - Take Care of My Cat (2001) [FLAC]/02 - Byul - 2 Stars.flacPre-gap length : 00:01:69
Track gain : -5.45 dBPeak : 1.000000CRC32 hash (test run) : D1B03E51CRC32 hash : D1B03E51CRC32 hash (skip zero) : 3BD7B42EAccurateRip signature : B9175154->Track not present in AccurateRip database.StatisticsRead error : 0Jitter error (maybe fixed) : 0Retry sector count : 0Damaged sector count : 0
Track 03Filename : /Users/James/Desktop/Various Artists - Take Care of My Cat (2001) [V0]/03 - M & F - TT.mp3/Users/James/Desktop/Various Artists - Take Care of My Cat (2001) [V2]/03 - M & F - TT.mp3/Users/James/Desktop/Various Artists - Take Care of My Cat (2001) [320]/03 - M & F - TT.mp3/Users/James/Desktop/Various Artists - Take Care of My Cat (2001) [FLAC]/03 - M & F - TT.flacPre-gap length : 00:02:16
Track gain : -3.37 dBPeak : 0.933289CRC32 hash (test run) : 39A3B6A8CRC32 hash : 39A3B6A8CRC32 hash (skip zero) : 671D4649AccurateRip signature : 9443315C->Track not present in AccurateRip database.StatisticsRead error : 0Jitter error (maybe fixed) : 0Retry sector count : 0Damaged sector count : 0
Track 04Filename : /Users/James/Desktop/Various Artists - Take Care of My Cat (2001) [V0]/04 - M & F - Walk.mp3/Users/James/Desktop/Various Artists - Take Care of My Cat (2001) [V2]/04 - M & F - Walk.mp3/Users/James/Desktop/Various Artists - Take Care of My Cat (2001) [320]/04 - M & F - Walk.mp3/Users/James/Desktop/Various Artists - Take Care of My Cat (2001) [FLAC]/04 - M & F - Walk.flacPre-gap length : 00:01:60
Track gain : -2.53 dBPeak : 1.000000CRC32 hash (test run) : 998CF795CRC32 hash : 998CF795CRC32 hash (skip zero) : 464FD73AAccurateRip signature : D3E82F60->Track not present in AccurateRip database.StatisticsRead error : 0Jitter error (maybe fixed) : 0Retry sector count : 0Damaged sector count : 0
Track 05Filename : /Users/James/Desktop/Various Artists - Take Care of My Cat (2001) [V0]/05 - M & F - Unfamiliar Landscape.mp3/Users/James/Desktop/Various Artists - Take Care of My Cat (2001) [V2]/05 - M & F - Unfamiliar Landscape.mp3/Users/James/Desktop/Various Artists - Take Care of My Cat (2001) [320]/05 - M & F - Unfamiliar Landscape.mp3/Users/James/Desktop/Various Artists - Take Care of My Cat (2001) [FLAC]/05 - M & F - Unfamiliar Landscape.flacPre-gap length : 00:01:40
Track gain : -3.06 dBPeak : 1.000000CRC32 hash (test run) : 353DB7EACRC32 hash : 353DB7EACRC32 hash (skip zero) : B12B865DAccurateRip signature : 3B9724BF->Track not present in AccurateRip database.StatisticsRead error : 0Jitter error (maybe fixed) : 0Retry sector count : 0Damaged sector count : 0
Track 06Filename : /Users/James/Desktop/Various Artists - Take Care of My Cat (2001) [V0]/06 - M & F - A Friend.mp3/Users/James/Desktop/Various Artists - Take Care of My Cat (2001) [V2]/06 - M & F - A Friend.mp3/Users/James/Desktop/Various Artists - Take Care of My Cat (2001) [320]/06 - M & F - A Friend.mp3/Users/James/Desktop/Various Artists - Take Care of My Cat (2001) [FLAC]/06 - M & F - A Friend.flacPre-gap length : 00:01:56
Track gain : -5.33 dBPeak : 1.000000CRC32 hash (test run) : B2CAC9E2CRC32 hash : B2CAC9E2CRC32 hash (skip zero) : 871DDD94AccurateRip signature : E2E202E0->Track not present in AccurateRip database.StatisticsRead error : 0Jitter error (maybe fixed) : 0Retry sector count : 0Damaged sector count : 0
Track 07Filename : /Users/James/Desktop/Various Artists - Take Care of My Cat (2001) [V0]/07 - M & F - Friendship.mp3/Users/James/Desktop/Various Artists - Take Care of My Cat (2001) [V2]/07 - M & F - Friendship.mp3/Users/James/Desktop/Various Artists - Take Care of My Cat (2001) [320]/07 - M & F - Friendship.mp3/Users/James/Desktop/Various Artists - Take Care of My Cat (2001) [FLAC]/07 - M & F - Friendship.flacPre-gap length : 00:02:68
Track gain : 1.19 dBPeak : 1.000000CRC32 hash (test run) : A08ED074CRC32 hash : A08ED074CRC32 hash (skip zero) : 063A9504AccurateRip signature : F08D9260->Track not present in AccurateRip database.StatisticsRead error : 0Jitter error (maybe fixed) : 0Retry sector count : 0Damaged sector count : 0
Track 08Filename : /Users/James/Desktop/Various Artists - Take Care of My Cat (2001) [V0]/08 - M & F - Dream.mp3/Users/James/Desktop/Various Artists - Take Care of My Cat (2001) [V2]/08 - M & F - Dream.mp3/Users/James/Desktop/Various Artists - Take Care of My Cat (2001) [320]/08 - M & F - Dream.mp3/Users/James/Desktop/Various Artists - Take Care of My Cat (2001) [FLAC]/08 - M & F - Dream.flacPre-gap length : 00:02:12
Track gain : -3.64 dBPeak : 0.999969CRC32 hash (test run) : 5EABF860CRC32 hash : 5EABF860CRC32 hash (skip zero) : 2722B7C8AccurateRip signature : 3E4D1E17->Track not present in AccurateRip database.StatisticsRead error : 0Jitter error (maybe fixed) : 0Retry sector count : 0Damaged sector count : 0
Track 09Filename : /Users/James/Desktop/Various Artists - Take Care of My Cat (2001) [V0]/09 - M & F - Crumple....mp3/Users/James/Desktop/Various Artists - Take Care of My Cat (2001) [V2]/09 - M & F - Crumple....mp3/Users/James/Desktop/Various Artists - Take Care of My Cat (2001) [320]/09 - M & F - Crumple....mp3/Users/James/Desktop/Various Artists - Take Care of My Cat (2001) [FLAC]/09 - M & F - Crumple....flacPre-gap length : 00:03:36
Track gain : -2.16 dBPeak : 1.000000CRC32 hash (test run) : F9D997D7CRC32 hash : F9D997D7CRC32 hash (skip zero) : 26FB8844AccurateRip signature : 34D63BB6->Track not present in AccurateRip database.StatisticsRead error : 0Jitter error (maybe fixed) : 0Retry sector count : 0Damaged sector count : 0
Track 10Filename : /Users/James/Desktop/Various Artists - Take Care of My Cat (2001) [V0]/10 - [dialogue] - Not a Place for Children??mp3/Users/James/Desktop/Various Artists - Take Care of My Cat (2001) [V2]/10 - [dialogue] - Not a Place for Children??mp3/Users/James/Desktop/Various Artists - Take Care of My Cat (2001) [320]/10 - [dialogue] - Not a Place for Children??mp3/Users/James/Desktop/Various Artists - Take Care of My Cat (2001) [FLAC]/10 - [dialogue] - Not a Place for Children??flacPre-gap length : 00:01:38
Track gain : -0.70 dBPeak : 0.608276CRC32 hash (test run) : 90ACF21FCRC32 hash : 90ACF21FCRC32 hash (skip zero) : 51CF3EEFAccurateRip signature : 9DFF23FC->Track not present in AccurateRip database.StatisticsRead error : 0Jitter error (maybe fixed) : 0Retry sector count : 0Damaged sector count : 0
Track 11Filename : /Users/James/Desktop/Various Artists - Take Care of My Cat (2001) [V0]/11 - M & F - Twenty.mp3/Users/James/Desktop/Various Artists - Take Care of My Cat (2001) [V2]/11 - M & F - Twenty.mp3/Users/James/Desktop/Various Artists - Take Care of My Cat (2001) [320]/11 - M & F - Twenty.mp3/Users/James/Desktop/Various Artists - Take Care of My Cat (2001) [FLAC]/11 - M & F - Twenty.flac
Track gain : -0.39 dBPeak : 0.900543CRC32 hash (test run) : C155EA9DCRC32 hash : C155EA9DCRC32 hash (skip zero) : 4601264AAccurateRip signature : 45B67BCC->Track not present in AccurateRip database.StatisticsRead error : 0Jitter error (maybe fixed) : 0Retry sector count : 0Damaged sector count : 0
Track 12Filename : /Users/James/Desktop/Various Artists - Take Care of My Cat (2001) [V0]/12 - [dialogue] - Accompanied.mp3/Users/James/Desktop/Various Artists - Take Care of My Cat (2001) [V2]/12 - [dialogue] - Accompanied.mp3/Users/James/Desktop/Various Artists - Take Care of My Cat (2001) [320]/12 - [dialogue] - Accompanied.mp3/Users/James/Desktop/Various Artists - Take Care of My Cat (2001) [FLAC]/12 - [dialogue] - Accompanied.flacPre-gap length : 00:03:05
Track gain : 1.25 dBPeak : 0.656250CRC32 hash (test run) : 2310DD64CRC32 hash : 2310DD64CRC32 hash (skip zero) : EECC0333AccurateRip signature : B8F16080->Track not present in AccurateRip database.StatisticsRead error : 0Jitter error (maybe fixed) : 0Retry sector count : 0Damaged sector count : 0
Track 13Filename : /Users/James/Desktop/Various Artists - Take Care of My Cat (2001) [V0]/13 - M & F - Together They... (Ending).mp3/Users/James/Desktop/Various Artists - Take Care of My Cat (2001) [V2]/13 - M & F - Together They... (Ending).mp3/Users/James/Desktop/Various Artists - Take Care of My Cat (2001) [320]/13 - M & F - Together They... (Ending).mp3/Users/James/Desktop/Various Artists - Take Care of My Cat (2001) [FLAC]/13 - M & F - Together They... (Ending).flac
Track gain : -0.92 dBPeak : 0.999969CRC32 hash (test run) : C11DE9D2CRC32 hash : C11DE9D2CRC32 hash (skip zero) : 152B4254AccurateRip signature : 9B19FD66->Track not present in AccurateRip database.StatisticsRead error : 0Jitter error (maybe fixed) : 0Retry sector count : 0Damaged sector count : 0
No errors occurred
End of status report

Содержание индексной карты (.CUE)

TITLE "Take Care of My Cat"REM GENRE "Soundtrack"REM DATE "2001"REM DISCID B709170DREM REPLAYGAIN_ALBUM_GAIN -4.31 dBREM REPLAYGAIN_ALBUM_PEAK 1.000000FILE "01 - Byul - What [Ever] Happened to the Genuine Age of French Fries?.flac" WAVE TRACK 01 AUDIO TITLE "What [Ever] Happened to the Genuine Age of French Fries?" PERFORMER "Byul" SONGWRITER "모임 별" REM REPLAYGAIN_TRACK_GAIN -4.95 dB REM REPLAYGAIN_TRACK_PEAK 1.000000 INDEX 01 00:00:00 TRACK 02 AUDIO TITLE "2 Stars" PERFORMER "Byul" SONGWRITER "모임 별" REM REPLAYGAIN_TRACK_GAIN -5.45 dB REM REPLAYGAIN_TRACK_PEAK 1.000000 INDEX 00 05:14:34FILE "02 - Byul - 2 Stars.flac" WAVE INDEX 01 00:00:00 TRACK 03 AUDIO TITLE "TT" PERFORMER "M & F" SONGWRITER "조성우" REM REPLAYGAIN_TRACK_GAIN -3.37 dB REM REPLAYGAIN_TRACK_PEAK 0.933289 INDEX 00 05:25:39FILE "03 - M & F - TT.flac" WAVE INDEX 01 00:00:00 TRACK 04 AUDIO TITLE "Walk" PERFORMER "M & F" SONGWRITER "박기헌" REM REPLAYGAIN_TRACK_GAIN -2.53 dB REM REPLAYGAIN_TRACK_PEAK 1.000000 INDEX 00 04:53:66FILE "04 - M & F - Walk.flac" WAVE INDEX 01 00:00:00 TRACK 05 AUDIO TITLE "Unfamiliar Landscape" PERFORMER "M & F" SONGWRITER "조성우" REM REPLAYGAIN_TRACK_GAIN -3.06 dB REM REPLAYGAIN_TRACK_PEAK 1.000000 INDEX 00 03:30:69FILE "05 - M & F - Unfamiliar Landscape.flac" WAVE INDEX 01 00:00:00 TRACK 06 AUDIO TITLE "A Friend" PERFORMER "M & F" SONGWRITER "김준석" REM REPLAYGAIN_TRACK_GAIN -5.33 dB REM REPLAYGAIN_TRACK_PEAK 1.000000 INDEX 00 02:21:52FILE "06 - M & F - A Friend.flac" WAVE INDEX 01 00:00:00 TRACK 07 AUDIO TITLE "Friendship" PERFORMER "M & F" SONGWRITER "박기헌" REM REPLAYGAIN_TRACK_GAIN 1.19 dB REM REPLAYGAIN_TRACK_PEAK 1.000000 INDEX 00 02:24:40FILE "07 - M & F - Friendship.flac" WAVE INDEX 01 00:00:00 TRACK 08 AUDIO TITLE "Dream" PERFORMER "M & F" SONGWRITER "김준석" REM REPLAYGAIN_TRACK_GAIN -3.64 dB REM REPLAYGAIN_TRACK_PEAK 0.999969 INDEX 00 02:52:34FILE "08 - M & F - Dream.flac" WAVE INDEX 01 00:00:00 TRACK 09 AUDIO TITLE "Crumple..." PERFORMER "M & F" SONGWRITER "조성우" REM REPLAYGAIN_TRACK_GAIN -2.16 dB REM REPLAYGAIN_TRACK_PEAK 1.000000 INDEX 00 01:08:48FILE "09 - M & F - Crumple....flac" WAVE INDEX 01 00:00:00 TRACK 10 AUDIO TITLE "Not a Place for Children…" PERFORMER "[dialogue]" REM REPLAYGAIN_TRACK_GAIN -0.70 dB REM REPLAYGAIN_TRACK_PEAK 0.608276 INDEX 00 02:49:19FILE "10 - [dialogue] - Not a Place for Children….flac" WAVE INDEX 01 00:00:00FILE "11 - M & F - Twenty.flac" WAVE TRACK 11 AUDIO TITLE "Twenty" PERFORMER "M & F" SONGWRITER "김준석" REM REPLAYGAIN_TRACK_GAIN -0.39 dB REM REPLAYGAIN_TRACK_PEAK 0.900543 INDEX 01 00:00:00 TRACK 12 AUDIO TITLE "Accompanied" PERFORMER "[dialogue]" REM REPLAYGAIN_TRACK_GAIN 1.25 dB REM REPLAYGAIN_TRACK_PEAK 0.656250 INDEX 00 03:14:61FILE "12 - [dialogue] - Accompanied.flac" WAVE INDEX 01 00:00:00FILE "13 - M & F - Together They... (Ending).flac" WAVE TRACK 13 AUDIO TITLE "Together They... (Ending)" PERFORMER "M & F" SONGWRITER "김준석" REM REPLAYGAIN_TRACK_GAIN -0.92 dB REM REPLAYGAIN_TRACK_PEAK 0.999969 INDEX 01 00:00:00
[teatrix.ru].t10346.torrent 
Торрент: Зарегистрирован [ 2015-11-01 20:51 ] · 9369AF0BE584FA4DF9B13BECA83B7AFC911E6081

Скачать .torrent

Скачать

16 KB

Статус: проверено
Скачан: 1 раз
Размер: 183 MB
terms.php



Быстрый ответ

Имя:

      
Для отправки сообщений необходимо включить JavaScript
Показать сообщения:    

Текущее время: 05-Дек 01:16

Часовой пояс: UTC + 3


Вы можете начинать темы
Вы можете отвечать на сообщения
Вы не можете редактировать свои сообщения
Вы не можете удалять свои сообщения
Вы не можете голосовать в опросах
Вы не можете прикреплять файлы к сообщениям
Вы можете скачивать файлы