(Score) Мать / Mother / Madeo (Byung-woo Lee) - 2009, FLAC (tracks+.cue), lossless


Статистика раздачи [Обновить пиров]
Размер:  207 MB   |    Зарегистрирован:  1 год 1 месяц   |    Скачан:  1 раз

Полного источника не было: 21 день

 
   
 
 
 

[Цитировать]

Мать / Mother / Madeo
Жанр: Score
Композитор: Byung-woo Lee
Год выпуска диска: 2009
Страна-производитель диска: South Korea
Аудиокодек: FLAC (*.flac)
Тип рипа: tracks+.cue
Битрейт аудио: lossless
Продолжительность: 49:15
Источник: скачано с
сайт-источник/ник/другое: asiandvdclub.org
Треклист:
1. Prologue 2:42
2. Revenge? 3:30
3. Eyeball 1:18
4. Festival 1:35
5. Blood Stain March 1:39
6. Cat Cry 1:29
7. Broken Umbrella - ver.2 1:39
8. Broken Umbrella 1:57
9. Running 1:29
10. Rice Cake Girl? 1:42
11. Mother - A Tree 2:51
12. Following, Darkness and Truth 3:18
13. Abyss 1:23
14. Unveil 2:35
15. That Night 2:43
16. Mother 3:40
17. Dream 1:32
18. Don't Cry 1:24
19. Mother - The Gift from Dojun 3:11
20. Dance - Epilogue 4:10
21. Festival - full ver. 3:16

Лог создания рипа

Exact Audio Copy V1.0 beta 3 from 29. August 2011
EAC extraction logfile from 12. June 2012, 13:30
이병우 / Mother
Used drive : TSSTcorpCDDVDW SH-S223C Adapter: 1 ID: 0
Read mode : SecureUtilize accurate stream : YesDefeat audio cache : YesMake use of C2 pointers : No
Read offset correction : 697Overread into Lead-In and Lead-Out : NoFill up missing offset samples with silence : YesDelete leading and trailing silent blocks : NoNull samples used in CRC calculations : YesUsed interface : Native Win32 interface for Win NT & 2000Gap handling : Appended to previous track
Used output format : User Defined EncoderSelected bitrate : 1024 kBit/sQuality : HighAdd ID3 tag : NoCommand line compressor : C:\Program Files\Exact Audio Copy\Flac\flac.exeAdditional command line options : -8 -V -T "ARTIST=%artist%" -T "TITLE=%title%" -T "ALBUM=%albumtitle%" -T "DATE=%year%" -T "TRACKNUMBER=%tracknr%" -T "GENRE=%genre%" -T "PERFORMER=%albuminterpret%" -T "COMPOSER=%composer%" %haslyrics%--tag-from-file=LYRICS="%lyricsfile%"%haslyrics% -T "ALBUMARTIST=%albumartist%" -T "DISCNUMBER=%cdnumber%" -T "TOTALDISCS=%totalcds%" -T "TOTALTRACKS=%numtracks%" -T "COMMENT=%comment%" %source% -o %dest%
TOC of the extracted CD
Track | Start | Length | Start sector | End sector --------------------------------------------------------- 1 | 0:00.00 | 2:42.13 | 0 | 12162 2 | 2:42.13 | 3:30.67 | 12163 | 27979 3 | 6:13.05 | 1:18.51 | 27980 | 33880 4 | 7:31.56 | 1:35.34 | 33881 | 41039 5 | 9:07.15 | 1:39.36 | 41040 | 48500 6 | 10:46.51 | 1:29.07 | 48501 | 55182 7 | 12:15.58 | 1:39.54 | 55183 | 62661 8 | 13:55.37 | 1:57.26 | 62662 | 71462 9 | 15:52.63 | 1:29.42 | 71463 | 78179 10 | 17:22.30 | 1:42.61 | 78180 | 85890 11 | 19:05.16 | 2:51.73 | 85891 | 98788 12 | 21:57.14 | 3:18.72 | 98789 | 113710 13 | 25:16.11 | 1:23.28 | 113711 | 119963 14 | 26:39.39 | 2:35.39 | 119964 | 131627 15 | 29:15.03 | 2:43.52 | 131628 | 143904 16 | 31:58.55 | 3:40.66 | 143905 | 160470 17 | 35:39.46 | 1:32.74 | 160471 | 167444 18 | 37:12.45 | 1:24.00 | 167445 | 173744 19 | 38:36.45 | 3:11.66 | 173745 | 188135 20 | 41:48.36 | 4:10.54 | 188136 | 206939 21 | 45:59.15 | 3:16.22 | 206940 | 221661
Track 1
Filename C:\Program Files\Exact Audio Copy\Flac\01 - 춤 Prolog.wav
Pre-gap length 0:00:02.00
Peak level 95.6 % Extraction speed 1.8 X Track quality 100.0 % Test CRC 3EC928D7 Copy CRC 3EC928D7 Track not present in AccurateRip database Copy OK
Track 2
Filename C:\Program Files\Exact Audio Copy\Flac\02 - 복수.wav
Pre-gap length 0:00:03.76
Peak level 95.9 % Extraction speed 2.1 X Track quality 100.0 % Test CRC C4996AF4 Copy CRC C4996AF4 Track not present in AccurateRip database Copy OK
Track 3
Filename C:\Program Files\Exact Audio Copy\Flac\03 - 눈망울.wav
Pre-gap length 0:00:04.69
Peak level 25.5 % Extraction speed 1.2 X Track quality 99.8 % Test CRC 7E21A4E4 Copy CRC 7E21A4E4 Track not present in AccurateRip database Copy OK
Track 4
Filename C:\Program Files\Exact Audio Copy\Flac\04 - 축제.wav
Pre-gap length 0:00:01.64
Peak level 81.9 % Extraction speed 1.7 X Track quality 100.0 % Test CRC 9731F8FA Copy CRC 9731F8FA Track not present in AccurateRip database Copy OK
Track 5
Filename C:\Program Files\Exact Audio Copy\Flac\05 - 혈흔 행진곡.wav
Pre-gap length 0:00:01.14
Peak level 95.6 % Extraction speed 1.7 X Track quality 100.0 % Test CRC A575ACD6 Copy CRC A575ACD6 Track not present in AccurateRip database Copy OK
Track 6
Filename C:\Program Files\Exact Audio Copy\Flac\06 - 고양이 소리.wav
Pre-gap length 0:00:03.46
Peak level 58.3 % Extraction speed 1.7 X Track quality 100.0 % Test CRC 9780B009 Copy CRC 9780B009 Track not present in AccurateRip database Copy OK
Track 7
Filename C:\Program Files\Exact Audio Copy\Flac\07 - 부서진 우산 (ver.2).wav
Pre-gap length 0:00:03.16
Peak level 45.4 % Extraction speed 1.7 X Track quality 100.0 % Test CRC CC65AD85 Copy CRC CC65AD85 Track not present in AccurateRip database Copy OK
Track 8
Filename C:\Program Files\Exact Audio Copy\Flac\08 - 부서진 우산.wav
Pre-gap length 0:00:04.13
Peak level 49.2 % Extraction speed 1.8 X Track quality 100.0 % Test CRC B337FAE8 Copy CRC B337FAE8 Track not present in AccurateRip database Copy OK
Track 9
Filename C:\Program Files\Exact Audio Copy\Flac\09 - 질주.wav
Peak level 76.9 % Extraction speed 1.7 X Track quality 100.0 % Test CRC 87591D25 Copy CRC 87591D25 Track not present in AccurateRip database Copy OK
Track 10
Filename C:\Program Files\Exact Audio Copy\Flac\10 - 쌀떡소녀.wav
Pre-gap length 0:00:02.94
Peak level 46.1 % Extraction speed 1.7 X Track quality 100.0 % Test CRC B93C8426 Copy CRC B93C8426 Track not present in AccurateRip database Copy OK
Track 11
Filename C:\Program Files\Exact Audio Copy\Flac\11 - 마더-나무 한그루.wav
Pre-gap length 0:00:03.92
Peak level 63.6 % Extraction speed 1.7 X Track quality 99.9 % Test CRC 241EDB77 Copy CRC 241EDB77 Track not present in AccurateRip database Copy OK
Track 12
Filename C:\Program Files\Exact Audio Copy\Flac\12 - 미행, 어둠 그리고 진실.wav
Pre-gap length 0:00:03.56
Peak level 45.7 % Extraction speed 2.0 X Track quality 100.0 % Test CRC 184DE9B9 Copy CRC 184DE9B9 Track not present in AccurateRip database Copy OK
Track 13
Filename C:\Program Files\Exact Audio Copy\Flac\13 - 심연.wav
Pre-gap length 0:00:01.57
Peak level 65.2 % Extraction speed 1.6 X Track quality 100.0 % Test CRC 710F7FE1 Copy CRC 710F7FE1 Track not present in AccurateRip database Copy OK
Track 14
Filename C:\Program Files\Exact Audio Copy\Flac\14 - Unveil.wav
Pre-gap length 0:00:03.46
Peak level 58.6 % Extraction speed 1.9 X Track quality 100.0 % Test CRC 3F80A04A Copy CRC 3F80A04A Track not present in AccurateRip database Copy OK
Track 15
Filename C:\Program Files\Exact Audio Copy\Flac\15 - 그날밤.wav
Pre-gap length 0:00:04.17
Peak level 95.6 % Extraction speed 1.6 X Track quality 99.9 % Test CRC CD0C5137 Copy CRC CD0C5137 Track not present in AccurateRip database Copy OK
Track 16
Filename C:\Program Files\Exact Audio Copy\Flac\16 - 마더.wav
Pre-gap length 0:00:03.32
Peak level 38.9 % Extraction speed 2.1 X Track quality 100.0 % Test CRC D7C3AEE7 Copy CRC D7C3AEE7 Track not present in AccurateRip database Copy OK
Track 17
Filename C:\Program Files\Exact Audio Copy\Flac\17 - 꿈.wav
Pre-gap length 0:00:03.74
Peak level 43.3 % Extraction speed 1.7 X Track quality 100.0 % Test CRC B4D9CA7B Copy CRC B4D9CA7B Track not present in AccurateRip database Copy OK
Track 18
Filename C:\Program Files\Exact Audio Copy\Flac\18 - 울지마.wav
Pre-gap length 0:00:03.52
Peak level 27.0 % Extraction speed 1.2 X Track quality 99.8 % Test CRC DD3DCF2C Copy CRC DD3DCF2C Track not present in AccurateRip database Copy OK
Track 19
Filename C:\Program Files\Exact Audio Copy\Flac\19 - 마더-도준의 선물.wav
Pre-gap length 0:00:03.28
Peak level 42.9 % Extraction speed 1.7 X Track quality 99.9 % Test CRC 7FAF7DBC Copy CRC 7FAF7DBC Track not present in AccurateRip database Copy OK
Track 20
Filename C:\Program Files\Exact Audio Copy\Flac\20 - 춤 Epilog.wav
Pre-gap length 0:00:01.45
Peak level 95.3 % Extraction speed 2.1 X Track quality 100.0 % Test CRC 9F09ED76 Copy CRC 9F09ED76 Track not present in AccurateRip database Copy OK
Track 21
Filename C:\Program Files\Exact Audio Copy\Flac\21 - 축제 (full ver.).wav
Pre-gap length 0:00:01.48
Peak level 75.0 % Extraction speed 2.0 X Track quality 100.0 % Test CRC DCB30183 Copy CRC DCB30183 Track not present in AccurateRip database Copy OK
None of the tracks are present in the AccurateRip database
No errors occurred
End of status report
==== Log checksum 398644C7B0B6DFD9AC09DB0494EC93202E1CE16DD60D93FFAC3360E60AA35F23 ====

Содержание индексной карты (.CUE)

REM GENRE SoundtrackREM DATE 2009REM DISCID 160B8B15REM COMMENT "ExactAudioCopy v1.0b3"PERFORMER "ĄĢŗ´æģ"TITLE "Mother"FILE "01 - Ćć Prolog.wav" WAVE TRACK 01 AUDIO TITLE "Ćć Prolog" PERFORMER "ĄĢŗ´æģ" INDEX 01 00:00:00 TRACK 02 AUDIO TITLE "ŗ¹¼ö?" PERFORMER "ĄĢŗ´æģ" INDEX 00 02:38:31FILE "02 - ŗ¹¼ö.wav" WAVE INDEX 01 00:00:00 TRACK 03 AUDIO TITLE "´«øĮæļ" PERFORMER "ĄĢŗ´æģ" INDEX 00 03:26:15FILE "03 - ´«øĮæļ.wav" WAVE INDEX 01 00:00:00 TRACK 04 AUDIO TITLE "ĆąĮ¦" PERFORMER "ĄĢŗ´æģ" INDEX 00 01:17:03FILE "04 - ĆąĮ¦.wav" WAVE INDEX 01 00:00:00 TRACK 05 AUDIO TITLE "Ē÷Čē ĒąĮų°ī" PERFORMER "ĄĢŗ´æģ" INDEX 00 01:34:23FILE "05 - Ē÷Čē ĒąĮų°ī.wav" WAVE INDEX 01 00:00:00 TRACK 06 AUDIO TITLE "°ķ¾ēĄĢ ¼Ņø®" PERFORMER "ĄĢŗ´æģ" INDEX 00 01:36:01FILE "06 - °ķ¾ēĄĢ ¼Ņø®.wav" WAVE INDEX 01 00:00:00 TRACK 07 AUDIO TITLE "ŗĪ¼­Įų æģ»ź (ver.2)" PERFORMER "ĄĢŗ´æģ" INDEX 00 01:25:70FILE "07 - ŗĪ¼­Įų æģ»ź (ver.2).wav" WAVE INDEX 01 00:00:00 TRACK 08 AUDIO TITLE "ŗĪ¼­Įų æģ»ź" PERFORMER "ĄĢŗ´æģ" INDEX 00 01:35:44FILE "08 - ŗĪ¼­Įų æģ»ź.wav" WAVE INDEX 01 00:00:00FILE "09 - ĮśĮÖ.wav" WAVE TRACK 09 AUDIO TITLE "ĮśĮÖ" PERFORMER "ĄĢŗ´æģ" INDEX 01 00:00:00 TRACK 10 AUDIO TITLE "½Ņ¶±¼Ņ³ą?" PERFORMER "ĄĢŗ´æģ" INDEX 00 01:26:46FILE "10 - ½Ņ¶±¼Ņ³ą.wav" WAVE INDEX 01 00:00:00 TRACK 11 AUDIO TITLE "ø¶´õ-³Ŗ¹« Ēѱ׷ē" PERFORMER "ĄĢŗ´æģ" INDEX 00 01:38:67FILE "11 - ø¶´õ-³Ŗ¹« Ēѱ׷ē.wav" WAVE INDEX 01 00:00:00 TRACK 12 AUDIO TITLE "¹ĢĒą, ¾īµŅ ±×ø®°ķ Įų½Ē" PERFORMER "ĄĢŗ´æģ" INDEX 00 02:48:31FILE "12 - ¹ĢĒą, ¾īµŅ ±×ø®°ķ Įų½Ē.wav" WAVE INDEX 01 00:00:00 TRACK 13 AUDIO TITLE "½Éæ¬" PERFORMER "ĄĢŗ´æģ" INDEX 00 03:17:29FILE "13 - ½Éæ¬.wav" WAVE INDEX 01 00:00:00 TRACK 14 AUDIO TITLE "Unveil" PERFORMER "ĄĢŗ´æģ" INDEX 00 01:19:68FILE "14 - Unveil.wav" WAVE INDEX 01 00:00:00 TRACK 15 AUDIO TITLE "±×³Æ¹ć" PERFORMER "ĄĢŗ´æģ" INDEX 00 02:31:26FILE "15 - ±×³Æ¹ć.wav" WAVE INDEX 01 00:00:00 TRACK 16 AUDIO TITLE "ø¶´õ" PERFORMER "ĄĢŗ´æģ" INDEX 00 02:40:28FILE "16 - ø¶´õ.wav" WAVE INDEX 01 00:00:00 TRACK 17 AUDIO TITLE "²Ž" PERFORMER "ĄĢŗ´æģ" INDEX 00 03:37:10FILE "17 - ²Ž.wav" WAVE INDEX 01 00:00:00 TRACK 18 AUDIO TITLE "æļĮöø¶" PERFORMER "ĄĢŗ´æģ" INDEX 00 01:29:35FILE "18 - æļĮöø¶.wav" WAVE INDEX 01 00:00:00 TRACK 19 AUDIO TITLE "ø¶´õ-µµĮŲĄĒ ¼±¹°" PERFORMER "ĄĢŗ´æģ" INDEX 00 01:20:54FILE "19 - ø¶´õ-µµĮŲĄĒ ¼±¹°.wav" WAVE INDEX 01 00:00:00 TRACK 20 AUDIO TITLE "Ćć Epilog" PERFORMER "ĄĢŗ´æģ" INDEX 00 03:10:32FILE "20 - Ćć Epilog.wav" WAVE INDEX 01 00:00:00 TRACK 21 AUDIO TITLE "ĆąĮ¦ (full ver.)" PERFORMER "ĄĢŗ´æģ" INDEX 00 04:09:18FILE "21 - ĆąĮ¦ (full ver.).wav" WAVE INDEX 01 00:00:00
[teatrix.ru].t10347.torrent 
Торрент: Зарегистрирован [ 2015-11-01 20:51 ] · 559FC9AB4D627BE360BA635653880E313219090B

Скачать .torrent

Скачать

18 KB

Статус: проверено
Скачан: 1 раз
Размер: 207 MB
terms.php



Быстрый ответ

Имя:

      
Для отправки сообщений необходимо включить JavaScript
Показать сообщения:    

Текущее время: 05-Дек 15:33

Часовой пояс: UTC + 3


Вы можете начинать темы
Вы можете отвечать на сообщения
Вы не можете редактировать свои сообщения
Вы не можете удалять свои сообщения
Вы не можете голосовать в опросах
Вы не можете прикреплять файлы к сообщениям
Вы можете скачивать файлы