(Score) Любовное письмо / Love Letter (Remedios) - 2001 (1995), FLAC (tracks), lossless


Статистика раздачи [Обновить пиров]
Размер:  194 MB   |    Зарегистрирован:  1 год 1 месяц   |    Скачан:  1 раз

Полного источника не было: 3 месяца 9 дней

 
   
 
 
 

[Цитировать]

Любовное письмо / Love Letter
Жанр: Score
Композитор: Remedios
Год выпуска диска: 2001
Год выпуска фильма: 1995
Страна-производитель диска: Japan
Издатель (лейбл): King Record
Номер по каталогу: KICS-875
Аудиокодек: FLAC (*.flac)
Тип рипа: tracks
Битрейт аудио: lossless
Продолжительность: 41:42
Источник: скачано с
сайт-источник/ник/другое: saerome.net
Наличие сканов в содержимом раздачи: нет
Треклист:
01. His Smile
02. Childhood Day
03. Flow in the Wind
04. Letter of no return
05. Sweet Rumors
06. Forgive me
07. Fading
08. Frozen Summer
09. The Flight
10. He Loves You So
11. A Winter Story
12. Eccentric Love Parade
13. Soil of his Tears
14. Gateway to Heaven
15. Small Happiness

Лог создания рипа

Exact Audio Copy V0.99 prebeta 4 from 23. January 2008
EAC extraction logfile from 22. February 2009, 0:22
Remedios / Love Letter OST
Used drive : TSSTcorpCDDVDW SH-S223Q Adapter: 2 ID: 1
Read mode : SecureUtilize accurate stream : YesDefeat audio cache : YesMake use of C2 pointers : No
Read offset correction : 6Overread into Lead-In and Lead-Out : NoFill up missing offset samples with silence : YesDelete leading and trailing silent blocks : NoNull samples used in CRC calculations : YesUsed interface : Native Win32 interface for Win NT & 2000Gap handling : Appended to previous track
Used output format : User Defined EncoderSelected bitrate : 128 kBit/sQuality : HighAdd ID3 tag : NoCommand line compressor : C:\Program Files (x86)\Exact Audio Copy\Flac\flac.exeAdditional command line options : -8 -V -T "ARTIST=%a" -T "TITLE=%t" -T "ALBUM=%g" -T "DATE=%y" -T "TRACKNUMBER=%n" -T "GENRE=%m" -T "COMMENT=EAC FLAC -8" %s
TOC of the extracted CD
Track | Start | Length | Start sector | End sector --------------------------------------------------------- 1 | 0:00.00 | 4:56.29 | 0 | 22228 2 | 4:56.29 | 1:38.64 | 22229 | 29642 3 | 6:35.18 | 1:28.22 | 29643 | 36264 4 | 8:03.40 | 1:18.36 | 36265 | 42150 5 | 9:22.01 | 3:09.59 | 42151 | 56384 6 | 12:31.60 | 4:12.25 | 56385 | 75309 7 | 16:44.10 | 1:11.06 | 75310 | 80640 8 | 17:55.16 | 3:52.23 | 80641 | 98063 9 | 21:47.39 | 1:44.39 | 98064 | 105902 10 | 23:32.03 | 2:44.63 | 105903 | 118265 11 | 26:16.66 | 3:19.35 | 118266 | 133225 12 | 29:36.26 | 1:39.49 | 133226 | 140699 13 | 31:16.00 | 2:46.54 | 140700 | 153203 14 | 34:02.54 | 3:40.39 | 153204 | 169742 15 | 37:43.18 | 3:59.19 | 169743 | 187686
Track 1
Filename D:\Love Letter\01 - His Smile.wav
Pre-gap length 0:00:02.00
Peak level 99.2 % Track quality 100.0 % Test CRC CA9BDB40 Copy CRC CA9BDB40 Accurately ripped (confidence 3) [6D697FFA] Copy OK
Track 2
Filename D:\Love Letter\02 - Childhood Days.wav
Peak level 91.5 % Track quality 100.0 % Test CRC 35E79901 Copy CRC 35E79901 Accurately ripped (confidence 3) [54EDABF2] Copy OK
Track 3
Filename D:\Love Letter\03 - Flow In The Wind.wav
Peak level 82.7 % Track quality 100.0 % Test CRC 9E29141B Copy CRC 9E29141B Accurately ripped (confidence 3) [9B0AB26B] Copy OK
Track 4
Filename D:\Love Letter\04 - Letter of No Return.wav
Peak level 77.8 % Track quality 100.0 % Test CRC 52BAC87C Copy CRC 52BAC87C Accurately ripped (confidence 3) [0D794569] Copy OK
Track 5
Filename D:\Love Letter\05 - Sweet Rumors.wav
Peak level 61.8 % Track quality 100.0 % Test CRC ED5801B0 Copy CRC ED5801B0 Accurately ripped (confidence 3) [445CD878] Copy OK
Track 6
Filename D:\Love Letter\06 - Forgive Me.wav
Peak level 99.9 % Track quality 99.9 % Test CRC 3F7ED66F Copy CRC 3F7ED66F Accurately ripped (confidence 3) [58BF7FCE] Copy OK
Track 7
Filename D:\Love Letter\07 - Fading.wav
Peak level 77.8 % Track quality 100.0 % Test CRC 6BF6BE47 Copy CRC 6BF6BE47 Accurately ripped (confidence 3) [4526AB83] Copy OK
Track 8
Filename D:\Love Letter\08 - Frozen Summer.wav
Peak level 74.0 % Track quality 100.0 % Test CRC B7D52C6B Copy CRC B7D52C6B Accurately ripped (confidence 3) [04FC7E0D] Copy OK
Track 9
Filename D:\Love Letter\09 - The Flight.wav
Peak level 57.6 % Track quality 100.0 % Test CRC FED49F1A Copy CRC FED49F1A Accurately ripped (confidence 3) [2303E071] Copy OK
Track 10
Filename D:\Love Letter\10 - He Loves You So.wav
Peak level 64.0 % Track quality 100.0 % Test CRC A6F274EB Copy CRC A6F274EB Accurately ripped (confidence 3) [C2B462F2] Copy OK
Track 11
Filename D:\Love Letter\11 - A Winter Story.wav
Peak level 76.3 % Track quality 100.0 % Test CRC A2557398 Copy CRC A2557398 Accurately ripped (confidence 3) [AF591C05] Copy OK
Track 12
Filename D:\Love Letter\12 - Eccentric Love Parade.wav
Peak level 100.0 % Track quality 100.0 % Test CRC 192C5CFF Copy CRC 192C5CFF Accurately ripped (confidence 3) [626689F3] Copy OK
Track 13
Filename D:\Love Letter\13 - Soil of His Tears.wav
Peak level 92.9 % Track quality 99.9 % Test CRC 06E30351 Copy CRC 06E30351 Accurately ripped (confidence 3) [F181A3E7] Copy OK
Track 14
Filename D:\Love Letter\14 - Gateway To Heaven.wav
Peak level 84.4 % Track quality 100.0 % Test CRC 99058A1B Copy CRC 99058A1B Accurately ripped (confidence 3) [AF94D7FF] Copy OK
Track 15
Filename D:\Love Letter\15 - Small Happiness.wav
Peak level 93.5 % Track quality 100.0 % Test CRC EFCBD179 Copy CRC EFCBD179 Accurately ripped (confidence 3) [3806411E] Copy OK
All tracks accurately ripped
No errors occurred
End of status report
[teatrix.ru].t10348.torrent 
Торрент: Зарегистрирован [ 2015-11-01 20:51 ] · CFA65FA09C917D9FDA1A76AA8B513DA69BC69BCD

Скачать .torrent

Скачать

17 KB

Статус: проверено
Скачан: 1 раз
Размер: 194 MB
terms.php



Быстрый ответ

Имя:

      
Для отправки сообщений необходимо включить JavaScript
Показать сообщения:    

Текущее время: 09-Дек 08:47

Часовой пояс: UTC + 3


Вы можете начинать темы
Вы можете отвечать на сообщения
Вы не можете редактировать свои сообщения
Вы не можете удалять свои сообщения
Вы не можете голосовать в опросах
Вы не можете прикреплять файлы к сообщениям
Вы можете скачивать файлы