(Score) Летняя история / A Summer Story (by Georges Delerue) - 1988, FLAC (image+.cue), lossless


Статистика раздачи [Обновить пиров]
Размер:  193 MB   |    Зарегистрирован:  1 год 1 месяц   |    Скачан:  0 раз

Полного источника не было: Никогда

 
   
 
 
 

[Цитировать]

-Летняя история / A Summer Story
Composed and Conducted by Georges Delerue
- -Жанр: Score | Дата выпуска: 1988
Издатель (лейбл): Virgin | Номер по каталогу: 7 90961-2
Аудиокодек: FLAC | Тип рипа: image+.cue | Битрейт аудио: lossless
Общая продолжительность: 36:35
Источник: Рип оригинального диска из личной коллекции
-
01. Love in the Loft [01:49]
02. Summer Poem [01:37]
03. We Meet Megan [00:59]
04. Sheep Shearing [01:19]
05. Ashton Arrives [03:20]
06. Waiting for Megan [01:56]
07. Falling in Love [01:29]
08. Coming to Town [00:32]
09. Abandoned [04:54]
10. Flashback and Rescue [02:09]
11. The Gentle Maiden (Instrumental) [01:47]
12. Return to the Hill [03:26]
13. At the Beach [00:34]
14. Megan Leaves Forever [01:44]
15. Missed the Train [01:18]
16. Megan at Work [00:49]
17. Night Meeting [01:27]
18. Megan in the Field [01:16]
19. Thinking of Ashton [00:33]
20. Ashton's Son (Theme from A Summer Story) [03:23]

Лог создания рипа

Exact Audio Copy V1.0 beta 3 from 29. August 2011
EAC extraction logfile from 4. September 2014, 17:35
Georges Delerue / A Summer Story
Used drive : TSSTcorpCDDVDW SN-S082N Adapter: 3 ID: 0
Read mode : SecureUtilize accurate stream : YesDefeat audio cache : YesMake use of C2 pointers : No
Read offset correction : 6Overread into Lead-In and Lead-Out : NoFill up missing offset samples with silence : YesDelete leading and trailing silent blocks : NoNull samples used in CRC calculations : YesUsed interface : Native Win32 interface for Win NT & 2000
Used output format : Internal WAV RoutinesSample format : 44.100 Hz; 16 Bit; Stereo
TOC of the extracted CD
Track | Start | Length | Start sector | End sector --------------------------------------------------------- 1 | 0:00.62 | 1:50.00 | 62 | 8311 2 | 1:50.62 | 1:38.38 | 8312 | 15699 3 | 3:29.25 | 1:00.12 | 15700 | 20211 4 | 4:29.37 | 1:20.08 | 20212 | 26219 5 | 5:49.45 | 3:21.25 | 26220 | 41319 6 | 9:10.70 | 1:56.40 | 41320 | 50059 7 | 11:07.35 | 1:30.25 | 50060 | 56834 8 | 12:37.60 | 0:33.45 | 56835 | 59354 9 | 13:11.30 | 4:56.42 | 59355 | 81596 10 | 18:07.72 | 2:09.40 | 81597 | 91311 11 | 20:17.37 | 1:49.33 | 91312 | 99519 12 | 22:06.70 | 3:26.67 | 99520 | 115036 13 | 25:33.62 | 0:34.60 | 115037 | 117646 14 | 26:08.47 | 1:44.48 | 117647 | 125494 15 | 27:53.20 | 1:19.40 | 125495 | 131459 16 | 29:12.60 | 0:49.65 | 131460 | 135199 17 | 30:02.50 | 1:28.57 | 135200 | 141856 18 | 31:31.32 | 1:17.13 | 141857 | 147644 19 | 32:48.45 | 0:34.57 | 147645 | 150251 20 | 33:23.27 | 3:22.70 | 150252 | 165471
Range status and errors
Selected range
Filename D:\Georges Delerue - CD Collection [by italia57]\Georges Delerue (1988) A Summer Story\Georges Delerue - A Summer Story (Virgin 7 90961-2).wav
Peak level 96.6 % Extraction speed 0.9 X Range quality 100.0 % Test CRC 1298D5AD Copy CRC 1298D5AD Copy OK
No errors occurred
AccurateRip summary
Track 1 accurately ripped (confidence 1) [6F21C636] (AR v2)Track 2 accurately ripped (confidence 1) [A28F01CB] (AR v2)Track 3 accurately ripped (confidence 1) [DA99196D] (AR v2)Track 4 accurately ripped (confidence 1) [32CE3D4C] (AR v2)Track 5 accurately ripped (confidence 1) [C3834942] (AR v2)Track 6 accurately ripped (confidence 1) [72A1839B] (AR v2)Track 7 accurately ripped (confidence 1) [09C2E804] (AR v2)Track 8 accurately ripped (confidence 1) [C069722A] (AR v2)Track 9 accurately ripped (confidence 1) [B2092F50] (AR v2)Track 10 accurately ripped (confidence 1) [EA1E3FFD] (AR v2)Track 11 accurately ripped (confidence 1) [36554363] (AR v2)Track 12 accurately ripped (confidence 1) [923E0A61] (AR v2)Track 13 accurately ripped (confidence 1) [3CC71E6F] (AR v2)Track 14 accurately ripped (confidence 1) [157EEE13] (AR v2)Track 15 accurately ripped (confidence 1) [2AED2492] (AR v2)Track 16 accurately ripped (confidence 1) [9B3D28C7] (AR v2)Track 17 accurately ripped (confidence 1) [2ED4A7EF] (AR v2)Track 18 accurately ripped (confidence 1) [1B8A99F8] (AR v2)Track 19 accurately ripped (confidence 1) [411DEE9E] (AR v2)Track 20 accurately ripped (confidence 1) [FAAA28FB] (AR v2)
All tracks accurately ripped
End of status report
---- CUETools DB Plugin V2.1.4
[CTDB TOCID: RCJ67rWVCYq.8kqGjaVo7V0dBKc-] foundSubmit result: RCJ67rWVCYq.8kqGjaVo7V0dBKc- has been confirmedTrack | CTDB Status 1 | (1/1) Accurately ripped 2 | (1/1) Accurately ripped 3 | (1/1) Accurately ripped 4 | (1/1) Accurately ripped 5 | (1/1) Accurately ripped 6 | (1/1) Accurately ripped 7 | (1/1) Accurately ripped 8 | (1/1) Accurately ripped 9 | (1/1) Accurately ripped 10 | (1/1) Accurately ripped 11 | (1/1) Accurately ripped 12 | (1/1) Accurately ripped 13 | (1/1) Accurately ripped 14 | (1/1) Accurately ripped 15 | (1/1) Accurately ripped 16 | (1/1) Accurately ripped 17 | (1/1) Accurately ripped 18 | (1/1) Accurately ripped 19 | (1/1) Accurately ripped 20 | (1/1) Accurately ripped
==== Log checksum 25C78FC15647FD796CC2215F3692DA6671DA56A818F05598208F9AF2C1773EEB ====

Содержание индексной карты (.CUE)

REM GENRE SoundtrackREM DATE 1988REM DISCID 0D089E14REM COMMENT "ExactAudioCopy v1.0b3"PERFORMER "Georges Delerue"TITLE "A Summer Story"FILE "Georges Delerue - A Summer Story (Virgin 7 90961-2).flac" WAVE TRACK 01 AUDIO TITLE "Love in the Loft" PERFORMER "Georges Delerue" INDEX 00 00:00:00 INDEX 01 00:00:62 TRACK 02 AUDIO TITLE "Summer Poem" PERFORMER "Georges Delerue" INDEX 00 01:49:50 INDEX 01 01:50:62 TRACK 03 AUDIO TITLE "We Meet Megan" PERFORMER "Georges Delerue" INDEX 00 03:27:27 INDEX 01 03:29:25 TRACK 04 AUDIO TITLE "Sheep Shearing" PERFORMER "Georges Delerue" INDEX 00 04:28:22 INDEX 01 04:29:37 TRACK 05 AUDIO TITLE "Ashton Arrives" PERFORMER "Georges Delerue" INDEX 00 05:48:17 INDEX 01 05:49:45 TRACK 06 AUDIO TITLE "Waiting For Megan" PERFORMER "Georges Delerue" INDEX 00 09:09:32 INDEX 01 09:10:70 TRACK 07 AUDIO TITLE "Falling in Love" PERFORMER "Georges Delerue" INDEX 00 11:06:32 INDEX 01 11:07:35 TRACK 08 AUDIO TITLE "Coming to Town" PERFORMER "Georges Delerue" INDEX 00 12:36:07 INDEX 01 12:37:60 TRACK 09 AUDIO TITLE "Abandoned" PERFORMER "Georges Delerue" INDEX 00 13:09:72 INDEX 01 13:11:30 TRACK 10 AUDIO TITLE "Flashback and Resque" PERFORMER "Georges Delerue" INDEX 00 18:05:32 INDEX 01 18:07:72 TRACK 11 AUDIO TITLE "The Gentle Maiden" PERFORMER "Georges Delerue" INDEX 00 20:16:47 INDEX 01 20:17:37 TRACK 12 AUDIO TITLE "Return to the Hill" PERFORMER "Georges Delerue" INDEX 00 22:04:67 INDEX 01 22:06:70 TRACK 13 AUDIO TITLE "At the Beach" PERFORMER "Georges Delerue" INDEX 00 25:32:12 INDEX 01 25:33:62 TRACK 14 AUDIO TITLE "Megan Leaves Forever" PERFORMER "Georges Delerue" INDEX 00 26:07:25 INDEX 01 26:08:47 TRACK 15 AUDIO TITLE "Missed the Train" PERFORMER "Georges Delerue" INDEX 00 27:52:12 INDEX 01 27:53:20 TRACK 16 AUDIO TITLE "Megan at Work" PERFORMER "Georges Delerue" INDEX 00 29:11:35 INDEX 01 29:12:60 TRACK 17 AUDIO TITLE "Night Meeting" PERFORMER "Georges Delerue" INDEX 00 30:01:15 INDEX 01 30:02:50 TRACK 18 AUDIO TITLE "Megan in the Field" PERFORMER "Georges Delerue" INDEX 00 31:29:67 INDEX 01 31:31:32 TRACK 19 AUDIO TITLE "Thinking Of Ashton" PERFORMER "Georges Delerue" INDEX 00 32:47:07 INDEX 01 32:48:45 TRACK 20 AUDIO TITLE "Ashton's Son (Theme From A Summer Story)" PERFORMER "Georges Delerue" INDEX 00 33:21:67 INDEX 01 33:23:27
[teatrix.ru].t10349.torrent 
Торрент: Зарегистрирован [ 2015-11-01 20:51 ] · 3E5124C592A583F662D0A0EC18EDF78A9332F72F

Скачать .torrent

Скачать

16 KB

Статус: проверено
Скачан: 0 раз
Размер: 193 MB
terms.php



Быстрый ответ

Имя:

      
Для отправки сообщений необходимо включить JavaScript
Показать сообщения:    

Текущее время: 07-Дек 21:20

Часовой пояс: UTC + 3


Вы можете начинать темы
Вы можете отвечать на сообщения
Вы не можете редактировать свои сообщения
Вы не можете удалять свои сообщения
Вы не можете голосовать в опросах
Вы не можете прикреплять файлы к сообщениям
Вы можете скачивать файлы