(Score) Эммануэль 4 / Emmanuelle 4 (by Michel Magne) - 2011 (1984), FLAC (image+.cue), lossless


Статистика раздачи [Обновить пиров]
Размер:  635 MB   |    Зарегистрирован:  1 год 1 месяц   |    Скачан:  0 раз

Полного источника не было: Никогда

 
   
 
 
 

[Цитировать]

-Эммануэль 4 / Emmanuelle 4
Music by Michel Magne
Limited Edition of 1000 Copies
- -Жанр: Score | Дата выпуска: 5 декабря 2011
Издатель (лейбл): Music Box Records | Номер по каталогу: MBR-006
Аудиокодек: FLAC | Тип рипа: image+.cue | Битрейт аудио: lossless
Общая продолжительность: 69:11
Источник: Рип оригинального диска из личной коллекции
-
★★ Emmanuelle 4 ★★ (1984)
01. Oh My Belle Emmanuelle [3:41]
02. La pampa [2:38]
03. Vival-dit-Emmanuelle [1:26]
04. Divina Emanuela [3:15]
05. Le pendule [0:58]
06. Fantasme d'Emmanuelle [2:09]
07. La bergerie [3:11]
08. Bach-anal [3:32]
09. Brésil My Love [1:54]
10. Fuite d'Emmanuelle [3:24]
11. I Am Manuela [2:56]
12. L'extase d'Emmanuelle [1:46]
13. Prisoner Of Love [4:04]
★★ S.A.S. à San Salvador ★★ (1983)
14. S.A.S. à San Salvador [3:40]
15. Thème Cubain [2:55]
16. To Be My Love (Instrumental Saxophone) [2:40]
17. Thème Malko (Suspens) [2:02]
18. Thème Malko (Piscine) [2:14]
19. To Be My Love (Instrumental Guitare) [3:31]
20. Musique réception [3:24]
21. Grand Thème Malko [5:20]
22. Sex, Love And Money [4:20]
23. To Be My Love [3:17]
Vocals:
David Rose (1, 13, 14, 22, 23)
Nazaré Pereira (4)
Christiane Legrand (8)
Brien Chelminski (11)

Лог создания рипа

Exact Audio Copy V1.0 beta 3 from 29. August 2011
EAC extraction logfile from 27. November 2014, 18:49
Michel Magne / Emmanuelle 4 - SAS a San Salvador
Used drive : TSSTcorpCDDVDW SN-S082N Adapter: 1 ID: 0
Read mode : SecureUtilize accurate stream : YesDefeat audio cache : YesMake use of C2 pointers : No
Read offset correction : 6Overread into Lead-In and Lead-Out : NoFill up missing offset samples with silence : YesDelete leading and trailing silent blocks : NoNull samples used in CRC calculations : YesUsed interface : Native Win32 interface for Win NT & 2000
Used output format : Internal WAV RoutinesSample format : 44.100 Hz; 16 Bit; Stereo
TOC of the extracted CD
Track | Start | Length | Start sector | End sector --------------------------------------------------------- 1 | 0:00.00 | 3:43.27 | 0 | 16751 2 | 3:43.27 | 2:39.69 | 16752 | 28745 3 | 6:23.21 | 1:28.33 | 28746 | 35378 4 | 7:51.54 | 3:17.26 | 35379 | 50179 5 | 11:09.05 | 1:00.09 | 50180 | 54688 6 | 12:09.14 | 2:11.60 | 54689 | 64573 7 | 14:20.74 | 3:13.05 | 64574 | 79053 8 | 17:34.04 | 3:34.48 | 79054 | 95151 9 | 21:08.52 | 1:56.45 | 95152 | 103896 10 | 23:05.22 | 3:26.30 | 103897 | 119376 11 | 26:31.52 | 2:58.16 | 119377 | 132742 12 | 29:29.68 | 1:48.01 | 132743 | 140843 13 | 31:17.69 | 4:08.25 | 140844 | 159468 14 | 35:26.19 | 3:42.25 | 159469 | 176143 15 | 39:08.44 | 2:57.22 | 176144 | 189440 16 | 42:05.66 | 2:42.04 | 189441 | 201594 17 | 44:47.70 | 2:02.23 | 201595 | 210767 18 | 46:50.18 | 2:16.62 | 210768 | 221029 19 | 49:07.05 | 3:33.11 | 221030 | 237015 20 | 52:40.16 | 3:26.35 | 237016 | 252500 21 | 56:06.51 | 5:22.56 | 252501 | 276706 22 | 61:29.32 | 4:22.29 | 276707 | 296385 23 | 65:51.61 | 3:17.31 | 296386 | 311191
Range status and errors
Selected range
Filename D:\Michel Magne - Emmanuelle 4 - SAS a San Salvador (MBR-006).wav
Peak level 95.6 % Extraction speed 1.1 X Range quality 100.0 % Test CRC 5C61625A Copy CRC 5C61625A Copy OK
No errors occurred
AccurateRip summary
Track 1 accurately ripped (confidence 5) [4558C58F] (AR v2)Track 2 accurately ripped (confidence 5) [8E9E0EAA] (AR v2)Track 3 accurately ripped (confidence 5) [D6AFE633] (AR v2)Track 4 accurately ripped (confidence 5) [7530A2CE] (AR v2)Track 5 accurately ripped (confidence 5) [58FF066E] (AR v2)Track 6 accurately ripped (confidence 5) [A431D6E1] (AR v2)Track 7 accurately ripped (confidence 5) [5F796C30] (AR v2)Track 8 accurately ripped (confidence 5) [2A21F0EA] (AR v2)Track 9 accurately ripped (confidence 5) [078A59B3] (AR v2)Track 10 accurately ripped (confidence 5) [FAECCCBA] (AR v2)Track 11 accurately ripped (confidence 5) [4866828D] (AR v2)Track 12 accurately ripped (confidence 5) [A3F761B7] (AR v2)Track 13 accurately ripped (confidence 5) [D1A601E8] (AR v2)Track 14 accurately ripped (confidence 5) [BF4F5F9F] (AR v2)Track 15 accurately ripped (confidence 5) [198A947C] (AR v2)Track 16 accurately ripped (confidence 5) [A4C1F88E] (AR v2)Track 17 accurately ripped (confidence 5) [5E0038F6] (AR v2)Track 18 accurately ripped (confidence 5) [F6B5457F] (AR v2)Track 19 accurately ripped (confidence 5) [D6E71E0E] (AR v2)Track 20 accurately ripped (confidence 5) [42427369] (AR v2)Track 21 accurately ripped (confidence 5) [8B07358D] (AR v2)Track 22 accurately ripped (confidence 5) [8DB1D560] (AR v2)Track 23 accurately ripped (confidence 5) [D9F7935F] (AR v2)
All tracks accurately ripped
End of status report
---- CUETools DB Plugin V2.1.4
[CTDB TOCID: J3YcVESp.SVxWidjajMQ65Tgx5c-] foundSubmit result: J3YcVESp.SVxWidjajMQ65Tgx5c- has been confirmedTrack | CTDB Status 1 | (4/4) Accurately ripped 2 | (4/4) Accurately ripped 3 | (4/4) Accurately ripped 4 | (4/4) Accurately ripped 5 | (4/4) Accurately ripped 6 | (4/4) Accurately ripped 7 | (4/4) Accurately ripped 8 | (4/4) Accurately ripped 9 | (4/4) Accurately ripped 10 | (4/4) Accurately ripped 11 | (4/4) Accurately ripped 12 | (4/4) Accurately ripped 13 | (4/4) Accurately ripped 14 | (4/4) Accurately ripped 15 | (4/4) Accurately ripped 16 | (4/4) Accurately ripped 17 | (4/4) Accurately ripped 18 | (4/4) Accurately ripped 19 | (4/4) Accurately ripped 20 | (4/4) Accurately ripped 21 | (4/4) Accurately ripped 22 | (4/4) Accurately ripped 23 | (4/4) Accurately ripped
==== Log checksum 33209CA6E64E5972CAC44C991A434757D13AD40861EEE1126B426E10FB49EBB3 ====

Содержание индексной карты (.CUE)

REM GENRE SoundtrackREM DATE 1984REM DISCID 63103517REM COMMENT "ExactAudioCopy v1.0b3"PERFORMER "Michel Magne"TITLE "Emmanuelle 4 - SAS a San Salvador"FILE "Michel Magne - Emmanuelle 4 - SAS a San Salvador (MBR-006).flac" WAVE TRACK 01 AUDIO TITLE "Oh My Belle Emmanuelle (David Rose)" PERFORMER "Michel Magne" INDEX 01 00:00:00 TRACK 02 AUDIO TITLE "La Pampa" PERFORMER "Michel Magne" INDEX 00 03:41:27 INDEX 01 03:43:27 TRACK 03 AUDIO TITLE "Vival-dit-Emmanuelle" PERFORMER "Michel Magne" INDEX 00 06:21:30 INDEX 01 06:23:21 TRACK 04 AUDIO TITLE "Divina Emanuela (Nazare Pereira)" PERFORMER "Michel Magne" INDEX 00 07:49:42 INDEX 01 07:51:54 TRACK 05 AUDIO TITLE "Le pendule" PERFORMER "Michel Magne" INDEX 00 11:07:00 INDEX 01 11:09:05 TRACK 06 AUDIO TITLE "Fantasme d'Emmanuelle" PERFORMER "Michel Magne" INDEX 00 12:07:14 INDEX 01 12:09:14 TRACK 07 AUDIO TITLE "La bergerie" PERFORMER "Michel Magne" INDEX 00 14:18:74 INDEX 01 14:20:74 TRACK 08 AUDIO TITLE "Bach-Anal (Christiane Legrand)" PERFORMER "Michel Magne" INDEX 00 17:32:04 INDEX 01 17:34:04 TRACK 09 AUDIO TITLE "Bresil My Love" PERFORMER "Michel Magne" INDEX 00 21:06:52 INDEX 01 21:08:52 TRACK 10 AUDIO TITLE "Fuite d'Emmanuelle" PERFORMER "Michel Magne" INDEX 00 23:03:22 INDEX 01 23:05:22 TRACK 11 AUDIO TITLE "I Am Manuela (Brien Chelminski)" PERFORMER "Michel Magne" INDEX 00 26:29:56 INDEX 01 26:31:52 TRACK 12 AUDIO TITLE "L'extase d'Emmanuelle" PERFORMER "Michel Magne" INDEX 00 29:27:68 INDEX 01 29:29:68 TRACK 13 AUDIO TITLE "Prisoner Of Love (David Rose)" PERFORMER "Michel Magne" INDEX 00 31:15:72 INDEX 01 31:17:69 TRACK 14 AUDIO TITLE "S.A.S. a San Salvador (David Rose)" PERFORMER "Michel Magne" INDEX 00 35:22:19 INDEX 01 35:26:19 TRACK 15 AUDIO TITLE "Theme cubain" PERFORMER "Michel Magne" INDEX 00 39:06:44 INDEX 01 39:08:44 TRACK 16 AUDIO TITLE "To Be My Love (Instrumental Saxophone)" PERFORMER "Michel Magne" INDEX 00 42:03:66 INDEX 01 42:05:66 TRACK 17 AUDIO TITLE "Theme Malko (Suspens)" PERFORMER "Michel Magne" INDEX 00 44:45:70 INDEX 01 44:47:70 TRACK 18 AUDIO TITLE "Theme Malko (Piscine)" PERFORMER "Michel Magne" INDEX 01 46:50:18 TRACK 19 AUDIO TITLE "To Be My Love (Instrumental Guitare)" PERFORMER "Michel Magne" INDEX 00 49:05:05 INDEX 01 49:07:05 TRACK 20 AUDIO TITLE "Musique reception" PERFORMER "Michel Magne" INDEX 00 52:38:16 INDEX 01 52:40:16 TRACK 21 AUDIO TITLE "Grand Theme Malko" PERFORMER "Michel Magne" INDEX 00 56:04:51 INDEX 01 56:06:51 TRACK 22 AUDIO TITLE "Sex, Love And Money (David Rose)" PERFORMER "Michel Magne" INDEX 00 61:27:32 INDEX 01 61:29:32 TRACK 23 AUDIO TITLE "To Be My Love (David Rose)" PERFORMER "Michel Magne" INDEX 00 65:49:47 INDEX 01 65:51:61
[teatrix.ru].t10351.torrent 
Торрент: Зарегистрирован [ 2015-11-01 20:51 ] · 447D638595D0EE9A02EB7D9A88040B4642179A8B

Скачать .torrent

Скачать

14 KB

Статус: проверено
Скачан: 0 раз
Размер: 635 MB
terms.php



Быстрый ответ

Имя:

      
Для отправки сообщений необходимо включить JavaScript
Показать сообщения:    

Текущее время: 08-Дек 01:18

Часовой пояс: UTC + 3


Вы можете начинать темы
Вы можете отвечать на сообщения
Вы не можете редактировать свои сообщения
Вы не можете удалять свои сообщения
Вы не можете голосовать в опросах
Вы не можете прикреплять файлы к сообщениям
Вы можете скачивать файлы