(Soundtrack) Музыкальный блог Доктора Ужасного / Dr. Horrible's Sing-Along Blog (VA) - 2008, FLAC (tracks+.cue), lossless


Статистика раздачи [Обновить пиров]
Размер:  135 MB   |    Зарегистрирован:  1 год 1 месяц   |    Скачан:  0 раз

Полного источника не было: Никогда

 
   
 
 
 

[Цитировать]

Музыкальный блог Доктора Ужасного / Dr. Horrible's Sing-Along Blog- Жанр: Soundtrack
Год выпуска диска: 2008
Страна-производитель диска: USA
Издатель (лейбл): Mutant Enemy Inc
Номер по каталогу: -
Аудиокодек: FLAC (*.flac)
Тип рипа: tracks+.cue
Битрейт аудио: lossless
Продолжительность: 00:24:52
Источник: CD / What.CD
Наличие сканов в содержимом раздачи: нет
Треклист:
01 - Jed Whedon - Horrible Theme
02 - Neil Patrick Harris - My Freeze Ray
03 - Jed Whedon, Joss Whedon and Zack Whedon - Bad Horse Chorus
04 - Felicia Day - Caring Hands
05 - Neil Patrick Harris, Felicia Day and Nathan Fillion - A Man's Gotta Do
06 - Felicia Day and Neil Patrick Harris - My Eyes
07 - Jed Whedon, Joss Whedon and Zack Whedon - Bad Horse Chorus (Reprise)
08 - Felicia Day - Penny's Song
09 - Neil Patrick Harris - Brand New Day
10 - Robert Reints, Zack Whedon, Maurissa Tancharoen, Stacy Shirk, Steve Berg, Felicia Day, Nathan Filli - So They Say
11 - Nathan Fillion - Everyone's a Hero
12 - Neil Patrick Harris - Slipping
13 - Neil Patrick Harris - Everything You Ever
14 - Jed Whedon - Horrible Credits

Лог создания рипа

Exact Audio Copy V0.99 prebeta 5 from 4. May 2009
EAC extraction logfile from 31. March 2010, 20:37
Various / Dr. Horrible's Sing-Along Blog Soundtrack
Used drive : PIONEER DVD-RW DVR-112D Adapter: 1 ID: 0
Read mode : SecureUtilize accurate stream : YesDefeat audio cache : YesMake use of C2 pointers : No
Read offset correction : 48Overread into Lead-In and Lead-Out : NoFill up missing offset samples with silence : YesDelete leading and trailing silent blocks : NoNull samples used in CRC calculations : NoUsed interface : Native Win32 interface for Win NT & 2000Gap handling : Appended to previous track
Used output format : User Defined EncoderSelected bitrate : 128 kBit/sQuality : HighAdd ID3 tag : NoCommand line compressor : C:\Program Files\Exact Audio Copy\Flac\flac.exeAdditional command line options : -V -8 -T "artist=%a" -T "title=%t" -T "album=%g" -T "date=%y" -T "tracknumber=%n" -T "genre=%m" %s
TOC of the extracted CD
Track | Start | Length | Start sector | End sector --------------------------------------------------------- 1 | 0:00.00 | 0:09.66 | 0 | 740 2 | 0:09.66 | 1:54.38 | 741 | 9328 3 | 2:04.29 | 0:35.29 | 9329 | 11982 4 | 2:39.58 | 0:37.28 | 11983 | 14785 5 | 3:17.11 | 2:20.28 | 14786 | 25313 6 | 5:37.39 | 2:47.66 | 25314 | 37904 7 | 8:25.30 | 0:21.30 | 37905 | 39509 8 | 8:46.60 | 1:23.72 | 39510 | 45806 9 | 10:10.57 | 1:49.53 | 45807 | 54034 10 | 12:00.35 | 2:12.64 | 54035 | 63998 11 | 14:13.24 | 2:45.49 | 63999 | 76422 12 | 16:58.73 | 2:05.63 | 76423 | 85860 13 | 19:04.61 | 3:35.53 | 85861 | 102038 14 | 22:40.39 | 2:12.24 | 102039 | 111962
Track 1
Filename C:\Music\Various - 2008 - Dr. Horrible's Sing-Along Blog Soundtrack\01 - Horrible Theme.wav
Pre-gap length 0:00:02.00
Peak level 100.0 % Track quality 100.0 % Test CRC 621B5E88 Copy CRC 621B5E88 Cannot be verified as accurate (confidence 11) [32F5A9EF], AccurateRip returned [F42B83BF] Copy OK
Track 2
Filename C:\Music\Various - 2008 - Dr. Horrible's Sing-Along Blog Soundtrack\02 - My Freeze Ray.wav
Peak level 100.0 % Track quality 100.0 % Test CRC 9B231F8D Copy CRC 9B231F8D Cannot be verified as accurate (confidence 11) [8BD4B7B7], AccurateRip returned [AA311A8D] Copy OK
Track 3
Filename C:\Music\Various - 2008 - Dr. Horrible's Sing-Along Blog Soundtrack\03 - Bad Horse Chorus.wav
Peak level 100.0 % Track quality 100.0 % Test CRC 37B97B7D Copy CRC 37B97B7D Accurately ripped (confidence 4) [267AA55A] Copy OK
Track 4
Filename C:\Music\Various - 2008 - Dr. Horrible's Sing-Along Blog Soundtrack\04 - Caring Hands.wav
Peak level 75.7 % Track quality 100.0 % Test CRC 4C461BF8 Copy CRC 4C461BF8 Accurately ripped (confidence 4) [D3699251] Copy OK
Track 5
Filename C:\Music\Various - 2008 - Dr. Horrible's Sing-Along Blog Soundtrack\05 - A Man's Gotta Do.wav
Peak level 94.3 % Track quality 100.0 % Test CRC A0E309C6 Copy CRC A0E309C6 Cannot be verified as accurate (confidence 11) [4C6CD1B1], AccurateRip returned [51422150] Copy OK
Track 6
Filename C:\Music\Various - 2008 - Dr. Horrible's Sing-Along Blog Soundtrack\06 - My Eyes.wav
Peak level 99.5 % Track quality 100.0 % Test CRC 00BEF079 Copy CRC 00BEF079 Cannot be verified as accurate (confidence 11) [08EFA74C], AccurateRip returned [AF22BB30] Copy OK
Track 7
Filename C:\Music\Various - 2008 - Dr. Horrible's Sing-Along Blog Soundtrack\07 - Bad Horse Chorus (Reprise).wav
Peak level 100.0 % Track quality 100.0 % Test CRC F683A5DA Copy CRC F683A5DA Accurately ripped (confidence 4) [B843E381] Copy OK
Track 8
Filename C:\Music\Various - 2008 - Dr. Horrible's Sing-Along Blog Soundtrack\08 - Penny's Song.wav
Peak level 79.0 % Track quality 100.0 % Test CRC C5E9D844 Copy CRC C5E9D844 Accurately ripped (confidence 4) [34537BA8] Copy OK
Track 9
Filename C:\Music\Various - 2008 - Dr. Horrible's Sing-Along Blog Soundtrack\09 - Brand New Day.wav
Peak level 100.0 % Track quality 100.0 % Test CRC A25E2283 Copy CRC A25E2283 Accurately ripped (confidence 4) [CBEF56EB] Copy OK
Track 10
Filename C:\Music\Various - 2008 - Dr. Horrible's Sing-Along Blog Soundtrack\10 - So They Say.wav
Peak level 92.2 % Track quality 99.9 % Test CRC 5BDC5426 Copy CRC 5BDC5426 Accurately ripped (confidence 4) [1C8132BA] Copy OK
Track 11
Filename C:\Music\Various - 2008 - Dr. Horrible's Sing-Along Blog Soundtrack\11 - Everyone's A Hero.wav
Peak level 100.0 % Track quality 100.0 % Test CRC D2F9214E Copy CRC D2F9214E Cannot be verified as accurate (confidence 11) [CDB77856], AccurateRip returned [00170DF8] Copy OK
Track 12
Filename C:\Music\Various - 2008 - Dr. Horrible's Sing-Along Blog Soundtrack\12 - Slipping.wav
Peak level 100.0 % Track quality 99.9 % Test CRC D4CF6BFB Copy CRC D4CF6BFB Cannot be verified as accurate (confidence 11) [84B96E5C], AccurateRip returned [1AE62BB0] Copy OK
Track 13
Filename C:\Music\Various - 2008 - Dr. Horrible's Sing-Along Blog Soundtrack\13 - Everything You Ever.wav
Peak level 99.7 % Track quality 100.0 % Test CRC 72206FC7 Copy CRC 72206FC7 Cannot be verified as accurate (confidence 11) [10F1D38F], AccurateRip returned [F00D7512] Copy OK
Track 14
Filename C:\Music\Various - 2008 - Dr. Horrible's Sing-Along Blog Soundtrack\14 - Horrible Credits.wav
Peak level 94.0 % Track quality 99.8 % Test CRC F6F75D99 Copy CRC F6F75D99 Cannot be verified as accurate (confidence 11) [8ED386B1], AccurateRip returned [69E294E9] Copy OK
6 track(s) accurately ripped 8 track(s) could not be verified as accurate
Some tracks could not be verified as accurate
No errors occurred
End of status report

Содержание индексной карты (.CUE)

REM GENRE SoundtrackREM DATE 2008REM DISCID 9305D40EREM COMMENT "ExactAudioCopy v0.99pb5"FILE "01 - Horrible Theme.wav" WAVE TRACK 01 AUDIO FLAGS DCP INDEX 01 00:00:00FILE "02 - My Freeze Ray.wav" WAVE TRACK 02 AUDIO FLAGS DCP INDEX 01 00:00:00FILE "03 - Bad Horse Chorus.wav" WAVE TRACK 03 AUDIO FLAGS DCP INDEX 01 00:00:00FILE "04 - Caring Hands.wav" WAVE TRACK 04 AUDIO FLAGS DCP INDEX 01 00:00:00FILE "05 - A Man's Gotta Do.wav" WAVE TRACK 05 AUDIO FLAGS DCP INDEX 01 00:00:00FILE "06 - My Eyes.wav" WAVE TRACK 06 AUDIO FLAGS DCP INDEX 01 00:00:00FILE "07 - Bad Horse Chorus (Reprise).wav" WAVE TRACK 07 AUDIO FLAGS DCP INDEX 01 00:00:00FILE "08 - Penny's Song.wav" WAVE TRACK 08 AUDIO FLAGS DCP INDEX 01 00:00:00FILE "09 - Brand New Day.wav" WAVE TRACK 09 AUDIO FLAGS DCP INDEX 01 00:00:00FILE "10 - So They Say.wav" WAVE TRACK 10 AUDIO FLAGS DCP INDEX 01 00:00:00FILE "11 - Everyone's A Hero.wav" WAVE TRACK 11 AUDIO FLAGS DCP INDEX 01 00:00:00FILE "12 - Slipping.wav" WAVE TRACK 12 AUDIO FLAGS DCP INDEX 01 00:00:00FILE "13 - Everything You Ever.wav" WAVE TRACK 13 AUDIO FLAGS DCP INDEX 01 00:00:00FILE "14 - Horrible Credits.wav" WAVE TRACK 14 AUDIO FLAGS DCP INDEX 01 00:00:00

Лог проверки качества

-----------------------
DON'T MODIFY THIS FILE
-----------------------
PERFORMER: auCDtect Task Manager, ver. 1.6.0 RC1 build 1.6.0.1Copyright (c) 2008-2010 y-soft. All rights reservedhttp://y-soft.org
ANALYZER: auCDtect: CD records authenticity detector, version 0.8.2Copyright (c) 2004 Oleg Berngardt. All rights reserved.Copyright (c) 2004 Alexander Djourik. All rights reserved.
FILE: 14 - Horrible Credits.flac Size: 11456349 Hash: 4CAA629E60AA643F4C858B3D7020BC64 Accuracy: -m0 Conclusion: CDDA 100% Signature: EE592055CAB9DD0925A0DE4B9EEF2DE5B5DF97F4FILE: 13 - Everything You Ever.flac Size: 18785586 Hash: 03E118D433552ED929C6A4741618501A Accuracy: -m0 Conclusion: CDDA 100% Signature: 2B0DF84C9D43D52C7A3A5A6C5AC3E3BBB4FE2A16FILE: 12 - Slipping.flac Size: 12254136 Hash: 2BF8F267DB82CE01227747D39D0FCD89 Accuracy: -m0 Conclusion: CDDA 99% Signature: ED41595F473687ECFBCC5C7333B3A41F53298A86FILE: 11 - Everyone's A Hero.flac Size: 16295363 Hash: 95656B38543A2812E65942AE5E5051DA Accuracy: -m0 Conclusion: CDDA 100% Signature: BE315F2FB6817494F678E9C161EC6D6EF61983D1FILE: 10 - So They Say.flac Size: 14052044 Hash: C1D782B1877DBD577B14057FC1EB3938 Accuracy: -m0 Conclusion: CDDA 100% Signature: D3B214F9C083A1E91A6D3405C1234A82C4E5DD22FILE: 09 - Brand New Day.flac Size: 11624941 Hash: 771EAA7AEB5F896A7BFCA5F2128DD970 Accuracy: -m0 Conclusion: CDDA 100% Signature: 63E4BDF89B0298DD1A899EB16818AAA8FAB946BCFILE: 08 - Penny's Song.flac Size: 6559199 Hash: 4B05306D0846B286C3A1F42825809DDF Accuracy: -m0 Conclusion: CDDA 100% Signature: 62F3742E7EDD5748FB77CCE73C7EDBBACC35D026FILE: 07 - Bad Horse Chorus (Reprise).flac Size: 1776842 Hash: A5B57CB779A8EC8E6F63C3FE1AE53A5B Accuracy: -m0 Conclusion: CDDA 100% Signature: BB626A5E7EB7B47D9FB8F59780366297B56140ADFILE: 06 - My Eyes.flac Size: 18309363 Hash: 85AC90D3C137BCE66BE139AF8606904C Accuracy: -m0 Conclusion: CDDA 100% Signature: B67466887C5EDA59C9C9B981ACCEBB031C2515ADFILE: 05 - A Man's Gotta Do.flac Size: 13971128 Hash: 2B41819AB0429DFACDE9053E811C6B23 Accuracy: -m0 Conclusion: CDDA 100% Signature: 6F4C5D1B840050CD8ED6EC87529CE46055AC4D0FFILE: 04 - Caring Hands.flac Size: 2061287 Hash: B0257DE189DF71A54BEC3889B550E3E6 Accuracy: -m0 Conclusion: CDDA 100% Signature: D953F1C6C1BA178E80B22B60234B74BD75FF2F44FILE: 03 - Bad Horse Chorus.flac Size: 3652436 Hash: 3B32117EA3DCD0430AE66C2524720208 Accuracy: -m0 Conclusion: CDDA 100% Signature: D04D1F1BE8F3A29D7593D204806FBE54C2667943FILE: 02 - My Freeze Ray.flac Size: 10301458 Hash: 60B456730CBE430D39E889467C03C627 Accuracy: -m0 Conclusion: CDDA 99% Signature: 7CEBBC26DE411ADD912410423E6111D417C1AA0CFILE: 01 - Horrible Theme.flac Size: 851548 Hash: 7CF5BA3D436CED3E8AEE866254246A15 Accuracy: -m0 Conclusion: CDDA 100% Signature: E3C4002BFD02F0EE2A6072CEFDA729FE3A6EA215

Доп. инфо

Score: 98 (out of 100)
The following properties decreased the score:
Not using null samples (does not affect audio data), -1 point [1]
Not ripped with EAC v1.0 or higher (no checksums), -1 point [2]

Скриншот спектра частот

[teatrix.ru].t10352.torrent 
Торрент: Зарегистрирован [ 2015-11-01 20:51 ] · F15CD0F378C23E8CC8B56D00DDA673DFF454F528

Скачать .torrent

Скачать

12 KB

Статус: проверено
Скачан: 0 раз
Размер: 135 MB
terms.php



Быстрый ответ

Имя:

      
Для отправки сообщений необходимо включить JavaScript
Показать сообщения:    

Текущее время: 06-Дек 17:10

Часовой пояс: UTC + 3


Вы можете начинать темы
Вы можете отвечать на сообщения
Вы не можете редактировать свои сообщения
Вы не можете удалять свои сообщения
Вы не можете голосовать в опросах
Вы не можете прикреплять файлы к сообщениям
Вы можете скачивать файлы