(Score) Шуаны / Chouans (by Georges Delerue) - 1988, FLAC (image+.cue), lossless


Статистика раздачи [Обновить пиров]
Размер:  264 MB   |    Зарегистрирован:  1 год 1 месяц   |    Скачан:  0 раз

Полного источника не было: Никогда

 
   
 
 
 

[Цитировать]

-Шуаны / Chouans
Composed and Conducted by Georges Delerue
- -Жанр: Score | Дата выпуска: 1988
Издатель (лейбл): Carrere | Номер по каталогу: 96 538
Аудиокодек: FLAC | Тип рипа: image+.cue | Битрейт аудио: lossless
Общая продолжительность: 52:36
Источник: Рип оригинального диска из личной коллекции
-
01. Chouans (Générique début) [1:45]
02. Les naissances [2:23]
03. L'envol de la montgolfière [1:18]
04. Va vers la joie [1:03]
05. La fête au château [1:43]
06. Menuet [1:52]
07. Pavane [1:25]
08. Les chouans devant le château [4:57]
09. Aurèle et Céline [1:26]
10. La séparation [1:33]
11. Lanterne magique [1:06]
12. Le village incendié [1:41]
13. Thème des Chouans [2:19]
14. Chouans! (Générique fin) [3:02]
15. Le départ de Tarquin [2:32]
16. Laisse-moi rêver [1:12]
17. L'armée Risling [1:04]
18. L'envol [2:08]
19. L'évasion de Céline [6:28]
20. La lettre perdue [2:21]
21. La mort de Viviane [2:20]
22. La bataille [1:48]
23. Après la bataille dans la nuit [1:23]
24. L'adieu à Viviane [1:52]

Лог создания рипа

Exact Audio Copy V1.0 beta 3 from 29. August 2011
EAC extraction logfile from 21. November 2014, 14:13
Georges Delerue / Chouans
Used drive : TSSTcorpCDDVDW TS-L633C Adapter: 2 ID: 0
Read mode : SecureUtilize accurate stream : YesDefeat audio cache : YesMake use of C2 pointers : No
Read offset correction : 6Overread into Lead-In and Lead-Out : NoFill up missing offset samples with silence : YesDelete leading and trailing silent blocks : NoNull samples used in CRC calculations : YesUsed interface : Native Win32 interface for Win NT & 2000
Used output format : Internal WAV RoutinesSample format : 44.100 Hz; 16 Bit; Stereo
TOC of the extracted CD
Track | Start | Length | Start sector | End sector --------------------------------------------------------- 1 | 0:00.33 | 1:46.15 | 33 | 7997 2 | 1:46.48 | 2:26.65 | 7998 | 19012 3 | 4:13.38 | 1:22.65 | 19013 | 25227 4 | 5:36.28 | 1:32.02 | 25228 | 32129 5 | 7:08.30 | 1:45.60 | 32130 | 40064 6 | 8:54.15 | 1:56.55 | 40065 | 48819 7 | 10:50.70 | 1:30.03 | 48820 | 55572 8 | 12:20.73 | 5:00.55 | 55573 | 78127 9 | 17:21.53 | 1:29.42 | 78128 | 84844 10 | 18:51.20 | 1:38.03 | 84845 | 92197 11 | 20:29.23 | 1:09.20 | 92198 | 97392 12 | 21:38.43 | 1:45.15 | 97393 | 105282 13 | 23:23.58 | 2:24.10 | 105283 | 116092 14 | 25:47.68 | 3:07.17 | 116093 | 130134 15 | 28:55.10 | 2:35.03 | 130135 | 141762 16 | 31:30.13 | 1:14.35 | 141763 | 147347 17 | 32:44.48 | 1:08.12 | 147348 | 152459 18 | 33:52.60 | 2:11.20 | 152460 | 162304 19 | 36:04.05 | 6:31.43 | 162305 | 191672 20 | 42:35.48 | 2:33.65 | 191673 | 203212 21 | 45:09.38 | 2:23.12 | 203213 | 213949 22 | 47:32.50 | 1:52.58 | 213950 | 222407 23 | 49:25.33 | 1:27.12 | 222408 | 228944 24 | 50:52.45 | 1:53.25 | 228945 | 237444
Range status and errors
Selected range
Filename H:\Georges Delerue - CD Collection [by italia57]\Georges Delerue (1988) Chouans\Georges Delerue - Chouans (Carrere 96 538).wav
Suspicious position 0:41:39
Peak level 100.0 % Extraction speed 1.3 X Range quality 99.9 % Test CRC 882E7E9B Copy CRC 882E7E9B Copy finished
There were errors
AccurateRip summary
Track 1 accurately ripped (confidence 1) [B56678FC] (AR v2)Track 2 accurately ripped (confidence 1) [AA539443] (AR v2)Track 3 accurately ripped (confidence 1) [389D67ED] (AR v2)Track 4 accurately ripped (confidence 1) [DE694B04] (AR v2)Track 5 accurately ripped (confidence 1) [8D731D8A] (AR v2)Track 6 accurately ripped (confidence 1) [2A9657B4] (AR v2)Track 7 accurately ripped (confidence 1) [685DC4C2] (AR v2)Track 8 accurately ripped (confidence 1) [FFC3D95F] (AR v2)Track 9 accurately ripped (confidence 1) [EC3CAF3E] (AR v2)Track 10 accurately ripped (confidence 1) [42CF2FB4] (AR v2)Track 11 accurately ripped (confidence 1) [D91CE3EB] (AR v2)Track 12 accurately ripped (confidence 1) [F50BD9B3] (AR v2)Track 13 accurately ripped (confidence 1) [AD0ED7C7] (AR v2)Track 14 accurately ripped (confidence 1) [8BF6F40F] (AR v2)Track 15 accurately ripped (confidence 1) [FE0FF6FF] (AR v2)Track 16 accurately ripped (confidence 1) [4B8AADB4] (AR v2)Track 17 accurately ripped (confidence 1) [7416AB6D] (AR v2)Track 18 accurately ripped (confidence 1) [14658751] (AR v2)Track 19 cannot be verified as accurate (confidence 1) [B82E49D5], AccurateRip returned [623A9206] (AR v2)Track 20 accurately ripped (confidence 1) [69AC31CB] (AR v2)Track 21 accurately ripped (confidence 1) [7FA93133] (AR v2)Track 22 accurately ripped (confidence 1) [0DB11106] (AR v2)Track 23 accurately ripped (confidence 1) [7C91F1D6] (AR v2)Track 24 accurately ripped (confidence 1) [19DAFA20] (AR v2)
23 track(s) accurately ripped 1 track(s) could not be verified as accurate
Some tracks could not be verified as accurate
End of status report
---- CUETools DB Plugin V2.1.4
[CTDB TOCID: HwHkYJvpm_VioDJa8hCIBvqKDqs-] disk not present in databaseSubmit result: HwHkYJvpm_VioDJa8hCIBvqKDqs- has been uploaded
==== Log checksum 33E44F45B17D776880C545A745E25419E6301F6B12E4971DF5257823559BC66B ====

Содержание индексной карты (.CUE)

REM GENRE SoundtrackREM DATE 1988REM DISCID 360C5D18REM COMMENT "ExactAudioCopy v1.0b3"PERFORMER "Georges Delerue"TITLE "Chouans"FILE "Georges Delerue - Chouans (Carrere 96 538).flac" WAVE TRACK 01 AUDIO TITLE "Chouans (Generique debut)" PERFORMER "Georges Delerue" INDEX 00 00:00:00 INDEX 01 00:00:33 TRACK 02 AUDIO TITLE "Les naissances" PERFORMER "Georges Delerue" INDEX 00 01:45:03 INDEX 01 01:46:48 TRACK 03 AUDIO TITLE "L'envol de la mongolfiere" PERFORMER "Georges Delerue" INDEX 00 04:11:15 INDEX 01 04:13:38 TRACK 04 AUDIO TITLE "Va vers la joie" PERFORMER "Georges Delerue" INDEX 00 05:33:63 INDEX 01 05:36:28 TRACK 05 AUDIO TITLE "La fete au chateau" PERFORMER "Georges Delerue" INDEX 00 07:06:05 INDEX 01 07:08:30 TRACK 06 AUDIO TITLE "Menuet" PERFORMER "Georges Delerue" INDEX 00 08:52:25 INDEX 01 08:54:15 TRACK 07 AUDIO TITLE "Pavane" PERFORMER "Georges Delerue" INDEX 00 10:48:23 INDEX 01 10:50:70 TRACK 08 AUDIO TITLE "Les chouans devant le chateau" PERFORMER "Georges Delerue" INDEX 00 12:17:20 INDEX 01 12:20:73 TRACK 09 AUDIO TITLE "Aurele et Celine" PERFORMER "Georges Delerue" INDEX 00 17:19:15 INDEX 01 17:21:53 TRACK 10 AUDIO TITLE "La separation" PERFORMER "Georges Delerue" INDEX 00 18:48:25 INDEX 01 18:51:20 TRACK 11 AUDIO TITLE "Lanterne magique" PERFORMER "Georges Delerue" INDEX 00 20:26:48 INDEX 01 20:29:23 TRACK 12 AUDIO TITLE "Le village incendie" PERFORMER "Georges Delerue" INDEX 00 21:36:00 INDEX 01 21:38:43 TRACK 13 AUDIO TITLE "Theme des Chouans" PERFORMER "Georges Delerue" INDEX 00 23:21:35 INDEX 01 23:23:58 TRACK 14 AUDIO TITLE "Chouans (Generique de fin)" PERFORMER "Georges Delerue" INDEX 00 25:45:40 INDEX 01 25:47:68 TRACK 15 AUDIO TITLE "Le depart de Tarquin" PERFORMER "Georges Delerue" INDEX 00 28:52:70 INDEX 01 28:55:10 TRACK 16 AUDIO TITLE "Laisse-moi rever" PERFORMER "Georges Delerue" INDEX 00 31:28:23 INDEX 01 31:30:13 TRACK 17 AUDIO TITLE "L'armee risling" PERFORMER "Georges Delerue" INDEX 00 32:42:05 INDEX 01 32:44:48 TRACK 18 AUDIO TITLE "L'envol" PERFORMER "Georges Delerue" INDEX 00 33:49:68 INDEX 01 33:52:60 TRACK 19 AUDIO TITLE "L'evasion de Celine" PERFORMER "Georges Delerue" INDEX 00 36:01:60 INDEX 01 36:04:05 TRACK 20 AUDIO TITLE "La lettre perdue" PERFORMER "Georges Delerue" INDEX 00 42:32:60 INDEX 01 42:35:48 TRACK 21 AUDIO TITLE "La mort de Viviane" PERFORMER "Georges Delerue" INDEX 00 45:07:48 INDEX 01 45:09:38 TRACK 22 AUDIO TITLE "La bataille" PERFORMER "Georges Delerue" INDEX 00 47:30:25 INDEX 01 47:32:50 TRACK 23 AUDIO TITLE "Apres la bataille dans la nuit" PERFORMER "Georges Delerue" INDEX 00 49:22:10 INDEX 01 49:25:33 TRACK 24 AUDIO TITLE "L'adieu a Viviane" PERFORMER "Georges Delerue" INDEX 00 50:49:73 INDEX 01 50:52:45
[teatrix.ru].t10354.torrent 
Торрент: Зарегистрирован [ 2015-11-01 20:51 ] · 808AFCF0023E77F8006AB596C467E449B93D8AB6

Скачать .torrent

Скачать

11 KB

Статус: проверено
Скачан: 0 раз
Размер: 264 MB
terms.php



Быстрый ответ

Имя:

      
Для отправки сообщений необходимо включить JavaScript
Показать сообщения:    

Текущее время: 09-Дек 20:26

Часовой пояс: UTC + 3


Вы можете начинать темы
Вы можете отвечать на сообщения
Вы не можете редактировать свои сообщения
Вы не можете удалять свои сообщения
Вы не можете голосовать в опросах
Вы не можете прикреплять файлы к сообщениям
Вы можете скачивать файлы