(Score) Планеты / The Planets (Soundtrack from the BBC TV Series) (by Jim Meacock) - 1999, FLAC (image+.cue), lossless


Статистика раздачи [Обновить пиров]
Размер:  488 MB   |    Зарегистрирован:  1 год 1 месяц   |    Скачан:  0 раз

Полного источника не было: Никогда

 
   
 
 
 

[Цитировать]

Планеты / The Planets
Название альбома: The Planets. Soundtrack from the BBC TV Series
Жанр: Score
Композитор: Jim Meacock
Год выпуска диска: 1999
Год выпуска фильма: 1999
Страна-производитель диска: United Kingdom
Издатель (лейбл): BBC Music / Bucks Music Ltd.
Номер по каталогу: WMSF 6010-2
Аудиокодек: FLAC (*.flac)
Тип рипа: image+.cue
Битрейт аудио: lossless
Продолжительность: 01:13:48
Источник: собственный рип
Наличие сканов в содержимом раздачи: да

Треклист:

01 - Main Title
02 - Moon
03 - Formations
04 - Venus
05 - Let's Go
06 - Red Giant
07 - Captain Cernan
08 - Pathfinder
09 - Jupiter
10 - Mission Theme
11 - Mars
12 - Saturn
13 - The Hubble Images
14 - Uranus
15 - Io
16 - Sun
17 - Galileo's Final Mission
18 - Neptune
19 - Chertok
20 - Mercury
21 - The Search for Life
22 - End Credits

Лог создания рипа

Exact Audio Copy V1.0 beta 3 from 29. August 2011
Отчёт EAC об извлечении, выполненном 11. ноября 2014, 19:57
Jim Meacock / The Planets
Дисковод: HL-DT-STDVDRAM GT30N Adapter: 0 ID: 0
Режим чтения : ДостоверностьИспользование точного потока : ДаОтключение кэша аудио : ДаИспользование указателей C2 : Нет
Коррекция смещения при чтении : 103Способность читать области Lead-in и Lead-out : НетЗаполнение пропущенных сэмплов тишиной : ДаУдаление блоков с тишиной в начале и конце : НетПри вычислениях CRC использовались нулевые сэмплы : ДаИнтерфейс : Установленный внешний ASPI-интерфейс
Выходной формат : Пользовательский кодировщикВыбранный битрейт : 1024 kBit/sКачество : ВысокийДобавление ID3-тега : НетУтилита сжатия : C:\Program Files (x86)\Exact Audio Copy\FLAC\FLAC.EXEДополнительные параметры : -V -8 -T "Date=%year%" -T "Genre=%genre%" %source%
TOC извлечённого CD
Трек | Старт | Длительность | Начальный сектор | Конечный сектор --------------------------------------------------------------------- 1 | 0:00.00 | 1:45.35 | 0 | 7909 2 | 1:45.35 | 6:15.30 | 7910 | 36064 3 | 8:00.65 | 3:01.42 | 36065 | 49681 4 | 11:02.32 | 3:15.73 | 49682 | 64379 5 | 14:18.30 | 0:45.07 | 64380 | 67761 6 | 15:03.37 | 4:27.15 | 67762 | 87801 7 | 19:30.52 | 1:11.10 | 87802 | 93136 8 | 20:41.62 | 2:03.63 | 93137 | 102424 9 | 22:45.50 | 7:18.32 | 102425 | 135306 10 | 30:04.07 | 2:16.55 | 135307 | 145561 11 | 32:20.62 | 6:55.20 | 145562 | 176706 12 | 39:16.07 | 5:02.48 | 176707 | 199404 13 | 44:18.55 | 1:35.42 | 199405 | 206571 14 | 45:54.22 | 1:56.48 | 206572 | 215319 15 | 47:50.70 | 5:14.20 | 215320 | 238889 16 | 53:05.15 | 2:32.10 | 238890 | 250299 17 | 55:37.25 | 3:03.67 | 250300 | 264091 18 | 58:41.17 | 6:10.15 | 264092 | 291856 19 | 64:51.32 | 3:10.40 | 291857 | 306146 20 | 68:01.72 | 2:26.10 | 306147 | 317106 21 | 70:28.07 | 2:34.25 | 317107 | 328681 22 | 73:02.32 | 0:45.50 | 328682 | 332106
Характеристики диапазона извлечения и сообщения об ошибках
Выбранный диапазон
Имя файла D:\Music\Jim Meacock - The Planets.wav
Пиковый уровень 99.4 % Скорость извлечения 2.3 X Качество диапазона 100.0 % CRC теста C6F69BAE CRC копии C6F69BAE Копирование... OK
Ошибок не произошло
AccurateRip: сводка
Трек 1 : извлечено точно (доверие 2) [DE964A17] (AR v2)Трек 2 : извлечено точно (доверие 2) [4E9A3FF2] (AR v2)Трек 3 : извлечено точно (доверие 2) [CFBC5552] (AR v2)Трек 4 : извлечено точно (доверие 2) [7DB79867] (AR v2)Трек 5 : извлечено точно (доверие 2) [6F6DE277] (AR v2)Трек 6 : извлечено точно (доверие 2) [220D6330] (AR v2)Трек 7 : извлечено точно (доверие 2) [CFC638B0] (AR v2)Трек 8 : извлечено точно (доверие 2) [8596C463] (AR v2)Трек 9 : извлечено точно (доверие 2) [D1451ED3] (AR v2)Трек 10 : извлечено точно (доверие 2) [D43D62FD] (AR v2)Трек 11 : извлечено точно (доверие 2) [6B58273B] (AR v2)Трек 12 : извлечено точно (доверие 3) [47826D09] (AR v1)Трек 13 : извлечено точно (доверие 3) [E7B4078B] (AR v1)Трек 14 : извлечено точно (доверие 3) [1D53A511] (AR v1)Трек 15 : извлечено точно (доверие 3) [6E217163] (AR v1)Трек 16 : извлечено точно (доверие 3) [EF4CE0C0] (AR v1)Трек 17 : извлечено точно (доверие 3) [41D8EFD4] (AR v1)Трек 18 : извлечено точно (доверие 3) [67BC7AEA] (AR v1)Трек 19 : извлечено точно (доверие 3) [C8CA8100] (AR v1)Трек 20 : извлечено точно (доверие 3) [DCA8C7D2] (AR v1)Трек 21 : извлечено точно (доверие 3) [A83EA0F1] (AR v1)Трек 22 : извлечено точно (доверие 3) [597AE481] (AR v1)
Все треки извлечены точно
Конец отчёта
==== Контрольная сумма отчёта EC2DCDD21345132ABF1A247D4CF8A18DAC45C3E218100DC5F8220E5C83628398 ====
[teatrix.ru].t10355.torrent 
Торрент: Зарегистрирован [ 2015-11-01 20:51 ] · 50898D71E42D76FB81B2749BC0C3371F1E5FFC9B

Скачать .torrent

Скачать

20 KB

Статус: проверено
Скачан: 0 раз
Размер: 488 MB
terms.php



Быстрый ответ

Имя:

      
Для отправки сообщений необходимо включить JavaScript
Показать сообщения:    

Текущее время: 11-Дек 07:08

Часовой пояс: UTC + 3


Вы можете начинать темы
Вы можете отвечать на сообщения
Вы не можете редактировать свои сообщения
Вы не можете удалять свои сообщения
Вы не можете голосовать в опросах
Вы не можете прикреплять файлы к сообщениям
Вы можете скачивать файлы