(Score) Франция, 1788 1/2 / 1788 ...et demi (Arland Wrigley) - 2011 (2010), FLAC (tracks), lossless


Статистика раздачи [Обновить пиров]
Размер:  317 MB   |    Зарегистрирован:  1 год 1 месяц   |    Скачан:  0 раз

Полного источника не было: Никогда

 
   
 
 
 

[Цитировать]

Франция, 1788 1/2 / 1788 ...et demi
Название альбома: 1788 ...et demi
Жанр: Score
Композитор: Arland Wrigley
Год выпуска диска: 2011
Год выпуска фильма: 2010
Страна-производитель диска: Франция
Издатель (лейбл): cristal records
Аудиокодек: FLAC (*.flac)
Тип рипа: tracks
Битрейт аудио: lossless
Продолжительность: 54:16
Источник: собственный рип
Наличие сканов в содержимом раздачи: да
Треклист:
01. The death of Ninon
02. Snooping around
03. Bramances in love
04. The death of Louise
05. Thieves
06. Hear this player
07. Si Vis Pacem
08. The big solution
09. It's not what you think
10. The death of Geoffroy (The Duel)
11. In the doghouse
12. A virtual cutting
13. The difficult task of loving
14. Hash cakes
15. Somewhere + A taste for the open life
16. Thy hand Belinda... When I am Led in earth
17. Dominus Illuminateo
18. Quatour à codes en sol mineur Opus 18
19. Lovers' waltz
20. Music Box

Лог создания рипа

Exact Audio Copy V1.0 beta 3 from 29. August 2011
EAC extraction logfile from 15. November 2014, 17:17
Arland Wrigley / 1788 ...et demi
Used drive : TSSTcorpCDDVDW TS-L632H Adapter: 2 ID: 0
Read mode : SecureUtilize accurate stream : YesDefeat audio cache : YesMake use of C2 pointers : No
Read offset correction : 6Overread into Lead-In and Lead-Out : NoFill up missing offset samples with silence : YesDelete leading and trailing silent blocks : NoNull samples used in CRC calculations : YesUsed interface : Native Win32 interface for Win NT & 2000Gap handling : Appended to previous track
Used output format : User Defined EncoderSelected bitrate : 768 kBit/sQuality : HighAdd ID3 tag : NoCommand line compressor : C:\Program Files (x86)\Exact Audio Copy\FLAC\FLAC.EXEAdditional command line options : -V -8 -T "Genre=%genre%" -T "Artist=%artist%" -T "Title=%title%" -T "Album=%albumtitle%" -T "Date=%year%" -T "Tracknumber=%tracknr%" -T "Comment=%comment%" %source%
TOC of the extracted CD
Track | Start | Length | Start sector | End sector --------------------------------------------------------- 1 | 0:00.00 | 3:08.09 | 0 | 14108 2 | 3:08.09 | 2:18.13 | 14109 | 24471 3 | 5:26.22 | 1:59.34 | 24472 | 33430 4 | 7:25.56 | 3:10.14 | 33431 | 47694 5 | 10:35.70 | 1:58.65 | 47695 | 56609 6 | 12:34.60 | 2:51.28 | 56610 | 69462 7 | 15:26.13 | 2:10.03 | 69463 | 79215 8 | 17:36.16 | 2:45.46 | 79216 | 91636 9 | 20:21.62 | 1:59.20 | 91637 | 100581 10 | 22:21.07 | 3:19.57 | 100582 | 115563 11 | 25:40.64 | 1:34.74 | 115564 | 122687 12 | 27:15.63 | 1:29.15 | 122688 | 129377 13 | 28:45.03 | 2:26.53 | 129378 | 140380 14 | 31:11.56 | 1:14.06 | 140381 | 145936 15 | 32:25.62 | 1:48.38 | 145937 | 154074 16 | 34:14.25 | 5:14.14 | 154075 | 177638 17 | 39:28.39 | 4:53.16 | 177639 | 199629 18 | 44:21.55 | 7:34.33 | 199630 | 233712 19 | 51:56.13 | 0:58.30 | 233713 | 238092 20 | 52:54.43 | 1:21.43 | 238093 | 244210
Track 1
Filename D:\torr\1788 ...et demi\01 Трек01.wav
Pre-gap length 0:00:02.00
Peak level 96.7 % Extraction speed 2.4 X Track quality 100.0 % Test CRC 3CACD959 Copy CRC 3CACD959 Copy OK
Track 2
Filename D:\torr\1788 ...et demi\02 Трек02.wav
Peak level 97.7 % Extraction speed 2.6 X Track quality 100.0 % Test CRC 70419B26 Copy CRC 70419B26 Copy OK
Track 3
Filename D:\torr\1788 ...et demi\03 Трек03.wav
Peak level 97.7 % Extraction speed 2.6 X Track quality 100.0 % Test CRC AEA1A4EB Copy CRC AEA1A4EB Copy OK
Track 4
Filename D:\torr\1788 ...et demi\04 Трек04.wav
Peak level 97.7 % Extraction speed 3.0 X Track quality 100.0 % Test CRC 64A5C478 Copy CRC 64A5C478 Copy OK
Track 5
Filename D:\torr\1788 ...et demi\05 Трек05.wav
Peak level 97.7 % Extraction speed 2.1 X Track quality 99.9 % Test CRC 3F8906AD Copy CRC 3F8906AD Copy OK
Track 6
Filename D:\torr\1788 ...et demi\06 Трек06.wav
Peak level 97.7 % Extraction speed 3.1 X Track quality 100.0 % Test CRC 4AB912FA Copy CRC 4AB912FA Copy OK
Track 7
Filename D:\torr\1788 ...et demi\07 Трек07.wav
Peak level 97.7 % Extraction speed 3.1 X Track quality 100.0 % Test CRC 1CE3302A Copy CRC 1CE3302A Copy OK
Track 8
Filename D:\torr\1788 ...et demi\08 Трек08.wav
Peak level 97.7 % Extraction speed 3.4 X Track quality 100.0 % Test CRC 7B897639 Copy CRC 7B897639 Copy OK
Track 9
Filename D:\torr\1788 ...et demi\09 Трек09.wav
Peak level 97.7 % Extraction speed 3.3 X Track quality 100.0 % Test CRC 65CF268A Copy CRC 65CF268A Copy OK
Track 10
Filename D:\torr\1788 ...et demi\10 Трек10.wav
Peak level 97.7 % Extraction speed 3.7 X Track quality 100.0 % Test CRC 2282D54B Copy CRC 2282D54B Copy OK
Track 11
Filename D:\torr\1788 ...et demi\11 Трек11.wav
Peak level 97.7 % Extraction speed 3.1 X Track quality 100.0 % Test CRC C5B91C9F Copy CRC C5B91C9F Copy OK
Track 12
Filename D:\torr\1788 ...et demi\12 Трек12.wav
Peak level 97.7 % Extraction speed 3.2 X Track quality 100.0 % Test CRC 08BCF6F6 Copy CRC 08BCF6F6 Copy OK
Track 13
Filename D:\torr\1788 ...et demi\13 Трек13.wav
Peak level 97.7 % Extraction speed 3.1 X Track quality 99.9 % Test CRC 22641FAD Copy CRC 22641FAD Copy OK
Track 14
Filename D:\torr\1788 ...et demi\14 Трек14.wav
Peak level 97.7 % Extraction speed 3.2 X Track quality 100.0 % Test CRC 33B654F4 Copy CRC 33B654F4 Copy OK
Track 15
Filename D:\torr\1788 ...et demi\15 Трек15.wav
Peak level 97.7 % Extraction speed 3.5 X Track quality 100.0 % Test CRC 6FCFCAB2 Copy CRC 6FCFCAB2 Copy OK
Track 16
Filename D:\torr\1788 ...et demi\16 Трек16.wav
Peak level 97.7 % Extraction speed 4.3 X Track quality 100.0 % Test CRC 8A6FC21F Copy CRC 8A6FC21F Copy OK
Track 17
Filename D:\torr\1788 ...et demi\17 Трек17.wav
Peak level 97.7 % Extraction speed 4.2 X Track quality 100.0 % Test CRC 3F3C9F60 Copy CRC 3F3C9F60 Copy OK
Track 18
Filename D:\torr\1788 ...et demi\18 Трек18.wav
Peak level 97.7 % Extraction speed 4.7 X Track quality 100.0 % Test CRC 767A4FCB Copy CRC 767A4FCB Copy OK
Track 19
Filename D:\torr\1788 ...et demi\19 Трек19.wav
Peak level 94.4 % Extraction speed 3.5 X Track quality 100.0 % Test CRC 7230DB93 Copy CRC 7230DB93 Copy OK
Track 20
Filename D:\torr\1788 ...et demi\20 Трек20.wav
Peak level 26.4 % Extraction speed 3.5 X Track quality 100.0 % Test CRC C78F3CE7 Copy CRC C78F3CE7 Copy OK
No errors occurred
End of status report
---- CUETools DB Plugin V2.1.3
[CTDB TOCID: Y0L5dgEAuPt2FB3smUNQiNZhh.s-] disk not present in database, Submit result: Y0L5dgEAuPt2FB3smUNQiNZhh.s- has been uploaded
==== Log checksum CAD0D28D965A4780106576122E345920C69AF2D28C5DEB3A6CB7C8ED372CB40E ====
------------------------------------------------------------
Exact Audio Copy V1.0 beta 3 from 29. August 2011
EAC extraction logfile from 15. November 2014, 17:17
Arland Wrigley / 1788 ...et demi
Used drive : TSSTcorpCDDVDW TS-L632H Adapter: 2 ID: 0
Read mode : SecureUtilize accurate stream : YesDefeat audio cache : YesMake use of C2 pointers : No
Read offset correction : 0Overread into Lead-In and Lead-Out : NoFill up missing offset samples with silence : YesDelete leading and trailing silent blocks : NoNull samples used in CRC calculations : YesUsed interface : Native Win32 interface for Win NT & 2000Gap handling : Appended to previous track
Used output format : User Defined EncoderSelected bitrate : 768 kBit/sQuality : HighAdd ID3 tag : NoCommand line compressor : C:\Program Files (x86)\Exact Audio Copy\FLAC\FLAC.EXEAdditional command line options : -V -8 -T "Genre=%genre%" -T "Artist=%artist%" -T "Title=%title%" -T "Album=%albumtitle%" -T "Date=%year%" -T "Tracknumber=%tracknr%" -T "Comment=%comment%" %source%
TOC of the extracted CD
Track | Start | Length | Start sector | End sector --------------------------------------------------------- 1 | 0:00.00 | 3:08.09 | 0 | 14108 2 | 3:08.09 | 2:18.13 | 14109 | 24471 3 | 5:26.22 | 1:59.34 | 24472 | 33430 4 | 7:25.56 | 3:10.14 | 33431 | 47694 5 | 10:35.70 | 1:58.65 | 47695 | 56609 6 | 12:34.60 | 2:51.28 | 56610 | 69462 7 | 15:26.13 | 2:10.03 | 69463 | 79215 8 | 17:36.16 | 2:45.46 | 79216 | 91636 9 | 20:21.62 | 1:59.20 | 91637 | 100581 10 | 22:21.07 | 3:19.57 | 100582 | 115563 11 | 25:40.64 | 1:34.74 | 115564 | 122687 12 | 27:15.63 | 1:29.15 | 122688 | 129377 13 | 28:45.03 | 2:26.53 | 129378 | 140380 14 | 31:11.56 | 1:14.06 | 140381 | 145936 15 | 32:25.62 | 1:48.38 | 145937 | 154074 16 | 34:14.25 | 5:14.14 | 154075 | 177638 17 | 39:28.39 | 4:53.16 | 177639 | 199629 18 | 44:21.55 | 7:34.33 | 199630 | 233712 19 | 51:56.13 | 0:58.30 | 233713 | 238092 20 | 52:54.43 | 1:21.43 | 238093 | 244210
Track 1
Filename D:\torr\1788 ...et demi\01 Трек01.wav
Pre-gap length 0:00:02.00
Peak level 96.7 % Extraction speed 2.4 X Track quality 100.0 % Test CRC 3CACD959 Copy CRC 3CACD959 Copy OK
Track 2
Filename D:\torr\1788 ...et demi\02 Трек02.wav
Peak level 97.7 % Extraction speed 2.6 X Track quality 100.0 % Test CRC 70419B26 Copy CRC 70419B26 Copy OK
Track 3
Filename D:\torr\1788 ...et demi\03 Трек03.wav
Peak level 97.7 % Extraction speed 2.6 X Track quality 100.0 % Test CRC AEA1A4EB Copy CRC AEA1A4EB Copy OK
Track 4
Filename D:\torr\1788 ...et demi\04 Трек04.wav
Peak level 97.7 % Extraction speed 3.0 X Track quality 100.0 % Test CRC 64A5C478 Copy CRC 64A5C478 Copy OK
Track 5
Filename D:\torr\1788 ...et demi\05 Трек05.wav
Peak level 97.7 % Extraction speed 2.1 X Track quality 99.9 % Test CRC 3F8906AD Copy CRC 3F8906AD Copy OK
Track 6
Filename D:\torr\1788 ...et demi\06 Трек06.wav
Peak level 97.7 % Extraction speed 3.1 X Track quality 100.0 % Test CRC 4AB912FA Copy CRC 4AB912FA Copy OK
Track 7
Filename D:\torr\1788 ...et demi\07 Трек07.wav
Peak level 97.7 % Extraction speed 3.1 X Track quality 100.0 % Test CRC 1CE3302A Copy CRC 1CE3302A Copy OK
Track 8
Filename D:\torr\1788 ...et demi\08 Трек08.wav
Peak level 97.7 % Extraction speed 3.4 X Track quality 100.0 % Test CRC 7B897639 Copy CRC 7B897639 Copy OK
Track 9
Filename D:\torr\1788 ...et demi\09 Трек09.wav
Peak level 97.7 % Extraction speed 3.3 X Track quality 100.0 % Test CRC 65CF268A Copy CRC 65CF268A Copy OK
Track 10
Filename D:\torr\1788 ...et demi\10 Трек10.wav
Peak level 97.7 % Extraction speed 3.7 X Track quality 100.0 % Test CRC 2282D54B Copy CRC 2282D54B Copy OK
Track 11
Filename D:\torr\1788 ...et demi\11 Трек11.wav
Peak level 97.7 % Extraction speed 3.1 X Track quality 100.0 % Test CRC C5B91C9F Copy CRC C5B91C9F Copy OK
Track 12
Filename D:\torr\1788 ...et demi\12 Трек12.wav
Peak level 97.7 % Extraction speed 3.2 X Track quality 100.0 % Test CRC 08BCF6F6 Copy CRC 08BCF6F6 Copy OK
Track 13
Filename D:\torr\1788 ...et demi\13 Трек13.wav
Peak level 97.7 % Extraction speed 3.1 X Track quality 99.9 % Test CRC 22641FAD Copy CRC 22641FAD Copy OK
Track 14
Filename D:\torr\1788 ...et demi\14 Трек14.wav
Peak level 97.7 % Extraction speed 3.2 X Track quality 100.0 % Test CRC 33B654F4 Copy CRC 33B654F4 Copy OK
Track 15
Filename D:\torr\1788 ...et demi\15 Трек15.wav
Peak level 97.7 % Extraction speed 3.5 X Track quality 100.0 % Test CRC 6FCFCAB2 Copy CRC 6FCFCAB2 Copy OK
Track 16
Filename D:\torr\1788 ...et demi\16 Трек16.wav
Peak level 97.7 % Extraction speed 4.3 X Track quality 100.0 % Test CRC 8A6FC21F Copy CRC 8A6FC21F Copy OK
Track 17
Filename D:\torr\1788 ...et demi\17 Трек17.wav
Peak level 97.7 % Extraction speed 4.2 X Track quality 100.0 % Test CRC 3F3C9F60 Copy CRC 3F3C9F60 Copy OK
Track 18
Filename D:\torr\1788 ...et demi\18 Трек18.wav
Peak level 97.7 % Extraction speed 4.7 X Track quality 100.0 % Test CRC 767A4FCB Copy CRC 767A4FCB Copy OK
Track 19
Filename D:\torr\1788 ...et demi\19 Трек19.wav
Peak level 94.4 % Extraction speed 3.5 X Track quality 100.0 % Test CRC 7230DB93 Copy CRC 7230DB93 Copy OK
Track 20
Filename D:\torr\1788 ...et demi\20 Трек20.wav
Peak level 26.4 % Extraction speed 3.5 X Track quality 100.0 % Test CRC C78F3CE7 Copy CRC C78F3CE7 Copy OK
No errors occurred
End of status report
---- CUETools DB Plugin V2.1.3
[CTDB TOCID: Y0L5dgEAuPt2FB3smUNQiNZhh.s-] disk not present in database, Submit result: Y0L5dgEAuPt2FB3smUNQiNZhh.s- has been uploaded
==== Log checksum CAD0D28D965A4780106576122E345920C69AF2D28C5DEB3A6CB7C8ED372CB40E ====

Содержание индексной карты (.CUE)

REM GENRE SoundtrackREM DATE 2011REM DISCID 1D0CB814REM COMMENT "ExactAudioCopy v1.0b3"PERFORMER "Arland Wrigley"TITLE "1788 ...et demi"FILE "01 - The death of Ninon.wav" WAVE TRACK 01 AUDIO TITLE "The death of Ninon" PERFORMER "Arland Wrigley" FLAGS DCP INDEX 01 00:00:00FILE "02 - Snooping around.wav" WAVE TRACK 02 AUDIO TITLE "Snooping around" PERFORMER "Arland Wrigley" FLAGS DCP INDEX 01 00:00:00FILE "03 - Bramances in love.wav" WAVE TRACK 03 AUDIO TITLE "Bramances in love" PERFORMER "Arland Wrigley" FLAGS DCP INDEX 01 00:00:00FILE "04 - The death of Louise.wav" WAVE TRACK 04 AUDIO TITLE "The death of Louise" PERFORMER "Arland Wrigley" FLAGS DCP INDEX 01 00:00:00FILE "05 - Thieves.wav" WAVE TRACK 05 AUDIO TITLE "Thieves" PERFORMER "Arland Wrigley" FLAGS DCP INDEX 01 00:00:00FILE "06 - Hear this player.wav" WAVE TRACK 06 AUDIO TITLE "Hear this player" PERFORMER "Arland Wrigley" FLAGS DCP INDEX 01 00:00:00FILE "07 - Si Vis Pacem.wav" WAVE TRACK 07 AUDIO TITLE "Si Vis Pacem" PERFORMER "Arland Wrigley" FLAGS DCP INDEX 01 00:00:00FILE "08 - The big solution.wav" WAVE TRACK 08 AUDIO TITLE "The big solution" PERFORMER "Arland Wrigley" FLAGS DCP INDEX 01 00:00:00FILE "09 - It's not what you think.wav" WAVE TRACK 09 AUDIO TITLE "It's not what you think" PERFORMER "Arland Wrigley" FLAGS DCP INDEX 01 00:00:00FILE "10 - The death of Geoffroy (The Duel).wav" WAVE TRACK 10 AUDIO TITLE "The death of Geoffroy (The Duel)" PERFORMER "Arland Wrigley" FLAGS DCP INDEX 01 00:00:00FILE "11 - In the doghouse.wav" WAVE TRACK 11 AUDIO TITLE "In the doghouse" PERFORMER "Arland Wrigley" FLAGS DCP INDEX 01 00:00:00FILE "12 - A virtual cutting.wav" WAVE TRACK 12 AUDIO TITLE "A virtual cutting" PERFORMER "Arland Wrigley" FLAGS DCP INDEX 01 00:00:00FILE "13 - The difficult task of loving.wav" WAVE TRACK 13 AUDIO TITLE "The difficult task of loving" PERFORMER "Arland Wrigley" FLAGS DCP INDEX 01 00:00:00FILE "14 - Hash cakes.wav" WAVE TRACK 14 AUDIO TITLE "Hash cakes" PERFORMER "Arland Wrigley" FLAGS DCP INDEX 01 00:00:00FILE "15 - Somewhere + A taste for the open life.wav" WAVE TRACK 15 AUDIO TITLE "Somewhere + A taste for the open life" PERFORMER "Arland Wrigley" FLAGS DCP INDEX 01 00:00:00FILE "16 - Thy hand Belinda... When I am Led in earth.wav" WAVE TRACK 16 AUDIO TITLE "Thy hand Belinda... When I am Led in earth" PERFORMER "Arland Wrigley" FLAGS DCP INDEX 01 00:00:00FILE "17 - Dominus Illuminateo.wav" WAVE TRACK 17 AUDIO TITLE "Dominus Illuminateo" PERFORMER "Arland Wrigley" FLAGS DCP INDEX 01 00:00:00FILE "18 - Quatour a codes en sol mineur Opus 18.wav" WAVE TRACK 18 AUDIO TITLE "Quatour à codes en sol mineur Opus 18" PERFORMER "Arland Wrigley" FLAGS DCP INDEX 01 00:00:00FILE "19 - Lovers' waltz.wav" WAVE TRACK 19 AUDIO TITLE "Lovers' waltz" PERFORMER "Arland Wrigley" FLAGS DCP INDEX 01 00:00:00FILE "20 - Music Box.wav" WAVE TRACK 20 AUDIO TITLE "Music Box" PERFORMER "Arland Wrigley" FLAGS DCP INDEX 01 00:00:00
[teatrix.ru].t10356.torrent 
Торрент: Зарегистрирован [ 2015-11-01 20:51 ] · C30138A94D9E8EFD72703CAFC995B289EA852E5C

Скачать .torrent

Скачать

15 KB

Статус: проверено
Скачан: 0 раз
Размер: 317 MB
terms.php



Быстрый ответ

Имя:

      
Для отправки сообщений необходимо включить JavaScript
Показать сообщения:    

Текущее время: 05-Дек 15:34

Часовой пояс: UTC + 3


Вы можете начинать темы
Вы можете отвечать на сообщения
Вы не можете редактировать свои сообщения
Вы не можете удалять свои сообщения
Вы не можете голосовать в опросах
Вы не можете прикреплять файлы к сообщениям
Вы можете скачивать файлы