(Soundtrack) [CD] Die Stadtindianer (Original Soundtrack Der ZDF-Serie) - 1994, FLAC (image+.cue), lossless


Статистика раздачи [Обновить пиров]
Размер:  282 MB   |    Зарегистрирован:  1 год 1 месяц   |    Скачан:  0 раз

Полного источника не было: Никогда

Личеров:  1  [  0 KB/s  ]   Подробная статистика пиров
 
   
 
 
 

[Цитировать]

VA / Die Stadtindianer (Original Soundtrack Der ZDF-Serie)
Жанр: Soundtrack
Носитель: CD
Страна-производитель диска: Germany
Год издания: 1994
Издатель (лейбл): BMG Ariola Media GmbH
Номер по каталогу: 74321 18942 2
Страна исполнителя (группы): Germany
Аудиокодек: FLAC (*.flac)
Тип рипа: image+.cue
Битрейт аудио: lossless
Продолжительность: 00:41:10
Источник (релизер): Собственный диск
Наличие сканов в содержимом раздачи: нет
Треклист:
01-Indian '94 - Indian Groove I
02-Chris Norman - Wild Wild Angel
03-Hit The Floor - Energizer
04-Marianne Rosenberg - Anywhere I Lay My Head
05-Blue - Stars
06-Gudrun Laos - That's What Love Is All About
07-Bonnie Tyler - Fire In My Soul
08-Indian '94 - Indian Groove II
09-Gudrun Laos - Highway To Freedom
10-Blue System - Ballerina Girl
11-Blue System - Reprise (Instrumental)

Содержание индексной карты (.CUE)

REM GENRE PopREM DATE 1994REM DISCID 9E09A60BREM COMMENT "ExactAudioCopy v1.0b3"PERFORMER "Various"TITLE "Die Stadtindianer"FILE "Various - Die Stadtindianer.flac" WAVE TRACK 01 AUDIO TITLE "Indian Groove 1" PERFORMER "Indian 94" INDEX 00 00:00:00 INDEX 01 00:00:33 TRACK 02 AUDIO TITLE "Wild Wild Angel" PERFORMER "Chris Norman" INDEX 00 03:44:33 INDEX 01 03:46:25 TRACK 03 AUDIO TITLE "Energizer" PERFORMER "Hit The Floor" INDEX 00 07:05:60 INDEX 01 07:09:53 TRACK 04 AUDIO TITLE "Anywhere I Lay My Head" PERFORMER "Marianne Rosenberg" INDEX 00 10:53:15 INDEX 01 10:55:53 TRACK 05 AUDIO TITLE "Stars" PERFORMER "Blue" INDEX 00 14:34:53 INDEX 01 14:35:38 TRACK 06 AUDIO TITLE "That's What Love Is All About" PERFORMER "Gudrun Laos" INDEX 00 18:06:40 INDEX 01 18:08:05 TRACK 07 AUDIO TITLE "Fire in My Soul" PERFORMER "Bonnie Tyler" INDEX 00 22:08:28 INDEX 01 22:11:35 TRACK 08 AUDIO TITLE "Indian Groove 2" PERFORMER "Indian 94" INDEX 00 25:54:18 INDEX 01 25:56:38 TRACK 09 AUDIO TITLE "Highway to Freedom" PERFORMER "Gudrun Laos" INDEX 00 29:45:73 INDEX 01 29:46:60 TRACK 10 AUDIO TITLE "Ballerina Girl" PERFORMER "Blue System" INDEX 00 33:08:63 INDEX 01 33:09:50 TRACK 11 AUDIO TITLE "Reprise ( Instrumental )" PERFORMER "Blue System" INDEX 00 37:03:55 INDEX 01 37:05:55

Лог проверки качества

Exact Audio Copy V1.0 beta 3 from 29. August 2011
Отчёт EAC об извлечении, выполненном 12. ноября 2014, 21:11
Various / Die Stadtindianer
Дисковод: TS8XDVDRTranscend Adapter: 2 ID: 3
Режим чтения : ДостоверностьИспользование точного потока : ДаОтключение кэша аудио : ДаИспользование указателей C2 : Нет
Коррекция смещения при чтении : 6Способность читать области Lead-in и Lead-out : НетЗаполнение пропущенных сэмплов тишиной : ДаУдаление блоков с тишиной в начале и конце : НетПри вычислениях CRC использовались нулевые сэмплы : ДаИнтерфейс : Установленный внешний ASPI-интерфейс
Выходной формат : Пользовательский кодировщикВыбранный битрейт : 128 kBit/sКачество : ВысокийДобавление ID3-тега : НетУтилита сжатия : C:\Program Files\Exact Audio Copy\Flac\flac.exeДополнительные параметры : -V -8 -T "Date=%year%" -T "Genre=%genre%" %source%
TOC извлечённого CD
Трек | Старт | Длительность | Начальный сектор | Конечный сектор --------------------------------------------------------------------- 1 | 0:00.33 | 3:45.67 | 33 | 16974 2 | 3:46.25 | 3:23.28 | 16975 | 32227 3 | 7:09.53 | 3:46.00 | 32228 | 49177 4 | 10:55.53 | 3:39.60 | 49178 | 65662 5 | 14:35.38 | 3:32.42 | 65663 | 81604 6 | 18:08.05 | 4:03.30 | 81605 | 99859 7 | 22:11.35 | 3:45.03 | 99860 | 116737 8 | 25:56.38 | 3:50.22 | 116738 | 134009 9 | 29:46.60 | 3:22.65 | 134010 | 149224 10 | 33:09.50 | 3:56.05 | 149225 | 166929 11 | 37:05.55 | 4:04.53 | 166930 | 185282
Характеристики диапазона извлечения и сообщения об ошибках
Выбранный диапазон
Имя файла C:\Documents and Settings\Admin\Рабочий стол\Various - Die Stadtindianer.wav
Пиковый уровень 100.0 % Скорость извлечения 1.7 X Качество диапазона 99.9 % CRC теста 01446148 CRC копии 01446148 Копирование... OK
Ошибок не произошло
Конец отчёта
==== Контрольная сумма отчёта 927D485194F5BB8865AF0DAA20E9F11C4F33576EE1752CE3C4C27C18E702E38E ====
Доп. информация: Данный диск - саундтрек к немецкому сериалу ''Die Stadtindianer''.
Автор всех песен и продюссер - Дитер Болен. Некоторые из этих песен были написаны специально для этого релиза и нигде больше не издавались (треки 4,5,6,9)
[teatrix.ru].t10357.torrent 
Торрент: Зарегистрирован [ 2015-11-01 20:51 ] · 77A03C04DBF26727561AA9A2B0460FA31284BA78

Скачать .torrent

Скачать

12 KB

Статус: проверено
Скачан: 0 раз
Размер: 282 MB
terms.php



Быстрый ответ

Имя:

      
Для отправки сообщений необходимо включить JavaScript
Показать сообщения:    

Текущее время: 09-Дек 22:28

Часовой пояс: UTC + 3


Вы можете начинать темы
Вы можете отвечать на сообщения
Вы не можете редактировать свои сообщения
Вы не можете удалять свои сообщения
Вы не можете голосовать в опросах
Вы не можете прикреплять файлы к сообщениям
Вы можете скачивать файлы