(Score) Голубая лагуна / The Blue Lagoon (by Basil Poledouris) - 1987 (1980), FLAC (tracks+.cue), lossless


Статистика раздачи [Обновить пиров]
Размер:  205 MB   |    Зарегистрирован:  1 год 1 месяц   |    Скачан:  0 раз

Полного источника не было: Никогда

Личеров:  1  [  0 KB/s  ]   Подробная статистика пиров
 
   
 
 
 

[Цитировать]

Голубая лагуна / The Blue Lagoon-Жанр: Score
Композитор: Basil Poledouris
Год выпуска диска: 1987
Год выпуска фильма: 1980
Производитель диска: Key Production, UK
Издатель (лейбл): Southern Cross
Номер по каталогу: SCCD 1018-Аудиокодек: FLAC (*.flac)
Тип рипа: tracks+.cue
Битрейт аудио: lossless
Продолжительность: 00:34:37
Источник: собственный рип
Наличие сканов в содержимом раздачи: да, 600dpi-Ссылки: Кинопоиск | IMDB | Wikipedia | SoundtrackCollector

Треклист

01. Love Theme (Emmeline) [0:02:33.32]
02. Main Title [0:02:37.70]
03. Fire [0:01:19.25]
04. The Island [0:01:46.05]
05. The Sands Of Time [0:02:27.23]
06. Paddy's Death [0:01:21.22]
07. The Children Grow [0:04:12.03]
08. Lord Of The Lagoon [0:01:07.22]
09. Love Theme (Reprise) [0:01:12.38]
10. Underwater Courtship [0:02:01.32]
11. The Kiss [0:02:35.58]
12. Richard Sees Paddy [0:02:22.30]
13. The Birth [0:01:16.15]
14. Bad People / Baby Swim [0:03:02.72]
15. The Memories [0:01:21.40]
16. Points To Port / End Titles [0:03:21.05]

Лог создания рипа

Exact Audio Copy V1.0 beta 3 from 29. August 2011
EAC extraction logfile from 10. November 2014, 21:55
Basil Poledouris / The Blue Lagoon
Used drive : PLEXTOR CD-R PX-230A Adapter: 1 ID: 0
Read mode : SecureUtilize accurate stream : YesDefeat audio cache : YesMake use of C2 pointers : No
Read offset correction : 738Overread into Lead-In and Lead-Out : NoFill up missing offset samples with silence : YesDelete leading and trailing silent blocks : NoNull samples used in CRC calculations : YesUsed interface : Native Win32 interface for Win NT & 2000Gap handling : Appended to previous track
Used output format : User Defined EncoderSelected bitrate : 896 kBit/sQuality : HighAdd ID3 tag : NoCommand line compressor : C:\Program Files\Exact Audio Copy\FLAC\FLAC.EXEAdditional command line options : -6 -V -T "ARTIST=%artist%" -T "TITLE=%title%" -T "ALBUM=%albumtitle%" -T "DATE=%year%"-T "TRACKNUMBER=%tracknr%" -T "GENRE=%genre%" -T "COMMENT=%comment%" -T "ALBUMARTIST=%albuminterpret%" -T "COMPOSER=%composer%"-T "DISCNUMBER=%cdnumber%" -T "TOTALDISCS=%totalcds%" -T "TOTALTRACKS=%numtracks%" %source% -o %dest%
TOC of the extracted CD
Track | Start | Length | Start sector | End sector --------------------------------------------------------- 1 | 0:00.00 | 2:33.32 | 0 | 11506 2 | 2:33.32 | 2:37.70 | 11507 | 23351 3 | 5:11.27 | 1:19.25 | 23352 | 29301 4 | 6:30.52 | 1:46.05 | 29302 | 37256 5 | 8:16.57 | 2:27.23 | 37257 | 48304 6 | 10:44.05 | 1:21.22 | 48305 | 54401 7 | 12:05.27 | 4:12.03 | 54402 | 73304 8 | 16:17.30 | 1:07.22 | 73305 | 78351 9 | 17:24.52 | 1:12.38 | 78352 | 83789 10 | 18:37.15 | 2:01.32 | 83790 | 92896 11 | 20:38.47 | 2:35.58 | 92897 | 104579 12 | 23:14.30 | 2:22.30 | 104580 | 115259 13 | 25:36.60 | 1:16.15 | 115260 | 120974 14 | 26:53.00 | 3:02.72 | 120975 | 134696 15 | 29:55.72 | 1:21.40 | 134697 | 140811 16 | 31:17.37 | 3:21.05 | 140812 | 155891
Track 1
Filename C:\Music\01 - Basil Poledouris - Love Theme (Emmeline).wav
Pre-gap length 0:00:02.00
Peak level 79.8 % Extraction speed 3.5 X Track quality 100.0 % Test CRC 845441F2 Copy CRC 845441F2 Accurately ripped (confidence 2) [C37FE204] (AR v2) Copy OK
Track 2
Filename C:\Music\02 - Basil Poledouris - Main Title.wav
Pre-gap length 0:00:01.57
Peak level 97.7 % Extraction speed 3.9 X Track quality 100.0 % Test CRC 6D3D43A4 Copy CRC 6D3D43A4 Accurately ripped (confidence 2) [58B04839] (AR v2) Copy OK
Track 3
Filename C:\Music\03 - Basil Poledouris - Fire.wav
Pre-gap length 0:00:02.27
Peak level 55.2 % Extraction speed 3.2 X Track quality 99.8 % Test CRC 91B555E0 Copy CRC 91B555E0 Accurately ripped (confidence 2) [CBB085F3] (AR v2) Copy OK
Track 4
Filename C:\Music\04 - Basil Poledouris - The Island.wav
Pre-gap length 0:00:02.30
Peak level 76.1 % Extraction speed 4.0 X Track quality 100.0 % Test CRC 09D91FA9 Copy CRC 09D91FA9 Accurately ripped (confidence 2) [C6C6C907] (AR v2) Copy OK
Track 5
Filename C:\Music\05 - Basil Poledouris - The Sands Of Time.wav
Pre-gap length 0:00:02.40
Peak level 56.6 % Extraction speed 4.4 X Track quality 100.0 % Test CRC 80D92EBA Copy CRC 80D92EBA Accurately ripped (confidence 2) [79F4216D] (AR v2) Copy OK
Track 6
Filename C:\Music\06 - Basil Poledouris - Paddy's Death.wav
Pre-gap length 0:00:02.60
Peak level 65.7 % Extraction speed 3.5 X Track quality 99.8 % Test CRC FDBE7C36 Copy CRC FDBE7C36 Accurately ripped (confidence 2) [3E4F8D18] (AR v2) Copy OK
Track 7
Filename C:\Music\07 - Basil Poledouris - The Children Grow.wav
Pre-gap length 0:00:02.30
Peak level 71.7 % Extraction speed 5.0 X Track quality 100.0 % Test CRC 38AC0F96 Copy CRC 38AC0F96 Accurately ripped (confidence 2) [2DEC7E15] (AR v2) Copy OK
Track 8
Filename C:\Music\08 - Basil Poledouris - Lord Of The Lagoon.wav
Pre-gap length 0:00:02.15
Peak level 59.9 % Extraction speed 4.3 X Track quality 100.0 % Test CRC 5FFDBCCF Copy CRC 5FFDBCCF Accurately ripped (confidence 2) [5AD9F899] (AR v2) Copy OK
Track 9
Filename C:\Music\09 - Basil Poledouris - Love Theme (Reprise).wav
Pre-gap length 0:00:02.47
Peak level 48.8 % Extraction speed 4.5 X Track quality 100.0 % Test CRC 517F44DB Copy CRC 517F44DB Accurately ripped (confidence 2) [C2C67362] (AR v2) Copy OK
Track 10
Filename C:\Music\10 - Basil Poledouris - Underwater Courtship.wav
Pre-gap length 0:00:02.03
Peak level 71.7 % Extraction speed 4.7 X Track quality 100.0 % Test CRC 3747244D Copy CRC 3747244D Accurately ripped (confidence 2) [374D393F] (AR v2) Copy OK
Track 11
Filename C:\Music\11 - Basil Poledouris - The Kiss.wav
Pre-gap length 0:00:02.45
Peak level 60.2 % Extraction speed 4.3 X Track quality 100.0 % Test CRC 14547F21 Copy CRC 14547F21 Accurately ripped (confidence 2) [2C1E03B1] (AR v2) Copy OK
Track 12
Filename C:\Music\12 - Basil Poledouris - Richard Sees Paddy.wav
Pre-gap length 0:00:02.08
Peak level 64.5 % Extraction speed 3.9 X Track quality 99.9 % Test CRC F70A81EC Copy CRC F70A81EC Accurately ripped (confidence 2) [25F1328D] (AR v2) Copy OK
Track 13
Filename C:\Music\13 - Basil Poledouris - The Birth.wav
Pre-gap length 0:00:01.55
Peak level 66.1 % Extraction speed 3.9 X Track quality 100.0 % Test CRC 0AE90B72 Copy CRC 0AE90B72 Accurately ripped (confidence 2) [4DADF8AF] (AR v2) Copy OK
Track 14
Filename C:\Music\14 - Basil Poledouris - Bad People , Baby Swim.wav
Pre-gap length 0:00:02.70
Peak level 64.8 % Extraction speed 4.3 X Track quality 100.0 % Test CRC 71784602 Copy CRC 71784602 Accurately ripped (confidence 2) [BCBAF1F3] (AR v2) Copy OK
Track 15
Filename C:\Music\15 - Basil Poledouris - The Memories.wav
Pre-gap length 0:00:02.52
Peak level 56.7 % Extraction speed 4.1 X Track quality 100.0 % Test CRC E34225D4 Copy CRC E34225D4 Accurately ripped (confidence 2) [98EAB9E0] (AR v2) Copy OK
Track 16
Filename C:\Music\16 - Basil Poledouris - Points To Port , End Titles.wav
Pre-gap length 0:00:02.52
Peak level 70.7 % Extraction speed 4.7 X Track quality 100.0 % Test CRC 77C9839B Copy CRC 77C9839B Accurately ripped (confidence 2) [31643720] (AR v2) Copy OK
All tracks accurately ripped
No errors occurred
End of status report
==== Log checksum 2589F059352B6588478F28CC2537231117DA2113F0D7BB2253D8F5CFCAB220CD ====

Содержание индексной карты (.CUE)

REM GENRE SoundtrackREM DATE 1980REM DISCID F0081E10REM COMMENT "ExactAudioCopy v1.0b3"PERFORMER "Basil Poledouris"TITLE "The Blue Lagoon"FILE "01 - Basil Poledouris - Love Theme (Emmeline).wav" WAVE TRACK 01 AUDIO TITLE "Love Theme (Emmeline)" PERFORMER "Basil Poledouris" INDEX 01 00:00:00 TRACK 02 AUDIO TITLE "Main Title" PERFORMER "Basil Poledouris" INDEX 00 02:31:50FILE "02 - Basil Poledouris - Main Title.wav" WAVE INDEX 01 00:00:00 TRACK 03 AUDIO TITLE "Fire" PERFORMER "Basil Poledouris" INDEX 00 02:35:43FILE "03 - Basil Poledouris - Fire.wav" WAVE INDEX 01 00:00:00 TRACK 04 AUDIO TITLE "The Island" PERFORMER "Basil Poledouris" INDEX 00 01:16:70FILE "04 - Basil Poledouris - The Island.wav" WAVE INDEX 01 00:00:00 TRACK 05 AUDIO TITLE "The Sands Of Time" PERFORMER "Basil Poledouris" INDEX 00 01:43:40FILE "05 - Basil Poledouris - The Sands Of Time.wav" WAVE INDEX 01 00:00:00 TRACK 06 AUDIO TITLE "Paddy's Death" PERFORMER "Basil Poledouris" INDEX 00 02:24:38FILE "06 - Basil Poledouris - Paddy's Death.wav" WAVE INDEX 01 00:00:00 TRACK 07 AUDIO TITLE "The Children Grow" PERFORMER "Basil Poledouris" INDEX 00 01:18:67FILE "07 - Basil Poledouris - The Children Grow.wav" WAVE INDEX 01 00:00:00 TRACK 08 AUDIO TITLE "Lord Of The Lagoon" PERFORMER "Basil Poledouris" INDEX 00 04:09:63FILE "08 - Basil Poledouris - Lord Of The Lagoon.wav" WAVE INDEX 01 00:00:00 TRACK 09 AUDIO TITLE "Love Theme (Reprise)" PERFORMER "Basil Poledouris" INDEX 00 01:04:50FILE "09 - Basil Poledouris - Love Theme (Reprise).wav" WAVE INDEX 01 00:00:00 TRACK 10 AUDIO TITLE "Underwater Courtship" PERFORMER "Basil Poledouris" INDEX 00 01:10:35FILE "10 - Basil Poledouris - Underwater Courtship.wav" WAVE INDEX 01 00:00:00 TRACK 11 AUDIO TITLE "The Kiss" PERFORMER "Basil Poledouris" INDEX 00 01:58:62FILE "11 - Basil Poledouris - The Kiss.wav" WAVE INDEX 01 00:00:00 TRACK 12 AUDIO TITLE "Richard Sees Paddy" PERFORMER "Basil Poledouris" INDEX 00 02:33:50FILE "12 - Basil Poledouris - Richard Sees Paddy.wav" WAVE INDEX 01 00:00:00 TRACK 13 AUDIO TITLE "The Birth" PERFORMER "Basil Poledouris" INDEX 00 02:20:50FILE "13 - Basil Poledouris - The Birth.wav" WAVE INDEX 01 00:00:00 TRACK 14 AUDIO TITLE "Bad People / Baby Swim" PERFORMER "Basil Poledouris" INDEX 00 01:13:20FILE "14 - Basil Poledouris - Bad People , Baby Swim.wav" WAVE INDEX 01 00:00:00 TRACK 15 AUDIO TITLE "The Memories" PERFORMER "Basil Poledouris" INDEX 00 03:00:20FILE "15 - Basil Poledouris - The Memories.wav" WAVE INDEX 01 00:00:00 TRACK 16 AUDIO TITLE "Points To Port / End Titles" PERFORMER "Basil Poledouris" INDEX 00 01:18:63FILE "16 - Basil Poledouris - Points To Port , End Titles.wav" WAVE INDEX 01 00:00:00
[teatrix.ru].t10358.torrent 
Торрент: Зарегистрирован [ 2015-11-01 20:51 ] · ECE48450E331BE6693B625CFBACF12EF90DBB3CC

Скачать .torrent

Скачать

6 KB

Статус: проверено
Скачан: 0 раз
Размер: 205 MB
terms.php



Быстрый ответ

Имя:

      
Для отправки сообщений необходимо включить JavaScript
Показать сообщения:    

Текущее время: 09-Дек 06:53

Часовой пояс: UTC + 3


Вы можете начинать темы
Вы можете отвечать на сообщения
Вы не можете редактировать свои сообщения
Вы не можете удалять свои сообщения
Вы не можете голосовать в опросах
Вы не можете прикреплять файлы к сообщениям
Вы можете скачивать файлы