(Score) Охотники на ведьм / Hansel and Gretel: Witch Hunters (by Atli Orvarsson) - 2013, FLAC (tracks+.cue), lossless


Статистика раздачи [Обновить пиров]
Размер:  308 MB   |    Зарегистрирован:  1 год 1 месяц   |    Скачан:  0 раз
Сидов:  1  [  0 KB/s  ]   Личеров:  2  [  0 KB/s  ]   Подробная статистика пиров
 
   
 
 
 

[Цитировать]

Охотники на ведьм / Hansel and Gretel: Witch Hunters- Жанр: Score
Композитор: Atli Orvarsson
Год выпуска диска: 2013
Страна-производитель диска: USA
Издатель (лейбл): La-La Land Records
Номер по каталогу: LLLCD 1241
Аудиокодек: FLAC (*.flac)
Тип рипа: tracks+.cue
Битрейт аудио: lossless
Продолжительность: 00:47:22
Источник: CD / What.CD
Наличие сканов в содержимом раздачи: да
Треклист:
01 - The Witch Hunters
02 - Business is Good
03 - Trolls Serve Witches
04 - Lost Children Crying, Vol. 2
05 - You Do the Bleeding
06 - There are Good Witches in the World
07 - This Place Could Use a Bit of Color
08 - Goodbye Muriel
09 - Don't Eat the Candy
10 - Burn 'Em All
11 - White Magic
12 - Shoot Anything that Moves
13 - The Fairy Tale
14 - Beautiful Story, Don't You Think? (Bonus Track)

Лог создания рипа

Exact Audio Copy V1.0 beta 3 from 29. August 2011
EAC extraction logfile from 21. March 2013, 0:08
Atli Örvarsson / Hansel & Gretel - Witch hunters -
Used drive : HL-DT-STDVDRAM GH22NS50 Adapter: 1 ID: 1
Read mode : SecureUtilize accurate stream : YesDefeat audio cache : YesMake use of C2 pointers : No
Read offset correction : 667Overread into Lead-In and Lead-Out : NoFill up missing offset samples with silence : YesDelete leading and trailing silent blocks : NoNull samples used in CRC calculations : YesUsed interface : Native Win32 interface for Win NT & 2000Gap handling : Appended to previous track
Used output format : User Defined EncoderSelected bitrate : 768 kBit/sQuality : HighAdd ID3 tag : NoCommand line compressor : C:\Program Files\FLAC\flac.exeAdditional command line options : -8 -V -T "artist=%artist%" -T "title=%title%" -T "album=%albumtitle%" -T "date=%year%" -T "tracknumber=%tracknr%" -T "genre=%genre%" %source%
TOC of the extracted CD
Track | Start | Length | Start sector | End sector --------------------------------------------------------- 1 | 0:00.00 | 2:30.56 | 0 | 11305 2 | 2:30.56 | 2:12.02 | 11306 | 21207 3 | 4:42.58 | 3:34.50 | 21208 | 37307 4 | 8:17.33 | 2:34.02 | 37308 | 48859 5 | 10:51.35 | 3:35.20 | 48860 | 65004 6 | 14:26.55 | 4:12.08 | 65005 | 83912 7 | 18:38.63 | 4:18.42 | 83913 | 103304 8 | 22:57.30 | 3:22.63 | 103305 | 118517 9 | 26:20.18 | 3:50.17 | 118518 | 135784 10 | 30:10.35 | 5:04.22 | 135785 | 158606 11 | 35:14.57 | 1:54.19 | 158607 | 167175 12 | 37:09.01 | 3:30.47 | 167176 | 182972 13 | 40:39.48 | 2:54.68 | 182973 | 196090 14 | 43:34.41 | 3:47.53 | 196091 | 213168
Track 1
Filename C:\Users\usuario\Documents\Carátulas\01 The witch hunters.wav
Pre-gap length 0:00:02.00
Peak level 95.3 % Extraction speed 0.7 X Track quality 99.9 % Test CRC 9F4CF9A7 Copy CRC 9F4CF9A7 Track not present in AccurateRip database Copy OK
Track 2
Filename C:\Users\usuario\Documents\Carátulas\02 Business is good.wav
Pre-gap length 0:00:01.00
Peak level 94.6 % Extraction speed 0.9 X Track quality 100.0 % Test CRC C2E2624C Copy CRC C2E2624C Track not present in AccurateRip database Copy OK
Track 3
Filename C:\Users\usuario\Documents\Carátulas\03 Trolls serve witches.wav
Pre-gap length 0:00:00.36
Peak level 94.6 % Extraction speed 1.1 X Track quality 100.0 % Test CRC 91864821 Copy CRC 91864821 Track not present in AccurateRip database Copy OK
Track 4
Filename C:\Users\usuario\Documents\Carátulas\04 Lost children crying, Vol. 2.wav
Pre-gap length 0:00:01.00
Peak level 95.0 % Extraction speed 0.9 X Track quality 99.9 % Test CRC 73DECC98 Copy CRC 73DECC98 Track not present in AccurateRip database Copy OK
Track 5
Filename C:\Users\usuario\Documents\Carátulas\05 You do the bleeding.wav
Pre-gap length 0:00:01.00
Peak level 94.4 % Extraction speed 1.3 X Track quality 100.0 % Test CRC 8C6A1998 Copy CRC 8C6A1998 Track not present in AccurateRip database Copy OK
Track 6
Filename C:\Users\usuario\Documents\Carátulas\06 There are good witches in the world.wav
Pre-gap length 0:00:00.34
Peak level 94.8 % Extraction speed 1.4 X Track quality 100.0 % Test CRC B2364602 Copy CRC B2364602 Track not present in AccurateRip database Copy OK
Track 7
Filename C:\Users\usuario\Documents\Carátulas\07 This place could use a bit of color.wav
Pre-gap length 0:00:00.09
Peak level 94.5 % Extraction speed 1.5 X Track quality 100.0 % Test CRC 62855E53 Copy CRC 62855E53 Track not present in AccurateRip database Copy OK
Track 8
Filename C:\Users\usuario\Documents\Carátulas\08 Goodbye Muriel.wav
Pre-gap length 0:00:00.74
Peak level 94.3 % Extraction speed 1.3 X Track quality 99.9 % Test CRC B89F3E6C Copy CRC B89F3E6C Track not present in AccurateRip database Copy OK
Track 9
Filename C:\Users\usuario\Documents\Carátulas\09 Don't eat the candy.wav
Pre-gap length 0:00:00.74
Peak level 94.3 % Extraction speed 1.6 X Track quality 100.0 % Test CRC 9B1E8D24 Copy CRC 9B1E8D24 Track not present in AccurateRip database Copy OK
Track 10
Filename C:\Users\usuario\Documents\Carátulas\10 Burn 'em all.wav
Pre-gap length 0:00:01.33
Peak level 94.8 % Extraction speed 1.7 X Track quality 100.0 % Test CRC 9670899D Copy CRC 9670899D Track not present in AccurateRip database Copy OK
Track 11
Filename C:\Users\usuario\Documents\Carátulas\11 White magic.wav
Pre-gap length 0:00:00.33
Peak level 94.8 % Extraction speed 1.5 X Track quality 100.0 % Test CRC 8B5EBECA Copy CRC 8B5EBECA Track not present in AccurateRip database Copy OK
Track 12
Filename C:\Users\usuario\Documents\Carátulas\12 Shoot anything that moves.wav
Pre-gap length 0:00:01.33
Peak level 94.4 % Extraction speed 1.8 X Track quality 100.0 % Test CRC 29C267E1 Copy CRC 29C267E1 Track not present in AccurateRip database Copy OK
Track 13
Filename C:\Users\usuario\Documents\Carátulas\13 The fairy tale.wav
Pre-gap length 0:00:00.74
Peak level 94.4 % Extraction speed 1.7 X Track quality 100.0 % Test CRC 5D74246F Copy CRC 5D74246F Track not present in AccurateRip database Copy OK
Track 14
Filename C:\Users\usuario\Documents\Carátulas\14 Beautiful story, don't you think.wav
Pre-gap length 0:00:00.74
Peak level 94.4 % Extraction speed 1.9 X Track quality 100.0 % Test CRC 9FA83C59 Copy CRC 9FA83C59 Track not present in AccurateRip database Copy OK
None of the tracks are present in the AccurateRip database
No errors occurred
End of status report
==== Log checksum 8E07383B52A99C2FCB1AC8EBED6FEACE507FA548299092AB517D8FA280D65E3A ====

Содержание индексной карты (.CUE)

REM GENRE SoundtrackREM DATE 2013REM DISCID B20B1A0EREM COMMENT "ExactAudioCopy v1.0b3"CATALOG 0826924124123PERFORMER "Atli Цrvarsson"TITLE "Hansel & Gretel - Witch hunters - "FILE "01 The witch hunters.wav" WAVE TRACK 01 AUDIO TITLE "The witch hunters" PERFORMER "Atli Цrvarsson" ISRC USKLP1300107 INDEX 01 00:00:00 TRACK 02 AUDIO TITLE "Business is good" PERFORMER "Atli Цrvarsson" ISRC USKLP1300108 INDEX 00 02:29:56FILE "02 Business is good.wav" WAVE INDEX 01 00:00:00 TRACK 03 AUDIO TITLE "Trolls serve witches" PERFORMER "Atli Цrvarsson" ISRC USKLP1300109 INDEX 00 02:11:41FILE "03 Trolls serve witches.wav" WAVE INDEX 01 00:00:00 TRACK 04 AUDIO TITLE "Lost children crying, Vol. 2" PERFORMER "Atli Цrvarsson" ISRC USKLP1300110 INDEX 00 03:33:50FILE "04 Lost children crying, Vol. 2.wav" WAVE INDEX 01 00:00:00 TRACK 05 AUDIO TITLE "You do the bleeding" PERFORMER "Atli Цrvarsson" ISRC USKLP1300111 INDEX 00 02:33:02FILE "05 You do the bleeding.wav" WAVE INDEX 01 00:00:00 TRACK 06 AUDIO TITLE "There are good witches in the world" PERFORMER "Atli Цrvarsson" ISRC USKLP1300112 INDEX 00 03:34:61FILE "06 There are good witches in the world.wav" WAVE INDEX 01 00:00:00 TRACK 07 AUDIO TITLE "This place could use a bit of color" PERFORMER "Atli Цrvarsson" ISRC USKLP1300113 INDEX 00 04:11:74FILE "07 This place could use a bit of color.wav" WAVE INDEX 01 00:00:00 TRACK 08 AUDIO TITLE "Goodbye Muriel" PERFORMER "Atli Цrvarsson" ISRC USKLP1300114 INDEX 00 04:17:43FILE "08 Goodbye Muriel.wav" WAVE INDEX 01 00:00:00 TRACK 09 AUDIO TITLE "Don't eat the candy" PERFORMER "Atli Цrvarsson" ISRC USKLP1300115 INDEX 00 03:21:64FILE "09 Don't eat the candy.wav" WAVE INDEX 01 00:00:00 TRACK 10 AUDIO TITLE "Burn 'em all" PERFORMER "Atli Цrvarsson" ISRC USKLP1300116 INDEX 00 03:48:59FILE "10 Burn 'em all.wav" WAVE INDEX 01 00:00:00 TRACK 11 AUDIO TITLE "White magic" PERFORMER "Atli Цrvarsson" ISRC USKLP1300117 INDEX 00 05:03:64FILE "11 White magic.wav" WAVE INDEX 01 00:00:00 TRACK 12 AUDIO TITLE "Shoot anything that moves" PERFORMER "Atli Цrvarsson" ISRC USKLP1300118 INDEX 00 01:52:61FILE "12 Shoot anything that moves.wav" WAVE INDEX 01 00:00:00 TRACK 13 AUDIO TITLE "The fairy tale" PERFORMER "Atli Цrvarsson" ISRC USKLP1300119 INDEX 00 03:29:48FILE "13 The fairy tale.wav" WAVE INDEX 01 00:00:00 TRACK 14 AUDIO TITLE "Beautiful story, don't you think?" PERFORMER "Atli Цrvarsson" ISRC USKLP1300121 INDEX 00 02:53:69FILE "14 Beautiful story, don't you think.wav" WAVE INDEX 01 00:00:00

Лог проверки качества

-----------------------
DON'T MODIFY THIS FILE
-----------------------
PERFORMER: auCDtect Task Manager, ver. 1.6.0 RC1 build 1.6.0.1Copyright (c) 2008-2010 y-soft. All rights reservedhttp://y-soft.org
ANALYZER: auCDtect: CD records authenticity detector, version 0.8.2Copyright (c) 2004 Oleg Berngardt. All rights reserved.Copyright (c) 2004 Alexander Djourik. All rights reserved.
FILE: 14 - Beautiful Story, Don't You Think.flac Size: 22694349 Hash: 72D5C1C395C5FB6AE4C585835E5BD2C4 Accuracy: -m0 Conclusion: CDDA 100% Signature: DBE0F0AA1F37A6FCFBFDF8B1030B6D886B9F1EC7FILE: 13 - The Fairy Tale.flac Size: 18633416 Hash: 2C56181355AB1E8EA5A827BAD7A79203 Accuracy: -m0 Conclusion: CDDA 100% Signature: 2D3968F0FCF7D65AA7F29CB9B953D42E1AC77CF0FILE: 12 - Shoot Anything That Moves.flac Size: 25295071 Hash: 65A73201332212FB410F1D9927F14AC3 Accuracy: -m0 Conclusion: CDDA 99% Signature: 5A64E42137BC838F62FEA9289E6963D7078B6EBAFILE: 11 - White Magic.flac Size: 9094329 Hash: 2A0D6AA39439570D151F0F392F24A3A6 Accuracy: -m0 Conclusion: CDDA 100% Signature: AC6C61CCD8515D276264D61DCAB9FC1A790BA512FILE: 10 - Burn 'Em All.flac Size: 32104895 Hash: 9F004291DBE3D62F72A55D69B9BAE7EA Accuracy: -m0 Conclusion: CDDA 100% Signature: 6AB2325390155FFD2011B838AE6F91A9B6256F39FILE: 09 - Don't Eat the Candy.flac Size: 23457166 Hash: 474CBD2F6A56E5F671AA1FDD730DD2DB Accuracy: -m0 Conclusion: CDDA 100% Signature: 5B895C8225FBAB2BA6FAEE8434AC2C31C0B26DB6FILE: 08 - Goodbye Muriel.flac Size: 22596707 Hash: 1FE232E9DD5E559F14AE63AAF4D1465D Accuracy: -m0 Conclusion: CDDA 100% Signature: F6FAB9C05B68D9DFEC15F16BDD0F31A4A8548CF3FILE: 07 - This Place Could Use a Bit of Color.flac Size: 27765704 Hash: 542092CC828D87F0AA0547AAD7A53F7D Accuracy: -m0 Conclusion: CDDA 100% Signature: F011465B67821A2998BF9826BE23ED23A24CBF79FILE: 06 - There Are Good Witches in the World.flac Size: 21738345 Hash: 363B8A8E20246C6C7852B6194F8F8370 Accuracy: -m0 Conclusion: CDDA 100% Signature: 676931EDB243E859FBA6630E3C7F8D4537EF8BC7FILE: 05 - You Do the Bleeding.flac Size: 19937269 Hash: 8C90EC5C2D37ACD515152358E4AFEDD3 Accuracy: -m0 Conclusion: CDDA 100% Signature: FE44D67BC58EBDDEC2A528B6B32D572362FDF1B7FILE: 04 - Lost Children Crying, Vol. 2.flac Size: 16685171 Hash: 4FC1FBA84A6C37E20B88B1BD01F640B2 Accuracy: -m0 Conclusion: CDDA 99% Signature: 664EF387C801CF470F0106492CE64A6098AD458CFILE: 03 - Trolls Serve Witches.flac Size: 20989001 Hash: 72E2B0203921C255DC3E4D6CC043A64B Accuracy: -m0 Conclusion: CDDA 100% Signature: E43301CB35ABB594964A9911E5334708F374648CFILE: 02 - Business Is Good.flac Size: 15756359 Hash: D9A8FCCB474928A2F938618D15BA14F5 Accuracy: -m0 Conclusion: CDDA 100% Signature: 056CABA3854569A2BBE4DC759886B315224C7D34FILE: 01 - The Witch Hunters.flac Size: 15296780 Hash: 0DDE4FEB6AF3846687221D194D1FEA49 Accuracy: -m0 Conclusion: CDDA 100% Signature: 10DDCA412EACD7123EBB5CC9DF41DE4A8532A5EA

Скриншот спектра частот

Доп. инфо

Score: 100 (out of 100)-Log entry is fine
[teatrix.ru].t10360.torrent 
Торрент: Зарегистрирован [ 2015-11-01 20:51 ] · D606DD3D80AFC512B09B4952F054D43476848EF8

Скачать .torrent

Скачать

14 KB

Статус: проверено
Скачан: 0 раз
Размер: 308 MB
terms.php



Быстрый ответ

Имя:

      
Для отправки сообщений необходимо включить JavaScript
Показать сообщения:    

Текущее время: 07-Дек 23:13

Часовой пояс: UTC + 3


Вы можете начинать темы
Вы можете отвечать на сообщения
Вы не можете редактировать свои сообщения
Вы не можете удалять свои сообщения
Вы не можете голосовать в опросах
Вы не можете прикреплять файлы к сообщениям
Вы можете скачивать файлы