(Score) Небо и земля / Heaven & Earth (by Kitaro) - 1993, FLAC (tracks+.cue), lossless


Статистика раздачи [Обновить пиров]
Размер:  309 MB   |    Зарегистрирован:  1 год 1 месяц   |    Скачан:  3 раза

Полного источника не было: 1 месяц 1 день

 
   
 
 
 

[Цитировать]

Небо и земля / Heaven & Earth-Жанр: Score
Композитор: Kitaro
Год выпуска диска: 1993
Производитель диска: USA
Издатель (лейбл): Geffen Records
Номер по каталогу: GEFD-24614-Аудиокодек: FLAC (*.flac)
Тип рипа: tracks+.cue
Битрейт аудио: lossless
Продолжительность: 00:58:05
Источник: what.cd / arc88
Наличие сканов в содержимом раздачи: нет-

Треклист

1. Heaven And Earth (Land Theme) (07:39)
2. Sau Dau Tree (03:37)
3. Ahn & Le Ly Love Theme (04:54)
4. Saigon Reunion (05:48)
5. AVRN (03:41)
6. Sau Nightmare (00:58)
7. V.C. Bonfire (00:47)
8. Trong Com (00:43)
9. Ahn's House: Entrance / Please Come Visit My Village of Hoa Qui / Ahn Sends Le Ly Away (06:26)
10. Destiny (01:13)
11. Last Phone Call (01:40)
12. A Child Without A Father (02:04)
13. Village Attack / The Arrest (01:21)
14. Walk To The Village (03:00)
15. Steve's Ghosts (01:31)
16. Return To Vietnam (02:04)
17. End Title (10:28)

Лог создания рипа

Exact Audio Copy V0.99 prebeta 5 from 4. May 2009
EAC extraction logfile from 1. April 2010, 14:49
Kitaro / Heaven & Earth
Used drive : TSSTcorpCDDVDW SH-S222L Adapter: 0 ID: 1
Read mode : SecureUtilize accurate stream : YesDefeat audio cache : YesMake use of C2 pointers : No
Read offset correction : 6Overread into Lead-In and Lead-Out : NoFill up missing offset samples with silence : YesDelete leading and trailing silent blocks : NoNull samples used in CRC calculations : YesUsed interface : Native Win32 interface for Win NT & 2000Gap handling : Appended to previous track
Used output format : User Defined EncoderSelected bitrate : 768 kBit/sQuality : HighAdd ID3 tag : NoCommand line compressor : C:\Program Files\FLAC\flac.exeAdditional command line options : -V -8 -T "artist=%a" -T "title=%t" -T "album=%g" -T "date=%y" -T "tracknumber=%n" -T "genre=%m" %s
TOC of the extracted CD
Track | Start | Length | Start sector | End sector --------------------------------------------------------- 1 | 0:00.00 | 7:39.40 | 0 | 34464 2 | 7:39.40 | 3:41.13 | 34465 | 51052 3 | 11:20.53 | 4:54.60 | 51053 | 73162 4 | 16:15.38 | 5:48.50 | 73163 | 99312 5 | 22:04.13 | 3:41.35 | 99313 | 115922 6 | 25:45.48 | 0:58.50 | 115923 | 120322 7 | 26:44.23 | 0:47.30 | 120323 | 123877 8 | 27:31.53 | 0:43.25 | 123878 | 127127 9 | 28:15.03 | 6:27.27 | 127128 | 156179 10 | 34:42.30 | 1:13.53 | 156180 | 161707 11 | 35:56.08 | 1:40.15 | 161708 | 169222 12 | 37:36.23 | 2:04.35 | 169223 | 178557 13 | 39:40.58 | 1:21.30 | 178558 | 184662 14 | 41:02.13 | 3:00.05 | 184663 | 198167 15 | 44:02.18 | 1:31.52 | 198168 | 205044 16 | 45:33.70 | 2:04.30 | 205045 | 214374 17 | 47:38.25 | 10:27.58 | 214375 | 261457
Track 1
Filename G:\Downloads\Kitaro - Heaven & Earth (FLAC)\Kitaro - Heaven & Earth - 01 - Heaven And Earth (Land Theme).wav
Pre-gap length 0:00:02.00
Peak level 98.2 % Track quality 100.0 % Test CRC 8CB56048 Copy CRC 8CB56048 Track not present in AccurateRip database Copy OK
Track 2
Filename G:\Downloads\Kitaro - Heaven & Earth (FLAC)\Kitaro - Heaven & Earth - 02 - Sau Dau Tree.wav
Peak level 87.0 % Track quality 99.9 % Test CRC 43F9F1A7 Copy CRC 43F9F1A7 Track not present in AccurateRip database Copy OK
Track 3
Filename G:\Downloads\Kitaro - Heaven & Earth (FLAC)\Kitaro - Heaven & Earth - 03 - Ahn & Le Ly Love Theme.wav
Pre-gap length 0:00:03.97
Peak level 71.0 % Track quality 100.0 % Test CRC 05651A71 Copy CRC 05651A71 Track not present in AccurateRip database Copy OK
Track 4
Filename G:\Downloads\Kitaro - Heaven & Earth (FLAC)\Kitaro - Heaven & Earth - 04 - Saigon Reunion.wav
Pre-gap length 0:00:00.30
Peak level 86.1 % Track quality 99.9 % Test CRC B8621AC8 Copy CRC B8621AC8 Track not present in AccurateRip database Copy OK
Track 5
Filename G:\Downloads\Kitaro - Heaven & Earth (FLAC)\Kitaro - Heaven & Earth - 05 - Arvn.wav
Peak level 97.6 % Track quality 99.9 % Test CRC C2CD2AAB Copy CRC C2CD2AAB Track not present in AccurateRip database Copy OK
Track 6
Filename G:\Downloads\Kitaro - Heaven & Earth (FLAC)\Kitaro - Heaven & Earth - 06 - Sau Nightmare.wav
Peak level 80.3 % Track quality 100.0 % Test CRC DACF61A3 Copy CRC DACF61A3 Track not present in AccurateRip database Copy OK
Track 7
Filename G:\Downloads\Kitaro - Heaven & Earth (FLAC)\Kitaro - Heaven & Earth - 07 - V.C. Bonfire.wav
Peak level 87.9 % Track quality 100.0 % Test CRC 6567A0D8 Copy CRC 6567A0D8 Track not present in AccurateRip database Copy OK
Track 8
Filename G:\Downloads\Kitaro - Heaven & Earth (FLAC)\Kitaro - Heaven & Earth - 08 - Trong Com.wav
Peak level 50.8 % Track quality 100.0 % Test CRC B5B1FCEE Copy CRC B5B1FCEE Track not present in AccurateRip database Copy OK
Track 9
Filename G:\Downloads\Kitaro - Heaven & Earth (FLAC)\Kitaro - Heaven & Earth - 09 - Ahn's House.wav
Peak level 73.6 % Track quality 100.0 % Test CRC CAC371FF Copy CRC CAC371FF Track not present in AccurateRip database Copy OK
Track 10
Filename G:\Downloads\Kitaro - Heaven & Earth (FLAC)\Kitaro - Heaven & Earth - 10 - Destiny.wav
Pre-gap length 0:00:01.13
Peak level 70.8 % Track quality 99.8 % Test CRC 2F04FCBA Copy CRC 2F04FCBA Track not present in AccurateRip database Copy OK
Track 11
Filename G:\Downloads\Kitaro - Heaven & Earth (FLAC)\Kitaro - Heaven & Earth - 11 - Last Phone Call.wav
Peak level 92.6 % Track quality 100.0 % Test CRC 294F3520 Copy CRC 294F3520 Track not present in AccurateRip database Copy OK
Track 12
Filename G:\Downloads\Kitaro - Heaven & Earth (FLAC)\Kitaro - Heaven & Earth - 12 - A Child Without A Father.wav
Peak level 61.9 % Track quality 100.0 % Test CRC 028A497A Copy CRC 028A497A Track not present in AccurateRip database Copy OK
Track 13
Filename G:\Downloads\Kitaro - Heaven & Earth (FLAC)\Kitaro - Heaven & Earth - 13 - Village Attack,The Arrest.wav
Peak level 99.9 % Track quality 100.0 % Test CRC D371B024 Copy CRC D371B024 Track not present in AccurateRip database Copy OK
Track 14
Filename G:\Downloads\Kitaro - Heaven & Earth (FLAC)\Kitaro - Heaven & Earth - 14 - Walk To The Village.wav
Peak level 77.6 % Track quality 100.0 % Test CRC 08CD34FF Copy CRC 08CD34FF Track not present in AccurateRip database Copy OK
Track 15
Filename G:\Downloads\Kitaro - Heaven & Earth (FLAC)\Kitaro - Heaven & Earth - 15 - Steve's Ghosts.wav
Peak level 88.5 % Track quality 100.0 % Test CRC A55D06AB Copy CRC A55D06AB Track not present in AccurateRip database Copy OK
Track 16
Filename G:\Downloads\Kitaro - Heaven & Earth (FLAC)\Kitaro - Heaven & Earth - 16 - Return To Vietnam.wav
Peak level 64.8 % Track quality 100.0 % Test CRC 01E9E663 Copy CRC 01E9E663 Track not present in AccurateRip database Copy OK
Track 17
Filename G:\Downloads\Kitaro - Heaven & Earth (FLAC)\Kitaro - Heaven & Earth - 17 - End Title.wav
Peak level 99.9 % Track quality 100.0 % Test CRC AC51BE5E Copy CRC AC51BE5E Track not present in AccurateRip database Copy OK
None of the tracks are present in the AccurateRip database
No errors occurred
End of status report

Содержание индексной карты (.CUE)

REM GENRE SoundtrackREM DATE 1993REM DISCID 040D9E11REM COMMENT "ExactAudioCopy v0.99pb5"PERFORMER "Kitaro"TITLE "Heaven & Earth"FILE "Kitaro - Heaven & Earth - 01 - Heaven And Earth (Land Theme).wav" WAVE TRACK 01 AUDIO TITLE "Heaven And Earth (Land Theme)" PERFORMER "Kitaro" INDEX 01 00:00:00FILE "Kitaro - Heaven & Earth - 02 - Sau Dau Tree.wav" WAVE TRACK 02 AUDIO TITLE "Sau Dau Tree" PERFORMER "Kitaro" INDEX 01 00:00:00 TRACK 03 AUDIO TITLE "Ahn & Le Ly Love Theme" PERFORMER "Kitaro" INDEX 00 03:37:15FILE "Kitaro - Heaven & Earth - 03 - Ahn & Le Ly Love Theme.wav" WAVE INDEX 01 00:00:00 TRACK 04 AUDIO TITLE "Saigon Reunion" PERFORMER "Kitaro" INDEX 00 04:54:37FILE "Kitaro - Heaven & Earth - 04 - Saigon Reunion.wav" WAVE INDEX 01 00:00:00FILE "Kitaro - Heaven & Earth - 05 - Arvn.wav" WAVE TRACK 05 AUDIO TITLE "Arvn" PERFORMER "Kitaro" INDEX 01 00:00:00FILE "Kitaro - Heaven & Earth - 06 - Sau Nightmare.wav" WAVE TRACK 06 AUDIO TITLE "Sau Nightmare" PERFORMER "Kitaro" INDEX 01 00:00:00FILE "Kitaro - Heaven & Earth - 07 - V.C. Bonfire.wav" WAVE TRACK 07 AUDIO TITLE "V.C. Bonfire" PERFORMER "Kitaro" INDEX 01 00:00:00FILE "Kitaro - Heaven & Earth - 08 - Trong Com.wav" WAVE TRACK 08 AUDIO TITLE "Trong Com" PERFORMER "Kitaro" INDEX 01 00:00:00FILE "Kitaro - Heaven & Earth - 09 - Ahn's House.wav" WAVE TRACK 09 AUDIO TITLE "Ahn's House" PERFORMER "Kitaro" INDEX 01 00:00:00 TRACK 10 AUDIO TITLE "Destiny" PERFORMER "Kitaro" INDEX 00 06:26:17FILE "Kitaro - Heaven & Earth - 10 - Destiny.wav" WAVE INDEX 01 00:00:00FILE "Kitaro - Heaven & Earth - 11 - Last Phone Call.wav" WAVE TRACK 11 AUDIO TITLE "Last Phone Call" PERFORMER "Kitaro" INDEX 01 00:00:00FILE "Kitaro - Heaven & Earth - 12 - A Child Without A Father.wav" WAVE TRACK 12 AUDIO TITLE "A Child Without A Father" PERFORMER "Kitaro" INDEX 01 00:00:00FILE "Kitaro - Heaven & Earth - 13 - Village Attack,The Arrest.wav" WAVE TRACK 13 AUDIO TITLE "Village Attack/The Arrest" PERFORMER "Kitaro" INDEX 01 00:00:00FILE "Kitaro - Heaven & Earth - 14 - Walk To The Village.wav" WAVE TRACK 14 AUDIO TITLE "Walk To The Village" PERFORMER "Kitaro" INDEX 01 00:00:00FILE "Kitaro - Heaven & Earth - 15 - Steve's Ghosts.wav" WAVE TRACK 15 AUDIO TITLE "Steve's Ghosts" PERFORMER "Kitaro" INDEX 01 00:00:00FILE "Kitaro - Heaven & Earth - 16 - Return To Vietnam.wav" WAVE TRACK 16 AUDIO TITLE "Return To Vietnam" PERFORMER "Kitaro" INDEX 01 00:00:00FILE "Kitaro - Heaven & Earth - 17 - End Title.wav" WAVE TRACK 17 AUDIO TITLE "End Title" PERFORMER "Kitaro" INDEX 01 00:00:00
[teatrix.ru].t10362.torrent 
Торрент: Зарегистрирован [ 2015-11-01 20:51 ] · 2FE34157B585AB23F48EC0DDA4AEC2A681A8756E

Скачать .torrent

Скачать

14 KB

Статус: проверено
Скачан: 3 раз
Размер: 309 MB
terms.php



Быстрый ответ

Имя:

      
Для отправки сообщений необходимо включить JavaScript
Показать сообщения:    

Текущее время: 08-Дек 12:50

Часовой пояс: UTC + 3


Вы можете начинать темы
Вы можете отвечать на сообщения
Вы не можете редактировать свои сообщения
Вы не можете удалять свои сообщения
Вы не можете голосовать в опросах
Вы не можете прикреплять файлы к сообщениям
Вы можете скачивать файлы