(Soundtrack) Прослушка / The Wire (Beyond Hamsterdam - Baltimore Tracks From The Wire) - 2008, FLAC (tracks+.cue), lossless


Статистика раздачи [Обновить пиров]
Размер:  436 MB   |    Зарегистрирован:  1 год 1 месяц   |    Скачан:  1 раз

Полного источника не было: 6 месяцев 12 дней

 
   
 
 
 

[Цитировать]

Прослушка / The Wire (Beyond Hamsterdam - Baltimore Tracks From The Wire)-Жанр: Soundtrack
Год выпуска диска: 2008
Производитель диска: USA
Издатель (лейбл): Nonesuch
Номер по каталогу: 7559-79954-0-Аудиокодек: FLAC (*.flac)
Тип рипа: tracks+.cue
Битрейт аудио: lossless
Продолжительность: 00:43:05
Источник: what.cd / jaywratten
Наличие сканов в содержимом раздачи: нет

Треклист

1. DoMaJe – Way Down In The Hole (1:46)
2. Tyree Colion – Projects (4:33)
3. Rod Lee – Dance My Pain Away (2:52)
4. DJ Technics – My Life Extra (2:39)
5. Ogun & Phathead – What You Know About Baltimore (3:59)
6. Diablo – Jail Flick (4:07)
7. The Get ‘Em Mamis & L. Cash – When You See Us (4:06)
8. Dirty Hartz & Verb – That’s Da Sound (3:55)
9. Bossman – Ayo (3:52)
10. Mullyman – The Life, The Hood, The Streetz (4:44)
11. Lafayette Gilchrist – Assume The Position (6:32)

Лог создания рипа

X Lossless Decoder version 20130407 (143.0)
XLD extraction logfile from 2013-04-27 17:16:02 +0200
Varios Artistas / Beyond Hamsterdam: Baltimore Tracks From The Wire
Used drive : HL-DT-ST DVDRW GS31N (revision TA17)Media type : Pressed CD
Ripper mode : XLD Secure RipperDisable audio cache : OK for the drive with a cache less than 1375KiBMake use of C2 pointers : NORead offset correction : 667Max retry count : 20Gap status : Analyzed, Appended (except HTOA)
TOC of the extracted CD Track | Start | Length | Start sector | End sector --------------------------------------------------------- 1 | 00:00:00 | 01:45:60 | 0 | 7934 2 | 01:45:60 | 04:32:61 | 7935 | 28395 3 | 06:18:46 | 02:51:68 | 28396 | 41288 4 | 09:10:39 | 02:39:06 | 41289 | 53219 5 | 11:49:45 | 03:59:30 | 53220 | 71174 6 | 15:49:00 | 04:06:73 | 71175 | 89697 7 | 19:55:73 | 04:05:72 | 89698 | 108144 8 | 24:01:70 | 03:55:25 | 108145 | 125794 9 | 27:57:20 | 03:51:72 | 125795 | 143191 10 | 31:49:17 | 04:44:06 | 143192 | 164497 11 | 36:33:23 | 06:32:30 | 164498 | 193927
AccurateRip Summary (DiscID: 000facc7-008baa4c-8b0a190b) Track 01 : OK (v1, confidence 3/3) Track 02 : OK (v1, confidence 3/3) Track 03 : OK (v1, confidence 3/3) Track 04 : OK (v1, confidence 3/3) Track 05 : OK (v1, confidence 3/3) Track 06 : OK (v1, confidence 3/3) Track 07 : OK (v1, confidence 3/3) Track 08 : OK (v1, confidence 3/3) Track 09 : OK (v1, confidence 3/3) Track 10 : OK (v1, confidence 3/3) Track 11 : OK (v1, confidence 3/3) ->All tracks accurately ripped.
All Tracks Album gain : -8.82 dB Peak : 0.988831 Statistics Read error : 0 Jitter error (maybe fixed) : 0 Retry sector count : 0 Damaged sector count : 0
Track 01 Filename : /Users/Javider/Music/01 DoMaJe - Way Down In The Hole.flac Pre-gap length : 00:02:00
Track gain : -7.35 dB Peak : 0.988678 CRC32 hash (test run) : 86FCFD17 CRC32 hash : 86FCFD17 CRC32 hash (skip zero) : D6F5C03B AccurateRip v1 signature : 8EB0182E AccurateRip v2 signature : DD233466 ->Accurately ripped (v1, confidence 3/3) Statistics Read error : 0 Jitter error (maybe fixed) : 0 Retry sector count : 0 Damaged sector count : 0
Track 02 Filename : /Users/Javider/Music/02 Tyree Colion - Projects.flac
Track gain : -9.24 dB Peak : 0.988708 CRC32 hash (test run) : 5C8A830F CRC32 hash : 5C8A830F CRC32 hash (skip zero) : 3A8EFE98 AccurateRip v1 signature : F8610CD6 AccurateRip v2 signature : CB1FF6B7 ->Accurately ripped (v1, confidence 3/3) Statistics Read error : 0 Jitter error (maybe fixed) : 0 Retry sector count : 0 Damaged sector count : 0
Track 03 Filename : /Users/Javider/Music/03 Rod Lee - Dance My Pain Away.flac
Track gain : -10.19 dB Peak : 0.977081 CRC32 hash (test run) : F1846A2A CRC32 hash : F1846A2A CRC32 hash (skip zero) : 44BD3900 AccurateRip v1 signature : E4AC0D40 AccurateRip v2 signature : 8019DCD2 ->Accurately ripped (v1, confidence 3/3) Statistics Read error : 0 Jitter error (maybe fixed) : 0 Retry sector count : 0 Damaged sector count : 0
Track 04 Filename : /Users/Javider/Music/04 DJ Technics - My Life Extra.flac
Track gain : -9.74 dB Peak : 0.895447 CRC32 hash (test run) : 359E777A CRC32 hash : 359E777A CRC32 hash (skip zero) : 791D55B3 AccurateRip v1 signature : 722EFC88 AccurateRip v2 signature : C4004E07 ->Accurately ripped (v1, confidence 3/3) Statistics Read error : 0 Jitter error (maybe fixed) : 0 Retry sector count : 0 Damaged sector count : 0
Track 05 Filename : /Users/Javider/Music/05 Ogun Feat. Phathead - What You Know About Baltimore.flac
Track gain : -8.25 dB Peak : 0.927124 CRC32 hash (test run) : 077A8E4C CRC32 hash : 077A8E4C CRC32 hash (skip zero) : 6A4B3D03 AccurateRip v1 signature : 7CDCBD15 AccurateRip v2 signature : 0AF756DB ->Accurately ripped (v1, confidence 3/3) Statistics Read error : 0 Jitter error (maybe fixed) : 0 Retry sector count : 0 Damaged sector count : 0
Track 06 Filename : /Users/Javider/Music/06 Diablo - Jail Flick.flac
Track gain : -7.83 dB Peak : 0.988831 CRC32 hash (test run) : C1CD2251 CRC32 hash : C1CD2251 CRC32 hash (skip zero) : 5894E5DA AccurateRip v1 signature : 83C7CC93 AccurateRip v2 signature : DD9F6DFB ->Accurately ripped (v1, confidence 3/3) Statistics Read error : 0 Jitter error (maybe fixed) : 0 Retry sector count : 0 Damaged sector count : 0
Track 07 Filename : /Users/Javider/Music/07 The Get' Em Mamis Feat. L. Cash - When You See Us.flac
Track gain : -7.04 dB Peak : 0.988586 CRC32 hash (test run) : F1A9EFA0 CRC32 hash : F1A9EFA0 CRC32 hash (skip zero) : 30F983AB AccurateRip v1 signature : B3931E8D AccurateRip v2 signature : 682C2406 ->Accurately ripped (v1, confidence 3/3) Statistics Read error : 0 Jitter error (maybe fixed) : 0 Retry sector count : 0 Damaged sector count : 0
Track 08 Filename : /Users/Javider/Music/08 Dirty Hartz Feat. Verb - That's Da Sound.flac
Track gain : -8.14 dB Peak : 0.988708 CRC32 hash (test run) : FF0329D8 CRC32 hash : FF0329D8 CRC32 hash (skip zero) : A0103BB4 AccurateRip v1 signature : E822DB94 AccurateRip v2 signature : C1F7593B ->Accurately ripped (v1, confidence 3/3) Statistics Read error : 0 Jitter error (maybe fixed) : 0 Retry sector count : 0 Damaged sector count : 0
Track 09 Filename : /Users/Javider/Music/09 Bossman - Ayo.flac
Track gain : -9.06 dB Peak : 0.988617 CRC32 hash (test run) : E0CA9675 CRC32 hash : E0CA9675 CRC32 hash (skip zero) : 7932FB77 AccurateRip v1 signature : A6E0315E AccurateRip v2 signature : CA9FFB33 ->Accurately ripped (v1, confidence 3/3) Statistics Read error : 0 Jitter error (maybe fixed) : 0 Retry sector count : 0 Damaged sector count : 0
Track 10 Filename : /Users/Javider/Music/10 Mullyman - The Life, The Hood, The Streetz.flac
Track gain : -6.82 dB Peak : 0.988617 CRC32 hash (test run) : E4E5872C CRC32 hash : E4E5872C CRC32 hash (skip zero) : D0F32D87 AccurateRip v1 signature : 95F624CF AccurateRip v2 signature : 5C21162D ->Accurately ripped (v1, confidence 3/3) Statistics Read error : 0 Jitter error (maybe fixed) : 0 Retry sector count : 0 Damaged sector count : 0
Track 11 Filename : /Users/Javider/Music/11 Lafayette Gilchrist - Assume The Position.flac
Track gain : -9.88 dB Peak : 0.988586 CRC32 hash (test run) : 069BAE2B CRC32 hash : 069BAE2B CRC32 hash (skip zero) : D45F4FFC AccurateRip v1 signature : AE8ADDEA AccurateRip v2 signature : 1107B415 ->Accurately ripped (v1, confidence 3/3) Statistics Read error : 0 Jitter error (maybe fixed) : 0 Retry sector count : 0 Damaged sector count : 0
No errors occurred
End of status report

Содержание индексной карты (.CUE)

TITLE "Beyond Hamsterdam: Baltimore Tracks From The Wire"CATALOG 0075597995404REM GENRE "Soundtrack"REM DATE "2008"REM DISCNUMBER 1REM TOTALDISCS 1REM DISCID 8B0A190BREM REPLAYGAIN_ALBUM_GAIN -8.82 dBREM REPLAYGAIN_ALBUM_PEAK 0.988831REM COMPILATION TRUEFILE "01 DoMaJe - Way Down In The Hole.flac" WAVE TRACK 01 AUDIO TITLE "Way Down In The Hole" PERFORMER "DoMaJe" ISRC USNO10750875 REM REPLAYGAIN_TRACK_GAIN -7.35 dB REM REPLAYGAIN_TRACK_PEAK 0.988678 INDEX 01 00:00:00FILE "02 Tyree Colion - Projects.flac" WAVE TRACK 02 AUDIO TITLE "Projects" PERFORMER "Tyree Colion" ISRC USNO10750876 REM REPLAYGAIN_TRACK_GAIN -9.24 dB REM REPLAYGAIN_TRACK_PEAK 0.988708 INDEX 01 00:00:00FILE "03 Rod Lee - Dance My Pain Away.flac" WAVE TRACK 03 AUDIO TITLE "Dance My Pain Away" PERFORMER "Rod Lee" ISRC USNO10750877 REM REPLAYGAIN_TRACK_GAIN -10.19 dB REM REPLAYGAIN_TRACK_PEAK 0.977081 INDEX 01 00:00:00FILE "04 DJ Technics - My Life Extra.flac" WAVE TRACK 04 AUDIO TITLE "My Life Extra" PERFORMER "DJ Technics" ISRC USNO10750878 REM REPLAYGAIN_TRACK_GAIN -9.74 dB REM REPLAYGAIN_TRACK_PEAK 0.895447 INDEX 01 00:00:00FILE "05 Ogun Feat. Phathead - What You Know About Baltimore.flac" WAVE TRACK 05 AUDIO TITLE "What You Know About Baltimore" PERFORMER "Ogun Feat. Phathead" ISRC USNO10750879 REM REPLAYGAIN_TRACK_GAIN -8.25 dB REM REPLAYGAIN_TRACK_PEAK 0.927124 INDEX 01 00:00:00FILE "06 Diablo - Jail Flick.flac" WAVE TRACK 06 AUDIO TITLE "Jail Flick" PERFORMER "Diablo" ISRC USNO10750880 REM REPLAYGAIN_TRACK_GAIN -7.83 dB REM REPLAYGAIN_TRACK_PEAK 0.988831 INDEX 01 00:00:00FILE "07 The Get' Em Mamis Feat. L. Cash - When You See Us.flac" WAVE TRACK 07 AUDIO TITLE "When You See Us" PERFORMER "The Get' Em Mamis Feat. L. Cash" ISRC USNO10750881 REM REPLAYGAIN_TRACK_GAIN -7.04 dB REM REPLAYGAIN_TRACK_PEAK 0.988586 INDEX 01 00:00:00FILE "08 Dirty Hartz Feat. Verb - That's Da Sound.flac" WAVE TRACK 08 AUDIO TITLE "That's Da Sound" PERFORMER "Dirty Hartz Feat. Verb" ISRC USNO10750882 REM REPLAYGAIN_TRACK_GAIN -8.14 dB REM REPLAYGAIN_TRACK_PEAK 0.988708 INDEX 01 00:00:00FILE "09 Bossman - Ayo.flac" WAVE TRACK 09 AUDIO TITLE "Ayo" PERFORMER "Bossman" ISRC USNO10750883 REM REPLAYGAIN_TRACK_GAIN -9.06 dB REM REPLAYGAIN_TRACK_PEAK 0.988617 INDEX 01 00:00:00FILE "10 Mullyman - The Life, The Hood, The Streetz.flac" WAVE TRACK 10 AUDIO TITLE "The Life, The Hood, The Streetz" PERFORMER "Mullyman" ISRC USNO10750884 REM REPLAYGAIN_TRACK_GAIN -6.82 dB REM REPLAYGAIN_TRACK_PEAK 0.988617 INDEX 01 00:00:00FILE "11 Lafayette Gilchrist - Assume The Position.flac" WAVE TRACK 11 AUDIO TITLE "Assume The Position" PERFORMER "Lafayette Gilchrist" ISRC USNO10750885 REM REPLAYGAIN_TRACK_GAIN -9.88 dB REM REPLAYGAIN_TRACK_PEAK 0.988586 INDEX 01 00:00:00
[teatrix.ru].t10363.torrent 
Торрент: Зарегистрирован [ 2015-11-01 20:51 ] · 2F099E5C8D0BECE05320E59B58A4E6F53F8383F9

Скачать .torrent

Скачать

19 KB

Статус: проверено
Скачан: 1 раз
Размер: 436 MB
terms.php



Быстрый ответ

Имя:

      
Для отправки сообщений необходимо включить JavaScript
Показать сообщения:    

Текущее время: 05-Дек 11:34

Часовой пояс: UTC + 3


Вы можете начинать темы
Вы можете отвечать на сообщения
Вы не можете редактировать свои сообщения
Вы не можете удалять свои сообщения
Вы не можете голосовать в опросах
Вы не можете прикреплять файлы к сообщениям
Вы можете скачивать файлы