(Soundtrack) Прослушка / The Wire (And All the Pieces Matter) - 2008, FLAC (tracks+.cue), lossless


Статистика раздачи [Обновить пиров]
Размер:  506 MB   |    Зарегистрирован:  1 год 1 месяц   |    Скачан:  0 раз

Полного источника не было: Никогда

 
   
 
 
 

[Цитировать]

Прослушка / The Wire (And All the Pieces Matter)-Жанр: Soundtrack
Год выпуска диска: 2008
Производитель диска: USA
Издатель (лейбл): Nonesuch
Номер по каталогу: 369796-2-Аудиокодек: FLAC (*.flac)
Тип рипа: tracks+.cue
Битрейт аудио: lossless
Продолжительность: 01:19:32
Источник: what.cd / gescom
Наличие сканов в содержимом раздачи: нет

Треклист

01. No Artist – "This America, Man" [0:24]
02. The Blind Boys Of Alabama – Way Down In The Hole [2:54]
03. No Artist – "Why Would Anyone Ever Wanna Leave Baltimore–" [0:21]
04. Michael Franti & Spearhead* – Oh My God [5:05]
05. Rod Lee* – Dance My Pain Away [2:07]
06. DJ Technics – My Life Extra [1:17]
07. No Artist – "The King Stay The King" [0:48]
08. The Neville Brothers – Way Down In The Hole [1:36]
09. No Artist – "We Used To Make Shit In This Country" [0:15]
10. The Nighthawks – Sixteen Tons [3:36]
11. Lafayette Gilchrist – Assume The Position [2:42]
12. No Artist – "What The Fuck Did I Do–" [0:12]
13. Jesse Winchester – Step By Step [2:56]
14. Paul Weller – I Walk On Gilded Splinters [4:58]
15. Solomon Burke – Fast Train [5:37]
16. The Pogues – The Body Of An American [4:45]
17. No Artist – "All The Pieces Matter" [0:08]
18. Stelios Kazantzidis* – Efuge Efuge [3:32]
19. No Artist – "Omar Comin'!" [0:40]
20. DoMaJe – Way Down In The Hole [1:43] Vocals - Avery Bargasse, Cameron Brown, Ivan Ashford, Markel Steele, Tariq Al-Sabir
21. No Artist – "If It's A Lie, Then We Fight On That Lie" [0:22]
22. Tyree Colion – Projects [3:26]
23. No Artist – "Later For That Gangsta Bullshit" [0:38]
24. Bossman – Ayo [3:20]
25. Sharpshooters – Analyze [2:44]
26. No Artist – "Wars End" [0:20]
27. Masta Ace – Unfriendly Game [3:52] Featuring - Stricklin
28. Ogun – What You Know About Baltimore [3:16] Featuring - Phathead
29. Diablo – Jail Flick [3:38]
30. Mullyman – The Life, The Hood, The Streetz [3:47]
31. No Artist – "An Act Of Daily Journalism" [0:07]
32. Steve Earle – I Feel Alright [2:58]
33. Tom Waits – Way Down In The Hole [1:45]
34. No Artist – "You Remember That One Day Summer Past–" [0:41]
35. Blake Leyh – The Fall [1:24]

Лог создания рипа

Exact Audio Copy V0.99 prebeta 5 from 4. May 2009
EAC extraction logfile from 10. March 2010, 17:59
Various / The Wire: And All the Pieces Matter -- Five Years of Music from The Wire
Used drive : ASUS DVD-E616A3T Adapter: 2 ID: 0
Read mode : SecureUtilize accurate stream : YesDefeat audio cache : YesMake use of C2 pointers : No
Read offset correction : 6Overread into Lead-In and Lead-Out : NoFill up missing offset samples with silence : YesDelete leading and trailing silent blocks : NoNull samples used in CRC calculations : YesUsed interface : Native Win32 interface for Win NT & 2000Gap handling : Appended to previous track
Used output format : User Defined EncoderSelected bitrate : 128 kBit/sQuality : HighAdd ID3 tag : NoCommand line compressor : C:\Program Files\Exact Audio Copy\Flac\flac.exeAdditional command line options : -V -8 -T "artist=%a" -T "title=%t" -T "album=%g" -T "date=%y" -T "tracknumber=%n" -T "genre=%m" %s
TOC of the extracted CD
Track | Start | Length | Start sector | End sector --------------------------------------------------------- 1 | 0:00.00 | 0:25.12 | 0 | 1886 2 | 0:25.12 | 2:56.26 | 1887 | 15112 3 | 3:21.38 | 0:24.39 | 15113 | 16951 4 | 3:46.02 | 5:06.04 | 16952 | 39905 5 | 8:52.06 | 2:07.07 | 39906 | 49437 6 | 10:59.13 | 1:17.15 | 49438 | 55227 7 | 12:16.28 | 0:47.57 | 55228 | 58809 8 | 13:04.10 | 1:34.27 | 58810 | 65886 9 | 14:38.37 | 0:14.72 | 65887 | 67008 10 | 14:53.34 | 3:33.33 | 67009 | 83016 11 | 18:26.67 | 3:40.23 | 83017 | 99539 12 | 22:07.15 | 0:13.51 | 99540 | 100565 13 | 22:20.66 | 2:53.59 | 100566 | 113599 14 | 25:14.50 | 4:58.72 | 113600 | 136021 15 | 30:13.47 | 5:38.56 | 136022 | 161427 16 | 35:52.28 | 4:44.32 | 161428 | 182759 17 | 40:36.60 | 0:08.11 | 182760 | 183370 18 | 40:44.71 | 3:33.63 | 183371 | 199408 19 | 44:18.59 | 0:40.48 | 199409 | 202456 20 | 44:59.32 | 1:43.51 | 202457 | 210232 21 | 46:43.08 | 0:21.44 | 210233 | 211851 22 | 47:04.52 | 3:28.21 | 211852 | 227472 23 | 50:32.73 | 0:38.62 | 227473 | 230384 24 | 51:11.60 | 3:19.07 | 230385 | 245316 25 | 54:30.67 | 2:44.50 | 245317 | 257666 26 | 57:15.42 | 0:14.36 | 257667 | 258752 27 | 57:30.03 | 3:52.01 | 258753 | 276153 28 | 61:22.04 | 3:17.02 | 276154 | 290930 29 | 64:39.06 | 3:38.32 | 290931 | 307312 30 | 68:17.38 | 3:49.42 | 307313 | 324529 31 | 72:07.05 | 0:13.74 | 324530 | 325578 32 | 72:21.04 | 2:56.26 | 325579 | 338804 33 | 75:17.30 | 1:44.36 | 338805 | 346640 34 | 77:01.66 | 0:41.02 | 346641 | 349717 35 | 77:42.68 | 1:50.10 | 349718 | 357977
Track 1
Filename U:\EAC Rips\Various Artists - The Wire- And All the Pieces Matter -- Five Years of Music from The Wire - 2008\01 - Dialog - 'This America, Man.'.wav
Pre-gap length 0:00:02.00
Peak level 73.5 % Track quality 100.0 % Test CRC EA77BF8F Copy CRC EA77BF8F Accurately ripped (confidence 5) [6C4E1924] Copy OK
Track 2
Filename U:\EAC Rips\Various Artists - The Wire- And All the Pieces Matter -- Five Years of Music from The Wire - 2008\02 - The Blind Boys of Alabama - Way Down in the Hole.wav
Peak level 100.0 % Track quality 100.0 % Test CRC C1F57DBA Copy CRC C1F57DBA Accurately ripped (confidence 6) [B875A396] Copy OK
Track 3
Filename U:\EAC Rips\Various Artists - The Wire- And All the Pieces Matter -- Five Years of Music from The Wire - 2008\03 - Dialog - 'Why would anyone ever wanna leave Baltimore '.wav
Peak level 78.5 % Track quality 100.0 % Test CRC 005E7CDE Copy CRC 005E7CDE Accurately ripped (confidence 5) [85EDE02F] Copy OK
Track 4
Filename U:\EAC Rips\Various Artists - The Wire- And All the Pieces Matter -- Five Years of Music from The Wire - 2008\04 - Michael Franti & Spearhead - Oh My God.wav
Peak level 99.1 % Track quality 100.0 % Test CRC FE0F8BFC Copy CRC FE0F8BFC Accurately ripped (confidence 6) [A6446103] Copy OK
Track 5
Filename U:\EAC Rips\Various Artists - The Wire- And All the Pieces Matter -- Five Years of Music from The Wire - 2008\05 - Rod Lee - Dance My Pain Away.wav
Peak level 99.1 % Track quality 100.0 % Test CRC EDB649E7 Copy CRC EDB649E7 Accurately ripped (confidence 6) [2C639A39] Copy OK
Track 6
Filename U:\EAC Rips\Various Artists - The Wire- And All the Pieces Matter -- Five Years of Music from The Wire - 2008\06 - DJ Techniques - My Life Extra.wav
Peak level 82.6 % Track quality 100.0 % Test CRC 7F523A5D Copy CRC 7F523A5D Accurately ripped (confidence 6) [9842EAE2] Copy OK
Track 7
Filename U:\EAC Rips\Various Artists - The Wire- And All the Pieces Matter -- Five Years of Music from The Wire - 2008\07 - Dialog - 'The king stay the king.'.wav
Peak level 71.2 % Track quality 100.0 % Test CRC 75234498 Copy CRC 75234498 Accurately ripped (confidence 5) [3B61B443] Copy OK
Track 8
Filename U:\EAC Rips\Various Artists - The Wire- And All the Pieces Matter -- Five Years of Music from The Wire - 2008\08 - The Neville Brothers - Way Down in the Hole.wav
Peak level 99.7 % Track quality 100.0 % Test CRC 310C01CE Copy CRC 310C01CE Accurately ripped (confidence 6) [6D32EA4A] Copy OK
Track 9
Filename U:\EAC Rips\Various Artists - The Wire- And All the Pieces Matter -- Five Years of Music from The Wire - 2008\09 - Dialog - 'We used to make shit in this country.'.wav
Peak level 66.0 % Track quality 100.0 % Test CRC 07A0F936 Copy CRC 07A0F936 Accurately ripped (confidence 5) [DEE7ED10] Copy OK
Track 10
Filename U:\EAC Rips\Various Artists - The Wire- And All the Pieces Matter -- Five Years of Music from The Wire - 2008\10 - The Nighthawks - Sixteen Tons.wav
Peak level 99.5 % Track quality 100.0 % Test CRC 44E1D644 Copy CRC 44E1D644 Accurately ripped (confidence 6) [7EB5ECB7] Copy OK
Track 11
Filename U:\EAC Rips\Various Artists - The Wire- And All the Pieces Matter -- Five Years of Music from The Wire - 2008\11 - Lafayette Gilchrist - Assume the Position.wav
Peak level 100.0 % Track quality 100.0 % Test CRC E76A643E Copy CRC E76A643E Accurately ripped (confidence 6) [236AA1CB] Copy OK
Track 12
Filename U:\EAC Rips\Various Artists - The Wire- And All the Pieces Matter -- Five Years of Music from The Wire - 2008\12 - Dialog - 'What the fuck did I do '.wav
Peak level 45.1 % Track quality 100.0 % Test CRC 59469A27 Copy CRC 59469A27 Accurately ripped (confidence 5) [382052FF] Copy OK
Track 13
Filename U:\EAC Rips\Various Artists - The Wire- And All the Pieces Matter -- Five Years of Music from The Wire - 2008\13 - Jesse Winchester - Step by Step.wav
Peak level 98.0 % Track quality 100.0 % Test CRC D67B6144 Copy CRC D67B6144 Accurately ripped (confidence 6) [D0FCA436] Copy OK
Track 14
Filename U:\EAC Rips\Various Artists - The Wire- And All the Pieces Matter -- Five Years of Music from The Wire - 2008\14 - Paul Weller - I Walk on Gilded Splinters.wav
Peak level 100.0 % Track quality 100.0 % Test CRC C30E717D Copy CRC C30E717D Accurately ripped (confidence 6) [E0B4A6B8] Copy OK
Track 15
Filename U:\EAC Rips\Various Artists - The Wire- And All the Pieces Matter -- Five Years of Music from The Wire - 2008\15 - Solomon Burke - Fast Train.wav
Peak level 95.1 % Track quality 100.0 % Test CRC 1777E6EF Copy CRC 1777E6EF Accurately ripped (confidence 6) [8E097AE0] Copy OK
Track 16
Filename U:\EAC Rips\Various Artists - The Wire- And All the Pieces Matter -- Five Years of Music from The Wire - 2008\16 - The Pogues - The Body of an American.wav
Peak level 95.3 % Track quality 100.0 % Test CRC FCCB8DEB Copy CRC FCCB8DEB Accurately ripped (confidence 6) [5CB86753] Copy OK
Track 17
Filename U:\EAC Rips\Various Artists - The Wire- And All the Pieces Matter -- Five Years of Music from The Wire - 2008\17 - Dialog - 'All the pieces matter.'.wav
Peak level 65.5 % Track quality 100.0 % Test CRC AADDB314 Copy CRC AADDB314 Accurately ripped (confidence 5) [6433BBD6] Copy OK
Track 18
Filename U:\EAC Rips\Various Artists - The Wire- And All the Pieces Matter -- Five Years of Music from The Wire - 2008\18 - Stelios Kazantzidis - Efuge Efuge.wav
Peak level 94.5 % Track quality 99.9 % Test CRC 32D678E0 Copy CRC 32D678E0 Accurately ripped (confidence 7) [06D35DEC] Copy OK
Track 19
Filename U:\EAC Rips\Various Artists - The Wire- And All the Pieces Matter -- Five Years of Music from The Wire - 2008\19 - Dialog - 'Omar comin'!'.wav
Peak level 92.9 % Track quality 100.0 % Test CRC 428D14DE Copy CRC 428D14DE Accurately ripped (confidence 6) [57D1A49A] Copy OK
Track 20
Filename U:\EAC Rips\Various Artists - The Wire- And All the Pieces Matter -- Five Years of Music from The Wire - 2008\20 - Domaje - Way Down in the Hole.wav
Peak level 93.5 % Track quality 100.0 % Test CRC 2D513EA9 Copy CRC 2D513EA9 Accurately ripped (confidence 7) [C1B30A38] Copy OK
Track 21
Filename U:\EAC Rips\Various Artists - The Wire- And All the Pieces Matter -- Five Years of Music from The Wire - 2008\21 - Dialog - 'If it's a lie, then we fight on that lie.'.wav
Peak level 71.8 % Track quality 99.2 % Test CRC 74A060E0 Copy CRC 74A060E0 Accurately ripped (confidence 6) [F4654978] Copy OK
Track 22
Filename U:\EAC Rips\Various Artists - The Wire- And All the Pieces Matter -- Five Years of Music from The Wire - 2008\22 - Tyree Colion - Projects.wav
Peak level 93.2 % Track quality 100.0 % Test CRC D95B265E Copy CRC D95B265E Accurately ripped (confidence 7) [0D533AD2] Copy OK
Track 23
Filename U:\EAC Rips\Various Artists - The Wire- And All the Pieces Matter -- Five Years of Music from The Wire - 2008\23 - Dialog - 'Later for that gangsta bullshit.'.wav
Peak level 54.8 % Track quality 99.7 % Test CRC 7150BAF9 Copy CRC 7150BAF9 Accurately ripped (confidence 6) [272741A3] Copy OK
Track 24
Filename U:\EAC Rips\Various Artists - The Wire- And All the Pieces Matter -- Five Years of Music from The Wire - 2008\24 - Bossman - Ayo.wav
Peak level 90.1 % Track quality 100.0 % Test CRC B7EE08EA Copy CRC B7EE08EA Accurately ripped (confidence 7) [E5363BB0] Copy OK
Track 25
Filename U:\EAC Rips\Various Artists - The Wire- And All the Pieces Matter -- Five Years of Music from The Wire - 2008\25 - Sharpshooters - Analyze.wav
Peak level 98.2 % Track quality 100.0 % Test CRC BD3387A2 Copy CRC BD3387A2 Accurately ripped (confidence 7) [AE2AD225] Copy OK
Track 26
Filename U:\EAC Rips\Various Artists - The Wire- And All the Pieces Matter -- Five Years of Music from The Wire - 2008\26 - Dialog - 'Wars end.'.wav
Peak level 58.2 % Track quality 100.0 % Test CRC A35EFF9E Copy CRC A35EFF9E Accurately ripped (confidence 6) [8AD4EFD8] Copy OK
Track 27
Filename U:\EAC Rips\Various Artists - The Wire- And All the Pieces Matter -- Five Years of Music from The Wire - 2008\27 - Masta Ace feat. Stricklin - Unfriendly Game.wav
Peak level 93.8 % Track quality 100.0 % Test CRC C8AC213F Copy CRC C8AC213F Accurately ripped (confidence 7) [5144CA0F] Copy OK
Track 28
Filename U:\EAC Rips\Various Artists - The Wire- And All the Pieces Matter -- Five Years of Music from The Wire - 2008\28 - Ogum feat. Phathead - What You Know About Baltimore.wav
Peak level 98.7 % Track quality 100.0 % Test CRC FEEBDA32 Copy CRC FEEBDA32 Accurately ripped (confidence 7) [1E7B70C6] Copy OK
Track 29
Filename U:\EAC Rips\Various Artists - The Wire- And All the Pieces Matter -- Five Years of Music from The Wire - 2008\29 - Diablo - Jail Flick.wav
Peak level 99.8 % Track quality 100.0 % Test CRC 6EFC9A0F Copy CRC 6EFC9A0F Accurately ripped (confidence 7) [DBAB4706] Copy OK
Track 30
Filename U:\EAC Rips\Various Artists - The Wire- And All the Pieces Matter -- Five Years of Music from The Wire - 2008\30 - Mullyman - The Life, the Hood, the Streetz.wav
Peak level 99.1 % Track quality 100.0 % Test CRC DF3BA7D1 Copy CRC DF3BA7D1 Accurately ripped (confidence 7) [E88670A1] Copy OK
Track 31
Filename U:\EAC Rips\Various Artists - The Wire- And All the Pieces Matter -- Five Years of Music from The Wire - 2008\31 - Dialog - 'An act of daily journalism.'.wav
Peak level 91.4 % Track quality 100.0 % Test CRC 9CD881BC Copy CRC 9CD881BC Accurately ripped (confidence 6) [0F6455AC] Copy OK
Track 32
Filename U:\EAC Rips\Various Artists - The Wire- And All the Pieces Matter -- Five Years of Music from The Wire - 2008\32 - Steve Earle - I Feel Alright.wav
Peak level 97.2 % Track quality 100.0 % Test CRC 9FE2AA22 Copy CRC 9FE2AA22 Accurately ripped (confidence 7) [6039A101] Copy OK
Track 33
Filename U:\EAC Rips\Various Artists - The Wire- And All the Pieces Matter -- Five Years of Music from The Wire - 2008\33 - Tom Waits - Way Down in the Hole.wav
Peak level 99.2 % Track quality 100.0 % Test CRC 32327033 Copy CRC 32327033 Accurately ripped (confidence 7) [1CE8D2B6] Copy OK
Track 34
Filename U:\EAC Rips\Various Artists - The Wire- And All the Pieces Matter -- Five Years of Music from The Wire - 2008\34 - Dialog - 'You remember that one day summer past '.wav
Peak level 86.0 % Track quality 100.0 % Test CRC C08CD0CB Copy CRC C08CD0CB Accurately ripped (confidence 6) [2A4EC5A8] Copy OK
Track 35
Filename U:\EAC Rips\Various Artists - The Wire- And All the Pieces Matter -- Five Years of Music from The Wire - 2008\35 - Blake Leyh - The Fall.wav
Peak level 93.7 % Track quality 100.0 % Test CRC B78C6F41 Copy CRC B78C6F41 Accurately ripped (confidence 7) [F857F302] Copy OK
All tracks accurately ripped
No errors occurred
End of status report

Содержание индексной карты (.CUE)

REM GENRE SoundtrackREM DATE 2008REM DISCID 0212A523REM COMMENT "ExactAudioCopy v0.99pb5"FILE "01 - Dialog - 'This America, Man.'.wav" WAVE TRACK 01 AUDIO INDEX 01 00:00:00FILE "02 - The Blind Boys of Alabama - Way Down in the Hole.wav" WAVE TRACK 02 AUDIO INDEX 01 00:00:00FILE "03 - Dialog - 'Why would anyone ever wanna leave Baltimore '.wav" WAVE TRACK 03 AUDIO INDEX 01 00:00:00FILE "04 - Michael Franti & Spearhead - Oh My God.wav" WAVE TRACK 04 AUDIO INDEX 01 00:00:00FILE "05 - Rod Lee - Dance My Pain Away.wav" WAVE TRACK 05 AUDIO INDEX 01 00:00:00FILE "06 - DJ Techniques - My Life Extra.wav" WAVE TRACK 06 AUDIO INDEX 01 00:00:00FILE "07 - Dialog - 'The king stay the king.'.wav" WAVE TRACK 07 AUDIO INDEX 01 00:00:00FILE "08 - The Neville Brothers - Way Down in the Hole.wav" WAVE TRACK 08 AUDIO INDEX 01 00:00:00FILE "09 - Dialog - 'We used to make shit in this country.'.wav" WAVE TRACK 09 AUDIO INDEX 01 00:00:00FILE "10 - The Nighthawks - Sixteen Tons.wav" WAVE TRACK 10 AUDIO INDEX 01 00:00:00FILE "11 - Lafayette Gilchrist - Assume the Position.wav" WAVE TRACK 11 AUDIO INDEX 01 00:00:00FILE "12 - Dialog - 'What the fuck did I do '.wav" WAVE TRACK 12 AUDIO INDEX 01 00:00:00FILE "13 - Jesse Winchester - Step by Step.wav" WAVE TRACK 13 AUDIO INDEX 01 00:00:00FILE "14 - Paul Weller - I Walk on Gilded Splinters.wav" WAVE TRACK 14 AUDIO INDEX 01 00:00:00FILE "15 - Solomon Burke - Fast Train.wav" WAVE TRACK 15 AUDIO INDEX 01 00:00:00FILE "16 - The Pogues - The Body of an American.wav" WAVE TRACK 16 AUDIO INDEX 01 00:00:00FILE "17 - Dialog - 'All the pieces matter.'.wav" WAVE TRACK 17 AUDIO INDEX 01 00:00:00FILE "18 - Stelios Kazantzidis - Efuge Efuge.wav" WAVE TRACK 18 AUDIO INDEX 01 00:00:00FILE "19 - Dialog - 'Omar comin'!'.wav" WAVE TRACK 19 AUDIO INDEX 01 00:00:00FILE "20 - Domaje - Way Down in the Hole.wav" WAVE TRACK 20 AUDIO INDEX 01 00:00:00FILE "21 - Dialog - 'If it's a lie, then we fight on that lie.'.wav" WAVE TRACK 21 AUDIO INDEX 01 00:00:00FILE "22 - Tyree Colion - Projects.wav" WAVE TRACK 22 AUDIO INDEX 01 00:00:00FILE "23 - Dialog - 'Later for that gangsta bullshit.'.wav" WAVE TRACK 23 AUDIO INDEX 01 00:00:00FILE "24 - Bossman - Ayo.wav" WAVE TRACK 24 AUDIO INDEX 01 00:00:00FILE "25 - Sharpshooters - Analyze.wav" WAVE TRACK 25 AUDIO INDEX 01 00:00:00FILE "26 - Dialog - 'Wars end.'.wav" WAVE TRACK 26 AUDIO INDEX 01 00:00:00FILE "27 - Masta Ace feat. Stricklin - Unfriendly Game.wav" WAVE TRACK 27 AUDIO INDEX 01 00:00:00FILE "28 - Ogum feat. Phathead - What You Know About Baltimore.wav" WAVE TRACK 28 AUDIO INDEX 01 00:00:00FILE "29 - Diablo - Jail Flick.wav" WAVE TRACK 29 AUDIO INDEX 01 00:00:00FILE "30 - Mullyman - The Life, the Hood, the Streetz.wav" WAVE TRACK 30 AUDIO INDEX 01 00:00:00FILE "31 - Dialog - 'An act of daily journalism.'.wav" WAVE TRACK 31 AUDIO INDEX 01 00:00:00FILE "32 - Steve Earle - I Feel Alright.wav" WAVE TRACK 32 AUDIO INDEX 01 00:00:00FILE "33 - Tom Waits - Way Down in the Hole.wav" WAVE TRACK 33 AUDIO INDEX 01 00:00:00FILE "34 - Dialog - 'You remember that one day summer past '.wav" WAVE TRACK 34 AUDIO INDEX 01 00:00:00FILE "35 - Blake Leyh - The Fall.wav" WAVE TRACK 35 AUDIO INDEX 01 00:00:00
[teatrix.ru].t10364.torrent 
Торрент: Зарегистрирован [ 2015-11-01 20:51 ] · CA5FD7694D1495285AA5484D1C33C82AC732A3E0

Скачать .torrent

Скачать

23 KB

Статус: проверено
Скачан: 0 раз
Размер: 506 MB
terms.php



Быстрый ответ

Имя:

      
Для отправки сообщений необходимо включить JavaScript
Показать сообщения:    

Текущее время: 03-Дек 16:41

Часовой пояс: UTC + 3


Вы можете начинать темы
Вы можете отвечать на сообщения
Вы не можете редактировать свои сообщения
Вы не можете удалять свои сообщения
Вы не можете голосовать в опросах
Вы не можете прикреплять файлы к сообщениям
Вы можете скачивать файлы