(Score) Рейд 2 / The Raid 2 (by Joseph Trapanese, Aria Prayogi & Fajar Yuskemal) - 2014, FLAC (tracks+.cue), lossless


Статистика раздачи [Обновить пиров]
Размер:  332 MB   |    Зарегистрирован:  1 год 1 месяц   |    Скачан:  0 раз

Полного источника не было: Никогда

 
   
 
 
 

[Цитировать]

Рейд 2 / The Raid 2
Жанр: Score
Композитор: Joseph Trapanese, Aria Prayogi & Fajar Yuskemal
Год выпуска диска: 2014
Страна-производитель диска: USA
Аудиокодек: FLAC (*.flac)
Тип рипа: tracks
Битрейт аудио: lossless
Продолжительность: 01:06:41
Источник: what.cd
Наличие сканов в содержимом раздачи: нет
Треклист:
01. Alarm (1:14)
02. The Equation (2:17)
03. Toilet Nightmare (1:54)
04. Suck It Up (2:03)
05. Prison Riot (4:32)
06. Ball Inspection (1:53)
07. Phone Call (2:02)
08. Porn Den (3:04)
09. Prakoso (2:01)
10. Undercover (5:13)
11. Club Battle (2:09)
12. Reog (7:06)
13. Punch It (1:37)
14. SIM Card (0:54)
15. Betrayal (1:00)
16. The Assassin (0:56)
17. Pursuit (1:57)
18. Motor Chase (3:24)
19. Wasteland (2:35)
20. Warehouse Stomping (2:03)
21. Uco Dining (1:55)
22. Hammerballs (2:45)
23. Showdown (6:52)
24. Arti Dewi - Hush (5:06)

Лог создания рипа

Exact Audio Copy V1.0 beta 3 from 29. August 2011
EAC extraction logfile from 8. May 2014, 15:18
Joseph Trapanese, Aria Prayogi & Fajar Yuskemal / The Raid 2
Used drive : HL-DT-STBD-RE BH10LS38 Adapter: 2 ID: 0
Read mode : SecureUtilize accurate stream : YesDefeat audio cache : YesMake use of C2 pointers : No
Read offset correction : 667Overread into Lead-In and Lead-Out : NoFill up missing offset samples with silence : YesDelete leading and trailing silent blocks : NoNull samples used in CRC calculations : YesUsed interface : Native Win32 interface for Win NT & 2000Gap handling : Appended to previous track
Used output format : User Defined EncoderSelected bitrate : 768 kBit/sQuality : HighAdd ID3 tag : NoCommand line compressor : C:\Program Files (x86)\Exact Audio Copy\FLAC\FLAC.EXEAdditional command line options : -8 -V -T "ARTIST=%artist%" -T "TITLE=%title%" -T "ALBUM=%albumtitle%" -T "DATE=%year%" -T "TRACKNUMBER=%tracknr%" -T "GENRE=%genre%" -T "PERFORMER=%albuminterpret%" -T "COMPOSER=%composer%" %haslyrics%--tag-from-file=LYRICS="%lyricsfile%"%haslyrics% -T "ALBUMARTIST=%albumartist%" -T "ALBUM ARTIST=%albumartist%" -T "DISCNUMBER=%cdnumber%" -T "TOTALDISCS=%totalcds%" -T "TOTALTRACKS=%numtracks%" -T "COMMENT=%comment%" %source% -o %dest%
TOC of the extracted CD
Track | Start | Length | Start sector | End sector --------------------------------------------------------- 1 | 0:00.00 | 1:14.09 | 0 | 5558 2 | 1:14.09 | 2:17.24 | 5559 | 15857 3 | 3:31.33 | 1:54.06 | 15858 | 24413 4 | 5:25.39 | 2:03.03 | 24414 | 33641 5 | 7:28.42 | 4:32.23 | 33642 | 54064 6 | 12:00.65 | 1:53.14 | 54065 | 62553 7 | 13:54.04 | 2:02.39 | 62554 | 71742 8 | 15:56.43 | 3:04.66 | 71743 | 85608 9 | 19:01.34 | 2:01.59 | 85609 | 94742 10 | 21:03.18 | 5:13.14 | 94743 | 118231 11 | 26:16.32 | 2:09.63 | 118232 | 127969 12 | 28:26.20 | 7:06.12 | 127970 | 159931 13 | 35:32.32 | 1:37.11 | 159932 | 167217 14 | 37:09.43 | 0:54.16 | 167218 | 171283 15 | 38:03.59 | 1:00.27 | 171284 | 175810 16 | 39:04.11 | 0:56.36 | 175811 | 180046 17 | 40:00.47 | 1:57.39 | 180047 | 188860 18 | 41:58.11 | 3:24.46 | 188861 | 204206 19 | 45:22.57 | 2:35.17 | 204207 | 215848 20 | 47:57.74 | 2:03.11 | 215849 | 225084 21 | 50:01.10 | 1:55.58 | 225085 | 233767 22 | 51:56.68 | 2:45.01 | 233768 | 246143 23 | 54:41.69 | 6:52.06 | 246144 | 277049 24 | 61:34.00 | 5:06.14 | 277050 | 300013
Track 1
Filename C:\Rips\01 - Joseph Trapanese, Aria Prayogi & Fajar Yuskemal - Alarm.wav
Pre-gap length 0:00:02.00
Peak level 100.0 % Extraction speed 0.8 X Track quality 100.0 % Test CRC 6F4606FB Copy CRC 6F4606FB Track not present in AccurateRip database Copy OK
Track 2
Filename C:\Rips\02 - Joseph Trapanese, Aria Prayogi & Fajar Yuskemal - The Equation.wav
Peak level 100.0 % Extraction speed 1.0 X Track quality 100.0 % Test CRC 25BF64AD Copy CRC 25BF64AD Track not present in AccurateRip database Copy OK
Track 3
Filename C:\Rips\03 - Joseph Trapanese, Aria Prayogi & Fajar Yuskemal - Toilet Nightmare.wav
Peak level 100.0 % Extraction speed 1.0 X Track quality 100.0 % Test CRC 76CDBFE9 Copy CRC 76CDBFE9 Track not present in AccurateRip database Copy OK
Track 4
Filename C:\Rips\04 - Joseph Trapanese, Aria Prayogi & Fajar Yuskemal - Suck It Up.wav
Peak level 100.0 % Extraction speed 1.1 X Track quality 100.0 % Test CRC 9135A089 Copy CRC 9135A089 Track not present in AccurateRip database Copy OK
Track 5
Filename C:\Rips\05 - Joseph Trapanese, Aria Prayogi & Fajar Yuskemal - Prison Riot.wav
Peak level 100.0 % Extraction speed 1.4 X Track quality 100.0 % Test CRC C1D89790 Copy CRC C1D89790 Track not present in AccurateRip database Copy OK
Track 6
Filename C:\Rips\06 - Joseph Trapanese, Aria Prayogi & Fajar Yuskemal - Ball Inspection.wav
Peak level 100.0 % Extraction speed 1.0 X Track quality 99.9 % Test CRC 50730E54 Copy CRC 50730E54 Track not present in AccurateRip database Copy OK
Track 7
Filename C:\Rips\07 - Joseph Trapanese, Aria Prayogi & Fajar Yuskemal - Phone Call.wav
Peak level 71.9 % Extraction speed 1.0 X Track quality 99.9 % Test CRC AEAFD1DA Copy CRC AEAFD1DA Track not present in AccurateRip database Copy OK
Track 8
Filename C:\Rips\08 - Joseph Trapanese, Aria Prayogi & Fajar Yuskemal - Porn Den.wav
Peak level 100.0 % Extraction speed 1.5 X Track quality 100.0 % Test CRC 59092FCD Copy CRC 59092FCD Track not present in AccurateRip database Copy OK
Track 9
Filename C:\Rips\09 - Joseph Trapanese, Aria Prayogi & Fajar Yuskemal - Prakoso.wav
Peak level 100.0 % Extraction speed 1.4 X Track quality 100.0 % Test CRC 881428DD Copy CRC 881428DD Track not present in AccurateRip database Copy OK
Track 10
Filename C:\Rips\10 - Joseph Trapanese, Aria Prayogi & Fajar Yuskemal - Undercover.wav
Peak level 100.0 % Extraction speed 1.7 X Track quality 100.0 % Test CRC EE251964 Copy CRC EE251964 Track not present in AccurateRip database Copy OK
Track 11
Filename C:\Rips\11 - Joseph Trapanese, Aria Prayogi & Fajar Yuskemal - Club Battle.wav
Peak level 100.0 % Extraction speed 1.5 X Track quality 100.0 % Test CRC 2961B586 Copy CRC 2961B586 Track not present in AccurateRip database Copy OK
Track 12
Filename C:\Rips\12 - Joseph Trapanese, Aria Prayogi & Fajar Yuskemal - Reog.wav
Peak level 100.0 % Extraction speed 1.9 X Track quality 100.0 % Test CRC DE836F90 Copy CRC DE836F90 Track not present in AccurateRip database Copy OK
Track 13
Filename C:\Rips\13 - Joseph Trapanese, Aria Prayogi & Fajar Yuskemal - Punch It.wav
Peak level 100.0 % Extraction speed 1.6 X Track quality 100.0 % Test CRC C9004099 Copy CRC C9004099 Track not present in AccurateRip database Copy OK
Track 14
Filename C:\Rips\14 - Joseph Trapanese, Aria Prayogi & Fajar Yuskemal - SIM Card.wav
Peak level 100.0 % Extraction speed 1.3 X Track quality 100.0 % Test CRC 0A2DA86C Copy CRC 0A2DA86C Track not present in AccurateRip database Copy OK
Track 15
Filename C:\Rips\15 - Joseph Trapanese, Aria Prayogi & Fajar Yuskemal - Betrayal.wav
Peak level 100.0 % Extraction speed 1.4 X Track quality 100.0 % Test CRC 3DEC66AB Copy CRC 3DEC66AB Track not present in AccurateRip database Copy OK
Track 16
Filename C:\Rips\16 - Joseph Trapanese, Aria Prayogi & Fajar Yuskemal - The Assassin.wav
Peak level 100.0 % Extraction speed 1.4 X Track quality 100.0 % Test CRC F28C518B Copy CRC F28C518B Track not present in AccurateRip database Copy OK
Track 17
Filename C:\Rips\17 - Joseph Trapanese, Aria Prayogi & Fajar Yuskemal - Pursuit.wav
Peak level 100.0 % Extraction speed 1.4 X Track quality 99.9 % Test CRC 7E22CD2F Copy CRC 7E22CD2F Track not present in AccurateRip database Copy OK
Track 18
Filename C:\Rips\18 - Joseph Trapanese, Aria Prayogi & Fajar Yuskemal - Motor Chase.wav
Peak level 100.0 % Extraction speed 2.0 X Track quality 100.0 % Test CRC BD1A95E4 Copy CRC BD1A95E4 Track not present in AccurateRip database Copy OK
Track 19
Filename C:\Rips\19 - Joseph Trapanese, Aria Prayogi & Fajar Yuskemal - Wasteland.wav
Peak level 100.0 % Extraction speed 1.9 X Track quality 100.0 % Test CRC D3214198 Copy CRC D3214198 Track not present in AccurateRip database Copy OK
Track 20
Filename C:\Rips\20 - Joseph Trapanese, Aria Prayogi & Fajar Yuskemal - Warehouse Stomping.wav
Peak level 100.0 % Extraction speed 1.5 X Track quality 99.9 % Test CRC 06A237E3 Copy CRC 06A237E3 Track not present in AccurateRip database Copy OK
Track 21
Filename C:\Rips\21 - Joseph Trapanese, Aria Prayogi & Fajar Yuskemal - Uco Dining.wav
Peak level 99.3 % Extraction speed 1.9 X Track quality 100.0 % Test CRC B7CD5ABD Copy CRC B7CD5ABD Track not present in AccurateRip database Copy OK
Track 22
Filename C:\Rips\22 - Joseph Trapanese, Aria Prayogi & Fajar Yuskemal - Hammerballs.wav
Peak level 100.0 % Extraction speed 1.8 X Track quality 99.9 % Test CRC 85051BF5 Copy CRC 85051BF5 Track not present in AccurateRip database Copy OK
Track 23
Filename C:\Rips\23 - Joseph Trapanese, Aria Prayogi & Fajar Yuskemal - Showdown.wav
Peak level 100.0 % Extraction speed 2.4 X Track quality 100.0 % Test CRC 8EBAE196 Copy CRC 8EBAE196 Track not present in AccurateRip database Copy OK
Track 24
Filename C:\Rips\24 - Arti Dewi - Hush.wav
Peak level 100.0 % Extraction speed 2.4 X Track quality 100.0 % Test CRC CE664A71 Copy CRC CE664A71 Track not present in AccurateRip database Copy OK
None of the tracks are present in the AccurateRip database
No errors occurred
End of status report
==== Log checksum 225520FFFA65F93EC80D57C0C0B936E5CE26A9AFC9C8491241D6171F33B8258A ====

Содержание индексной карты (.CUE)

REM GENRE SoundtrackREM DATE 2014REM DISCID 400FA018REM COMMENT "ExactAudioCopy v1.0b3"FILE "01 - Joseph Trapanese, Aria Prayogi & Fajar Yuskemal - Alarm.wav" WAVE TRACK 01 AUDIO FLAGS DCP INDEX 01 00:00:00FILE "02 - Joseph Trapanese, Aria Prayogi & Fajar Yuskemal - The Equation.wav" WAVE TRACK 02 AUDIO FLAGS DCP INDEX 01 00:00:00FILE "03 - Joseph Trapanese, Aria Prayogi & Fajar Yuskemal - Toilet Nightmare.wav" WAVE TRACK 03 AUDIO FLAGS DCP INDEX 01 00:00:00FILE "04 - Joseph Trapanese, Aria Prayogi & Fajar Yuskemal - Suck It Up.wav" WAVE TRACK 04 AUDIO FLAGS DCP INDEX 01 00:00:00FILE "05 - Joseph Trapanese, Aria Prayogi & Fajar Yuskemal - Prison Riot.wav" WAVE TRACK 05 AUDIO FLAGS DCP INDEX 01 00:00:00FILE "06 - Joseph Trapanese, Aria Prayogi & Fajar Yuskemal - Ball Inspection.wav" WAVE TRACK 06 AUDIO FLAGS DCP INDEX 01 00:00:00FILE "07 - Joseph Trapanese, Aria Prayogi & Fajar Yuskemal - Phone Call.wav" WAVE TRACK 07 AUDIO FLAGS DCP INDEX 01 00:00:00FILE "08 - Joseph Trapanese, Aria Prayogi & Fajar Yuskemal - Porn Den.wav" WAVE TRACK 08 AUDIO FLAGS DCP INDEX 01 00:00:00FILE "09 - Joseph Trapanese, Aria Prayogi & Fajar Yuskemal - Prakoso.wav" WAVE TRACK 09 AUDIO FLAGS DCP INDEX 01 00:00:00FILE "10 - Joseph Trapanese, Aria Prayogi & Fajar Yuskemal - Undercover.wav" WAVE TRACK 10 AUDIO FLAGS DCP INDEX 01 00:00:00FILE "11 - Joseph Trapanese, Aria Prayogi & Fajar Yuskemal - Club Battle.wav" WAVE TRACK 11 AUDIO FLAGS DCP INDEX 01 00:00:00FILE "12 - Joseph Trapanese, Aria Prayogi & Fajar Yuskemal - Reog.wav" WAVE TRACK 12 AUDIO FLAGS DCP INDEX 01 00:00:00FILE "13 - Joseph Trapanese, Aria Prayogi & Fajar Yuskemal - Punch It.wav" WAVE TRACK 13 AUDIO FLAGS DCP INDEX 01 00:00:00FILE "14 - Joseph Trapanese, Aria Prayogi & Fajar Yuskemal - SIM Card.wav" WAVE TRACK 14 AUDIO FLAGS DCP INDEX 01 00:00:00FILE "15 - Joseph Trapanese, Aria Prayogi & Fajar Yuskemal - Betrayal.wav" WAVE TRACK 15 AUDIO FLAGS DCP INDEX 01 00:00:00FILE "16 - Joseph Trapanese, Aria Prayogi & Fajar Yuskemal - The Assassin.wav" WAVE TRACK 16 AUDIO FLAGS DCP INDEX 01 00:00:00FILE "17 - Joseph Trapanese, Aria Prayogi & Fajar Yuskemal - Pursuit.wav" WAVE TRACK 17 AUDIO FLAGS DCP INDEX 01 00:00:00FILE "18 - Joseph Trapanese, Aria Prayogi & Fajar Yuskemal - Motor Chase.wav" WAVE TRACK 18 AUDIO FLAGS DCP INDEX 01 00:00:00FILE "19 - Joseph Trapanese, Aria Prayogi & Fajar Yuskemal - Wasteland.wav" WAVE TRACK 19 AUDIO FLAGS DCP INDEX 01 00:00:00FILE "20 - Joseph Trapanese, Aria Prayogi & Fajar Yuskemal - Warehouse Stomping.wav" WAVE TRACK 20 AUDIO FLAGS DCP INDEX 01 00:00:00FILE "21 - Joseph Trapanese, Aria Prayogi & Fajar Yuskemal - Uco Dining.wav" WAVE TRACK 21 AUDIO FLAGS DCP INDEX 01 00:00:00FILE "22 - Joseph Trapanese, Aria Prayogi & Fajar Yuskemal - Hammerballs.wav" WAVE TRACK 22 AUDIO FLAGS DCP INDEX 01 00:00:00FILE "23 - Joseph Trapanese, Aria Prayogi & Fajar Yuskemal - Showdown.wav" WAVE TRACK 23 AUDIO FLAGS DCP INDEX 01 00:00:00FILE "24 - Arti Dewi - Hush.wav" WAVE TRACK 24 AUDIO FLAGS DCP INDEX 01 00:00:00
[teatrix.ru].t10365.torrent 
Торрент: Зарегистрирован [ 2015-11-01 20:51 ] · F0EAB7091D34075DC60F52950A67E43906080B82

Скачать .torrent

Скачать

16 KB

Статус: проверено
Скачан: 0 раз
Размер: 332 MB
terms.php



Быстрый ответ

Имя:

      
Для отправки сообщений необходимо включить JavaScript
Показать сообщения:    

Текущее время: 08-Дек 09:04

Часовой пояс: UTC + 3


Вы можете начинать темы
Вы можете отвечать на сообщения
Вы не можете редактировать свои сообщения
Вы не можете удалять свои сообщения
Вы не можете голосовать в опросах
Вы не можете прикреплять файлы к сообщениям
Вы можете скачивать файлы