(Score) Люси / Lucy (by Eric Serra) - 2014, FLAC (tracks+.cue), lossless


Статистика раздачи [Обновить пиров]
Размер:  371 MB   |    Зарегистрирован:  1 год 1 месяц   |    Скачан:  0 раз
Сидов:  3  [  0 KB/s  ]   Подробная статистика пиров
 
   
 
 

[Цитировать]

Люси / Lucy-Жанр: Score
Композитор: Eric Serra
Год выпуска диска: 2014
Производитель диска: EDC, Germany
Издатель (лейбл): EuropaCorp, France
Номер по каталогу: 849.A020.020-Аудиокодек: FLAC (*.flac)
Тип рипа: tracks+.cue
Битрейт аудио: lossless
Продолжительность: 01:02:42
Источник: собственный рип
Наличие сканов в содержимом раздачи: да, 600dpi-Ссылки: Кинопоиск | IMDB | Wikipedia | SoundtrackCollector

Треклист

01. Sister Rust [0:03:26.22] Performed by Damon Albarn
02. First Cells [0:01:00.45]
03. Mr. Wang's Bloody Suite, Part 1 to 4 [0:04:37.38]
04. Mr. Wang's Bloody Suite, Part 5 to 7 [0:02:56.45]
05. All We Have Done with It [0:01:29.48]
06. Choose to Reproduce [0:00:38.69]
07. Inner Fireworks [0:02:32.34]
08. Lucy is Going Out, Part 1 [0:01:35.13]
09. Lucy is Going Out, Part 2 [0:01:37.24]
10. Tingjhou Hospital [0:01:56.33]
11. I Feel Everything [0:02:09.18]
12. Requiem in D Minor, K. 626 [0:05:19.15] Composed by Wolfgang Amadeus Mozart, performed by by Patrizia Pace, Waltraud Meier,
Frank Lopardo, James Morris, Swedish Radio Choir, Stockholm Chamber Choir, Berliner Philarmoniker, Riccardo Muti

13. Thank You for Sharing [0:01:31.64]
14. Taipei Airport [0:00:39.24]
15. Lucy and the Sniffer Dog [0:01:04.28]
16. Disintegration [0:02:43.27]
17. Green Beams [0:01:34.02]
18. Single Barrel (Sling the Decks) [0:04:24.14] Performed by The Crystal Method
19. Pleasant Drive in Paris [0:00:35.39]
20. Sixty Percent Mess [0:00:38.32]
21. Crossing the Goon Sea [0:01:50.61]
22. GPS Control [0:00:49.08]
23. Goons and Guards [0:00:48.34]
24. Time Is Unity [0:01:38.36]
25. Blue Injection [0:02:42.66]
26. Melt into Matter [0:03:30.54]
27. Flicking Through Time [0:02:00.04]
28. Lucy and Lucy [0:00:31.74]
29. Moonbirth [0:00:45.36]
30. Origin of the World [0:02:26.10]
31. Where Is Lucy ? [0:00:49.34]
32. I Am Everywhere [0:02:20.73]

Лог создания рипа

Exact Audio Copy V1.0 beta 3 from 29. August 2011
EAC extraction logfile from 7. November 2014, 21:13
Eric Serra / Lucy
Used drive : PLEXTOR CD-R PX-230A Adapter: 1 ID: 0
Read mode : SecureUtilize accurate stream : YesDefeat audio cache : YesMake use of C2 pointers : No
Read offset correction : 738Overread into Lead-In and Lead-Out : NoFill up missing offset samples with silence : YesDelete leading and trailing silent blocks : NoNull samples used in CRC calculations : YesUsed interface : Native Win32 interface for Win NT & 2000Gap handling : Appended to previous track
Used output format : User Defined EncoderSelected bitrate : 896 kBit/sQuality : HighAdd ID3 tag : NoCommand line compressor : C:\Program Files\Exact Audio Copy\FLAC\FLAC.EXEAdditional command line options : -6 -V -T "ARTIST=%artist%" -T "TITLE=%title%" -T "ALBUM=%albumtitle%" -T "DATE=%year%"-T "TRACKNUMBER=%tracknr%" -T "GENRE=%genre%" -T "COMMENT=%comment%" -T "ALBUMARTIST=%albuminterpret%" -T "COMPOSER=%composer%"-T "DISCNUMBER=%cdnumber%" -T "TOTALDISCS=%totalcds%" -T "TOTALTRACKS=%numtracks%" %source% -o %dest%
TOC of the extracted CD
Track | Start | Length | Start sector | End sector --------------------------------------------------------- 1 | 0:00.00 | 3:26.22 | 0 | 15471 2 | 3:26.22 | 1:00.45 | 15472 | 20016 3 | 4:26.67 | 4:37.38 | 20017 | 40829 4 | 9:04.30 | 2:56.45 | 40830 | 54074 5 | 12:01.00 | 1:29.48 | 54075 | 60797 6 | 13:30.48 | 0:38.69 | 60798 | 63716 7 | 14:09.42 | 2:32.34 | 63717 | 75150 8 | 16:42.01 | 1:35.13 | 75151 | 82288 9 | 18:17.14 | 1:37.24 | 82289 | 89587 10 | 19:54.38 | 1:56.33 | 89588 | 98320 11 | 21:50.71 | 2:09.18 | 98321 | 108013 12 | 24:00.14 | 5:19.15 | 108014 | 131953 13 | 29:19.29 | 1:31.64 | 131954 | 138842 14 | 30:51.18 | 0:39.24 | 138843 | 141791 15 | 31:30.42 | 1:04.28 | 141792 | 146619 16 | 32:34.70 | 2:43.27 | 146620 | 158871 17 | 35:18.22 | 1:34.02 | 158872 | 165923 18 | 36:52.24 | 4:24.14 | 165924 | 185737 19 | 41:16.38 | 0:35.39 | 185738 | 188401 20 | 41:52.02 | 0:38.32 | 188402 | 191283 21 | 42:30.34 | 1:50.61 | 191284 | 199594 22 | 44:21.20 | 0:49.08 | 199595 | 203277 23 | 45:10.28 | 0:48.34 | 203278 | 206911 24 | 45:58.62 | 1:38.36 | 206912 | 214297 25 | 47:37.23 | 2:42.66 | 214298 | 226513 26 | 50:20.14 | 3:30.54 | 226514 | 242317 27 | 53:50.68 | 2:00.04 | 242318 | 251321 28 | 55:50.72 | 0:31.74 | 251322 | 253720 29 | 56:22.71 | 0:45.36 | 253721 | 257131 30 | 57:08.32 | 2:26.10 | 257132 | 268091 31 | 59:34.42 | 0:49.34 | 268092 | 271800 32 | 60:24.01 | 2:20.73 | 271801 | 282373
Track 1
Filename C:\Music\01 - Damon Albarn - Sister Rust.wav
Pre-gap length 0:00:02.00
Peak level 83.1 % Extraction speed 3.7 X Track quality 100.0 % Test CRC 33116093 Copy CRC 33116093 Accurately ripped (confidence 1) [A268F256] (AR v2) Copy OK
Track 2
Filename C:\Music\02 - Eric Serra - First Cells.wav
Peak level 98.7 % Extraction speed 4.0 X Track quality 100.0 % Test CRC 46A35833 Copy CRC 46A35833 Accurately ripped (confidence 1) [9338E33B] (AR v2) Copy OK
Track 3
Filename C:\Music\03 - Eric Serra - Mr. Wang's Bloody Suite, Part 1 to 4.wav
Peak level 98.7 % Extraction speed 4.4 X Track quality 100.0 % Test CRC 839366FE Copy CRC 839366FE Accurately ripped (confidence 1) [72F0BB5E] (AR v2) Copy OK
Track 4
Filename C:\Music\04 - Eric Serra - Mr. Wang's Bloody Suite, Part 5 to 7.wav
Peak level 98.7 % Extraction speed 4.6 X Track quality 99.9 % Test CRC A057740E Copy CRC A057740E Accurately ripped (confidence 1) [BC62EE26] (AR v2) Copy OK
Track 5
Filename C:\Music\05 - Eric Serra - All We Have Done with It.wav
Peak level 98.7 % Extraction speed 3.7 X Track quality 99.8 % Test CRC FFD495C8 Copy CRC FFD495C8 Accurately ripped (confidence 1) [0B71229F] (AR v2) Copy OK
Track 6
Filename C:\Music\06 - Eric Serra - Choose to Reproduce.wav
Peak level 46.7 % Extraction speed 3.7 X Track quality 100.0 % Test CRC 913D9DFB Copy CRC 913D9DFB Accurately ripped (confidence 1) [74017711] (AR v2) Copy OK
Track 7
Filename C:\Music\07 - Eric Serra - Inner Fireworks.wav
Peak level 98.7 % Extraction speed 5.2 X Track quality 100.0 % Test CRC 3232A37A Copy CRC 3232A37A Accurately ripped (confidence 1) [C3FE033D] (AR v2) Copy OK
Track 8
Filename C:\Music\08 - Eric Serra - Lucy is Going Out, Part 1.wav
Peak level 98.7 % Extraction speed 4.5 X Track quality 100.0 % Test CRC CE5B6D04 Copy CRC CE5B6D04 Accurately ripped (confidence 1) [E9DB6D63] (AR v2) Copy OK
Track 9
Filename C:\Music\09 - Eric Serra - Lucy is Going Out, Part 2.wav
Peak level 98.7 % Extraction speed 3.9 X Track quality 100.0 % Test CRC A272E04B Copy CRC A272E04B Accurately ripped (confidence 1) [6BC44F37] (AR v2) Copy OK
Track 10
Filename C:\Music\10 - Eric Serra - Tingjhou Hospital.wav
Peak level 98.7 % Extraction speed 4.8 X Track quality 100.0 % Test CRC 65419031 Copy CRC 65419031 Accurately ripped (confidence 1) [BC599A77] (AR v2) Copy OK
Track 11
Filename C:\Music\11 - Eric Serra - I Feel Everything.wav
Peak level 31.7 % Extraction speed 3.9 X Track quality 100.0 % Test CRC FDAEC2A8 Copy CRC FDAEC2A8 Accurately ripped (confidence 1) [5567D47D] (AR v2) Copy OK
Track 12
Filename C:\Music\12 - Berliner Philarmoniker & others - Requiem in D Minor, K. 626.wav
Peak level 98.7 % Extraction speed 5.6 X Track quality 100.0 % Test CRC FA8FF5B1 Copy CRC FA8FF5B1 Accurately ripped (confidence 1) [4C92931D] (AR v2) Copy OK
Track 13
Filename C:\Music\13 - Eric Serra - Thank You for Sharing.wav
Peak level 98.7 % Extraction speed 4.7 X Track quality 100.0 % Test CRC 40C3E820 Copy CRC 40C3E820 Accurately ripped (confidence 1) [BCEAAC40] (AR v2) Copy OK
Track 14
Filename C:\Music\14 - Eric Serra - Taipei Airport.wav
Peak level 98.7 % Extraction speed 3.2 X Track quality 100.0 % Test CRC D389BC18 Copy CRC D389BC18 Accurately ripped (confidence 1) [251E2C7E] (AR v2) Copy OK
Track 15
Filename C:\Music\15 - Eric Serra - Lucy and the Sniffer Dog.wav
Peak level 98.7 % Extraction speed 2.5 X Track quality 99.8 % Test CRC 371DDEC6 Copy CRC 371DDEC6 Accurately ripped (confidence 1) [BD29E698] (AR v2) Copy OK
Track 16
Filename C:\Music\16 - Eric Serra - Disintegration.wav
Peak level 98.7 % Extraction speed 4.4 X Track quality 99.9 % Test CRC AC1477FF Copy CRC AC1477FF Accurately ripped (confidence 1) [1310AC84] (AR v2) Copy OK
Track 17
Filename C:\Music\17 - Eric Serra - Green Beams.wav
Peak level 98.7 % Extraction speed 4.7 X Track quality 100.0 % Test CRC 07060320 Copy CRC 07060320 Accurately ripped (confidence 1) [FDD61718] (AR v2) Copy OK
Track 18
Filename C:\Music\18 - The Crystal Method - Single Barrel (Sling the Decks).wav
Peak level 45.3 % Extraction speed 4.8 X Track quality 100.0 % Test CRC 50A0876E Copy CRC 50A0876E Accurately ripped (confidence 1) [4FB1F650] (AR v2) Copy OK
Track 19
Filename C:\Music\19 - Eric Serra - Pleasant Drive in Paris.wav
Peak level 98.7 % Extraction speed 2.2 X Track quality 99.6 % Test CRC 058356E8 Copy CRC 058356E8 Accurately ripped (confidence 1) [901E6868] (AR v2) Copy OK
Track 20
Filename C:\Music\20 - Eric Serra - Sixty Percent Mess.wav
Peak level 98.7 % Extraction speed 2.8 X Track quality 100.0 % Test CRC 4E5EC665 Copy CRC 4E5EC665 Accurately ripped (confidence 1) [82B845EA] (AR v2) Copy OK
Track 21
Filename C:\Music\21 - Eric Serra - Crossing the Goon Sea.wav
Peak level 98.7 % Extraction speed 3.2 X Track quality 100.0 % Test CRC EC354DB5 Copy CRC EC354DB5 Accurately ripped (confidence 1) [8FC35231] (AR v2) Copy OK
Track 22
Filename C:\Music\22 - Eric Serra - GPS Control.wav
Peak level 98.7 % Extraction speed 2.9 X Track quality 99.7 % Test CRC B71196F4 Copy CRC B71196F4 Accurately ripped (confidence 1) [15F5B0BC] (AR v2) Copy OK
Track 23
Filename C:\Music\23 - Eric Serra - Goons and Guards.wav
Peak level 98.7 % Extraction speed 3.0 X Track quality 99.7 % Test CRC 6ACB7E11 Copy CRC 6ACB7E11 Accurately ripped (confidence 1) [807F2737] (AR v2) Copy OK
Track 24
Filename C:\Music\24 - Eric Serra - Time Is Unity.wav
Peak level 94.2 % Extraction speed 4.5 X Track quality 100.0 % Test CRC EE7A5A8E Copy CRC EE7A5A8E Accurately ripped (confidence 1) [021072C1] (AR v2) Copy OK
Track 25
Filename C:\Music\25 - Eric Serra - Blue Injection.wav
Peak level 98.7 % Extraction speed 4.0 X Track quality 100.0 % Test CRC 5FBE7B56 Copy CRC 5FBE7B56 Accurately ripped (confidence 1) [2CEE024B] (AR v2) Copy OK
Track 26
Filename C:\Music\26 - Eric Serra - Melt into Matter.wav
Peak level 98.7 % Extraction speed 4.6 X Track quality 100.0 % Test CRC C31D27FE Copy CRC C31D27FE Accurately ripped (confidence 1) [26178DB4] (AR v2) Copy OK
Track 27
Filename C:\Music\27 - Eric Serra - Flicking Through Time.wav
Pre-gap length 0:00:00.06
Peak level 98.7 % Extraction speed 3.1 X Track quality 100.0 % Test CRC B1142518 Copy CRC B1142518 Accurately ripped (confidence 1) [416577A9] (AR v2) Copy OK
Track 28
Filename C:\Music\28 - Eric Serra - Lucy and Lucy.wav
Peak level 12.0 % Extraction speed 3.3 X Track quality 100.0 % Test CRC B099236B Copy CRC B099236B Accurately ripped (confidence 1) [CFCF3F8C] (AR v2) Copy OK
Track 29
Filename C:\Music\29 - Eric Serra - Moonbirth.wav
Peak level 98.7 % Extraction speed 3.1 X Track quality 99.7 % Test CRC D42BB6FD Copy CRC D42BB6FD Accurately ripped (confidence 1) [DB04F1CB] (AR v2) Copy OK
Track 30
Filename C:\Music\30 - Eric Serra - Origin of the World.wav
Peak level 98.7 % Extraction speed 4.2 X Track quality 100.0 % Test CRC F7A23FC7 Copy CRC F7A23FC7 Accurately ripped (confidence 1) [BD842517] (AR v2) Copy OK
Track 31
Filename C:\Music\31 - Eric Serra - Where Is Lucy.wav
Peak level 98.7 % Extraction speed 2.7 X Track quality 99.7 % Test CRC 6518B169 Copy CRC 6518B169 Accurately ripped (confidence 1) [25960EE4] (AR v2) Copy OK
Track 32
Filename C:\Music\32 - Eric Serra - I Am Everywhere.wav
Peak level 98.7 % Extraction speed 4.5 X Track quality 100.0 % Test CRC D2D3ED05 Copy CRC D2D3ED05 Accurately ripped (confidence 1) [1246DD81] (AR v2) Copy OK
All tracks accurately ripped
No errors occurred
End of status report
==== Log checksum B3DCD3EDEB4094D5CE707A9BA6A56FC732AF1B9FE63FAF8F75B800E5C225E124 ====

Содержание индексной карты (.CUE)

REM GENRE SoundtrackREM DATE 2014REM DISCID B60EB420REM COMMENT "ExactAudioCopy v1.0b3"PERFORMER "Eric Serra"TITLE "Lucy"FILE "01 - Damon Albarn - Sister Rust.wav" WAVE TRACK 01 AUDIO TITLE "Sister Rust" PERFORMER "Damon Albarn" INDEX 01 00:00:00FILE "02 - Eric Serra - First Cells.wav" WAVE TRACK 02 AUDIO TITLE "First Cells" PERFORMER "Eric Serra" INDEX 01 00:00:00FILE "03 - Eric Serra - Mr. Wang's Bloody Suite, Part 1 to 4.wav" WAVE TRACK 03 AUDIO TITLE "Mr. Wang's Bloody Suite, Part 1 to 4" PERFORMER "Eric Serra" INDEX 01 00:00:00FILE "04 - Eric Serra - Mr. Wang's Bloody Suite, Part 5 to 7.wav" WAVE TRACK 04 AUDIO TITLE "Mr. Wang's Bloody Suite, Part 5 to 7" PERFORMER "Eric Serra" INDEX 01 00:00:00FILE "05 - Eric Serra - All We Have Done with It.wav" WAVE TRACK 05 AUDIO TITLE "All We Have Done with It" PERFORMER "Eric Serra" INDEX 01 00:00:00FILE "06 - Eric Serra - Choose to Reproduce.wav" WAVE TRACK 06 AUDIO TITLE "Choose to Reproduce" PERFORMER "Eric Serra" INDEX 01 00:00:00FILE "07 - Eric Serra - Inner Fireworks.wav" WAVE TRACK 07 AUDIO TITLE "Inner Fireworks" PERFORMER "Eric Serra" INDEX 01 00:00:00FILE "08 - Eric Serra - Lucy is Going Out, Part 1.wav" WAVE TRACK 08 AUDIO TITLE "Lucy is Going Out, Part 1" PERFORMER "Eric Serra" INDEX 01 00:00:00FILE "09 - Eric Serra - Lucy is Going Out, Part 2.wav" WAVE TRACK 09 AUDIO TITLE "Lucy is Going Out, Part 2" PERFORMER "Eric Serra" INDEX 01 00:00:00FILE "10 - Eric Serra - Tingjhou Hospital.wav" WAVE TRACK 10 AUDIO TITLE "Tingjhou Hospital" PERFORMER "Eric Serra" INDEX 01 00:00:00FILE "11 - Eric Serra - I Feel Everything.wav" WAVE TRACK 11 AUDIO TITLE "I Feel Everything" PERFORMER "Eric Serra" INDEX 01 00:00:00FILE "12 - Berliner Philarmoniker & others - Requiem in D Minor, K. 626.wav" WAVE TRACK 12 AUDIO TITLE "Requiem in D Minor, K. 626" PERFORMER "Berliner Philarmoniker & others" INDEX 01 00:00:00FILE "13 - Eric Serra - Thank You for Sharing.wav" WAVE TRACK 13 AUDIO TITLE "Thank You for Sharing" PERFORMER "Eric Serra" INDEX 01 00:00:00FILE "14 - Eric Serra - Taipei Airport.wav" WAVE TRACK 14 AUDIO TITLE "Taipei Airport" PERFORMER "Eric Serra" INDEX 01 00:00:00FILE "15 - Eric Serra - Lucy and the Sniffer Dog.wav" WAVE TRACK 15 AUDIO TITLE "Lucy and the Sniffer Dog" PERFORMER "Eric Serra" INDEX 01 00:00:00FILE "16 - Eric Serra - Disintegration.wav" WAVE TRACK 16 AUDIO TITLE "Disintegration" PERFORMER "Eric Serra" INDEX 01 00:00:00FILE "17 - Eric Serra - Green Beams.wav" WAVE TRACK 17 AUDIO TITLE "Green Beams" PERFORMER "Eric Serra" INDEX 01 00:00:00FILE "18 - The Crystal Method - Single Barrel (Sling the Decks).wav" WAVE TRACK 18 AUDIO TITLE "Single Barrel (Sling the Decks)" PERFORMER "The Crystal Method" INDEX 01 00:00:00FILE "19 - Eric Serra - Pleasant Drive in Paris.wav" WAVE TRACK 19 AUDIO TITLE "Pleasant Drive in Paris" PERFORMER "Eric Serra" INDEX 01 00:00:00FILE "20 - Eric Serra - Sixty Percent Mess.wav" WAVE TRACK 20 AUDIO TITLE "Sixty Percent Mess" PERFORMER "Eric Serra" INDEX 01 00:00:00FILE "21 - Eric Serra - Crossing the Goon Sea.wav" WAVE TRACK 21 AUDIO TITLE "Crossing the Goon Sea" PERFORMER "Eric Serra" INDEX 01 00:00:00FILE "22 - Eric Serra - GPS Control.wav" WAVE TRACK 22 AUDIO TITLE "GPS Control" PERFORMER "Eric Serra" INDEX 01 00:00:00FILE "23 - Eric Serra - Goons and Guards.wav" WAVE TRACK 23 AUDIO TITLE "Goons and Guards" PERFORMER "Eric Serra" INDEX 01 00:00:00FILE "24 - Eric Serra - Time Is Unity.wav" WAVE TRACK 24 AUDIO TITLE "Time Is Unity" PERFORMER "Eric Serra" INDEX 01 00:00:00FILE "25 - Eric Serra - Blue Injection.wav" WAVE TRACK 25 AUDIO TITLE "Blue Injection" PERFORMER "Eric Serra" INDEX 01 00:00:00FILE "26 - Eric Serra - Melt into Matter.wav" WAVE TRACK 26 AUDIO TITLE "Melt into Matter" PERFORMER "Eric Serra" INDEX 01 00:00:00 TRACK 27 AUDIO TITLE "Flicking Through Time" PERFORMER "Eric Serra" INDEX 00 03:30:48FILE "27 - Eric Serra - Flicking Through Time.wav" WAVE INDEX 01 00:00:00FILE "28 - Eric Serra - Lucy and Lucy.wav" WAVE TRACK 28 AUDIO TITLE "Lucy and Lucy" PERFORMER "Eric Serra" INDEX 01 00:00:00FILE "29 - Eric Serra - Moonbirth.wav" WAVE TRACK 29 AUDIO TITLE "Moonbirth" PERFORMER "Eric Serra" INDEX 01 00:00:00FILE "30 - Eric Serra - Origin of the World.wav" WAVE TRACK 30 AUDIO TITLE "Origin of the World" PERFORMER "Eric Serra" INDEX 01 00:00:00FILE "31 - Eric Serra - Where Is Lucy.wav" WAVE TRACK 31 AUDIO TITLE "Where Is Lucy ?" PERFORMER "Eric Serra" INDEX 01 00:00:00FILE "32 - Eric Serra - I Am Everywhere.wav" WAVE TRACK 32 AUDIO TITLE "I Am Everywhere" PERFORMER "Eric Serra" INDEX 01 00:00:00
[teatrix.ru].t10366.torrent 
Торрент: Зарегистрирован [ 2015-11-01 20:51 ] · 1A370C3FC4BA3DB2F2F322C7314381379CBCBB0B

Скачать .torrent

Скачать

11 KB

Статус: проверено
Скачан: 0 раз
Размер: 371 MB
terms.php



Быстрый ответ

Имя:

      
Для отправки сообщений необходимо включить JavaScript
Показать сообщения:    

Текущее время: 03-Дек 22:44

Часовой пояс: UTC + 3


Вы можете начинать темы
Вы можете отвечать на сообщения
Вы не можете редактировать свои сообщения
Вы не можете удалять свои сообщения
Вы не можете голосовать в опросах
Вы не можете прикреплять файлы к сообщениям
Вы можете скачивать файлы