(Score) Сильмидо / Silmido (Jae-kwon Han, Lee Ji Soo) - 2004, FLAC (tracks+.cue), lossless


Статистика раздачи [Обновить пиров]
Размер:  336 MB   |    Зарегистрирован:  1 год 1 месяц   |    Скачан:  2 раза

Полного источника не было: 1 день 22 часа

 
   
 
 
 

[Цитировать]

Сильмидо / Silmido / 실미도
Жанр: Score
Композитор: Jae-kwon Han, Lee Ji Soo
Год выпуска диска: 2004
Год выпуска фильма: 2003
Страна-производитель диска: Южная Корея
Аудиокодек: FLAC (*.flac)
Тип рипа: tracks+.cue
Битрейт аудио: lossless
Продолжительность: 61:00
Источник: Источник wav и список треков - AsiaTorrents. Wav перекодирован в flac, cue переписан, т.к. изначальный файл имел неверную кодировку и иероглифы не читались.
Наличие сканов в содержимом раздачи: нет
Треклист:
1. 1968년 1월 21일 조영욱 5:51
2. 막다른 길 조영욱 2:19
3. 실미도 조영욱 3:21
4. 사선을 넘어 조영욱 6:10
5. 684부대 조영욱 2:36
6. 떠나기 위한 한잔 조영욱 0:48
7. 허공으로의 질주 조영욱 7:29
8. 엘레지 조영욱 2:52
9. 우리에게 내일은 없다 조영욱 8:05
10. 어머니의 사진 조영욱 1:31
11. 묻혀버린 진실 조영욱 3:17
12. 마지막 인사 조영욱 2:46
13. 이름을 찾아서 조영욱 5:11
14. 비겁한 자를 위한 변명 조영욱 2:26
15. 1971년 8월 23일 조영욱 4:19
16. 무명 용사를 위한 송가 조영욱 1:59

Содержание индексной карты (.CUE)

REM GENRE SoundtrackREM DISCID E90E4C10REM COMMENT "ExactAudioCopy v1.0b3"PERFORMER "Jae-kwon Han, Lee Ji Soo"TITLE "실미도 / Silmido"FILE "Silmido.flac" WAVE TRACK 01 AUDIO TITLE "1968년 1월 21일" PERFORMER "Jae-kwon Han, Lee Ji Soo" INDEX 01 00:00:00 TRACK 02 AUDIO TITLE "막다른 길" PERFORMER "Jae-kwon Han, Lee Ji Soo" INDEX 00 05:49:74 INDEX 01 05:51:22 TRACK 03 AUDIO TITLE "실미도" PERFORMER "Jae-kwon Han, Lee Ji Soo" INDEX 00 08:07:73 INDEX 01 08:09:68 TRACK 04 AUDIO TITLE "사선을 넘어" PERFORMER "Jae-kwon Han, Lee Ji Soo" INDEX 00 11:28:74 INDEX 01 11:31:07 TRACK 05 AUDIO TITLE "684부대" PERFORMER "Jae-kwon Han, Lee Ji Soo" INDEX 00 17:39:01 INDEX 01 17:41:09 TRACK 06 AUDIO TITLE "떠나기 위한 한잔" PERFORMER "Jae-kwon Han, Lee Ji Soo" INDEX 00 20:14:50 INDEX 01 20:16:58 TRACK 07 AUDIO TITLE "허공으로의 질주" PERFORMER "Jae-kwon Han, Lee Ji Soo" INDEX 00 21:02:69 INDEX 01 21:04:61 TRACK 08 AUDIO TITLE "엘레지" PERFORMER "Jae-kwon Han, Lee Ji Soo" INDEX 00 28:31:73 INDEX 01 28:34:07 TRACK 09 AUDIO TITLE "우리에게 내일은 없다" PERFORMER "Jae-kwon Han, Lee Ji Soo" INDEX 00 31:24:14 INDEX 01 31:26:22 TRACK 10 AUDIO TITLE "어머니의 사진" PERFORMER "Jae-kwon Han, Lee Ji Soo" INDEX 00 39:29:14 INDEX 01 39:31:22 TRACK 11 AUDIO TITLE "묻혀버린 진실" PERFORMER "Jae-kwon Han, Lee Ji Soo" INDEX 00 41:00:08 INDEX 01 41:01:74 TRACK 12 AUDIO TITLE "마지막 인사" PERFORMER "Jae-kwon Han, Lee Ji Soo" INDEX 00 44:17:10 INDEX 01 44:19:18 TRACK 13 AUDIO TITLE "이름을 찾아서" PERFORMER "Jae-kwon Han, Lee Ji Soo" INDEX 00 47:03:35 INDEX 01 47:05:43 TRACK 14 AUDIO TITLE "비겁한 자를 위한 변명" PERFORMER "Jae-kwon Han, Lee Ji Soo" INDEX 00 52:14:42 INDEX 01 52:16:50 TRACK 15 AUDIO TITLE "1971년 8월 23일" PERFORMER "Jae-kwon Han, Lee Ji Soo" INDEX 00 54:40:42 INDEX 01 54:42:50 TRACK 16 AUDIO TITLE "무명 용사를 위한 송가" PERFORMER "Jae-kwon Han, Lee Ji Soo" INDEX 00 58:58:64 INDEX 01 59:01:39

Лог проверки качества

AUDIOCHECKER v2.0 beta (build 457)~~~~~~~~~~~~~~~~~~~~~~~~~~~~~~~~~~
Started at: суббота, 08. 11. 2014. - 10:06.361 file found
1 -===- C:\Новая папка (3)\Jae-kwon Han, Lee Ji Soo - Silmido OST (2004)\Silmido.flac Extracted successfully Conclusion: this track is CDDA with probability 100% Tempfile successfully deleted.
Finished at: суббота, 08. 11. 2014. - 10:17.04 (operation time: 0:10.27)
[teatrix.ru].t10367.torrent 
Торрент: Зарегистрирован [ 2015-11-01 20:51 ] · AAAD9218E06827631A54BA169D6C0452F4E3573A

Скачать .torrent

Скачать

14 KB

Статус: проверено
Скачан: 2 раз
Размер: 336 MB
terms.php



Быстрый ответ

Имя:

      
Для отправки сообщений необходимо включить JavaScript
Показать сообщения:    

Текущее время: 09-Дек 03:06

Часовой пояс: UTC + 3


Вы можете начинать темы
Вы можете отвечать на сообщения
Вы не можете редактировать свои сообщения
Вы не можете удалять свои сообщения
Вы не можете голосовать в опросах
Вы не можете прикреплять файлы к сообщениям
Вы можете скачивать файлы