(Score) Ромео и Джульетта / Romeo & Juliet (Abel Korzeniowski) - 2013, FLAC (tracks+.cue) lossless


Статистика раздачи [Обновить пиров]
Размер:  248 MB   |    Зарегистрирован:  1 год 1 месяц   |    Скачан:  1 раз

Полного источника не было: 16 часов

 
   
 
 
 

[Цитировать]

Ромео и Джульетта / Romeo & Juliet-- Жанр: Score
Композитор: Abel Korzeniowski
Год выпуска диска: 2013
Издатель (лейбл): Sony Classical
Номер по каталогу: 88883741162
Аудиокодек: FLAC (*.flac)
Тип рипа: tracks+.cue
Битрейт аудио: lossless
Продолжительность: 50:39
Источник: WhatCD
Наличие сканов в содержимом раздачи: да
Треклист:
[03:43] 01. Juliet's Dream
[02:58] 02. Forbidden Love
[02:27] 03. Queen Mab
[02:25] 04. The Cheek of Night
[02:21] 05. First Kiss
[03:03] 06. Trooping With Crows
[06:51] 07. A Thousand Times Good Night
[02:31] 08. Come, Gentle Night
[02:50] 09. Wedding Vows
[04:00] 10. Fortune's Fool
[01:11] 11. From Ancient Grudge
[01:33] 12. Death is My Heir
[03:08] 13. Tempt Not a Desperate Man
[05:08] 14. The Crypt (Part 1)
[04:18] 15. The Crypt (Part 2)
[02:04] 16. Eternal Love

Лог создания рипа

Exact Audio Copy V1.0 beta 3 from 29. August 2011
EAC extraction logfile from 2. November 2014, 9:02
Abel Korzeniowski / Romeo & Juliet
Used drive : HL-DT-STBDDVDRW GGC-H20L Adapter: 5 ID: 0
Read mode : SecureUtilize accurate stream : YesDefeat audio cache : YesMake use of C2 pointers : No
Read offset correction : 667Overread into Lead-In and Lead-Out : NoFill up missing offset samples with silence : YesDelete leading and trailing silent blocks : NoNull samples used in CRC calculations : YesUsed interface : Native Win32 interface for Win NT & 2000Gap handling : Appended to previous track
Used output format : User Defined EncoderSelected bitrate : 1024 kBit/sQuality : HighAdd ID3 tag : NoCommand line compressor : C:\Apps\flac\v1.2.1\bin\flac.exeAdditional command line options : -8 -V -T "ARTIST=%artist%" -T "TITLE=%title%" -T "ALBUM=%albumtitle%" -T "DATE=%year%" -T "TRACKNUMBER=%tracknr%" -T "GENRE=%genre%" -T "PERFORMER=%albuminterpret%" -T "COMPOSER=%composer%" %haslyrics%--tag-from-file=LYRICS="%lyricsfile%"%haslyrics% -T "ALBUMARTIST=%albumartist%" -T "DISCNUMBER=%cdnumber%" -T "TOTALDISCS=%totalcds%" -T "TOTALTRACKS=%numtracks%" -T "COMMENT=%comment%" %source% -o %dest%
TOC of the extracted CD
Track | Start | Length | Start sector | End sector --------------------------------------------------------- 1 | 0:00.00 | 3:43.50 | 0 | 16774 2 | 3:43.50 | 2:58.48 | 16775 | 30172 3 | 6:42.23 | 2:27.32 | 30173 | 41229 4 | 9:09.55 | 2:25.39 | 41230 | 52143 5 | 11:35.19 | 2:21.13 | 52144 | 62731 6 | 13:56.32 | 3:03.42 | 62732 | 76498 7 | 16:59.74 | 6:51.02 | 76499 | 107325 8 | 23:51.01 | 2:31.21 | 107326 | 118671 9 | 26:22.22 | 2:50.45 | 118672 | 131466 10 | 29:12.67 | 4:00.72 | 131467 | 149538 11 | 33:13.64 | 1:11.60 | 149539 | 154923 12 | 34:25.49 | 1:33.59 | 154924 | 161957 13 | 35:59.33 | 3:08.32 | 161958 | 176089 14 | 39:07.65 | 5:08.58 | 176090 | 199247 15 | 44:16.48 | 4:18.22 | 199248 | 218619 16 | 48:34.70 | 2:04.23 | 218620 | 227942
Track 1
Filename D:\Temp\EAC-Rips\Abel Korzeniowski - Romeo & Juliet [FLAC]\01 - Juliet's Dream.wav
Pre-gap length 0:00:02.00
Peak level 76.7 % Extraction speed 4.4 X Track quality 100.0 % Test CRC FBA6FDCF Copy CRC FBA6FDCF Track not present in AccurateRip database Copy OK
Track 2
Filename D:\Temp\EAC-Rips\Abel Korzeniowski - Romeo & Juliet [FLAC]\02 - Forbidden Love.wav
Pre-gap length 0:00:00.50
Peak level 79.1 % Extraction speed 3.7 X Track quality 99.9 % Test CRC AD45355F Copy CRC AD45355F Track not present in AccurateRip database Copy OK
Track 3
Filename D:\Temp\EAC-Rips\Abel Korzeniowski - Romeo & Juliet [FLAC]\03 - Queen Mab.wav
Pre-gap length 0:00:00.06
Peak level 57.5 % Extraction speed 4.8 X Track quality 100.0 % Test CRC 2103EF89 Copy CRC 2103EF89 Track not present in AccurateRip database Copy OK
Track 4
Filename D:\Temp\EAC-Rips\Abel Korzeniowski - Romeo & Juliet [FLAC]\04 - The Cheek of Night.wav
Pre-gap length 0:00:01.20
Peak level 87.8 % Extraction speed 5.1 X Track quality 100.0 % Test CRC 2B05164E Copy CRC 2B05164E Track not present in AccurateRip database Copy OK
Track 5
Filename D:\Temp\EAC-Rips\Abel Korzeniowski - Romeo & Juliet [FLAC]\05 - First Kiss.wav
Pre-gap length 0:00:00.11
Peak level 61.1 % Extraction speed 5.2 X Track quality 100.0 % Test CRC 9C1BEA9A Copy CRC 9C1BEA9A Track not present in AccurateRip database Copy OK
Track 6
Filename D:\Temp\EAC-Rips\Abel Korzeniowski - Romeo & Juliet [FLAC]\06 - Trooping with Crows.wav
Pre-gap length 0:00:00.10
Peak level 91.3 % Extraction speed 4.4 X Track quality 99.9 % Test CRC 6D3E82B4 Copy CRC 6D3E82B4 Track not present in AccurateRip database Copy OK
Track 7
Filename D:\Temp\EAC-Rips\Abel Korzeniowski - Romeo & Juliet [FLAC]\07 - A Thousand Times Good Night.wav
Pre-gap length 0:00:00.67
Peak level 98.0 % Extraction speed 5.9 X Track quality 99.9 % Test CRC 6DED9CB8 Copy CRC 6DED9CB8 Track not present in AccurateRip database Copy OK
Track 8
Filename D:\Temp\EAC-Rips\Abel Korzeniowski - Romeo & Juliet [FLAC]\08 - Come, Gentle Night.wav
Pre-gap length 0:00:00.71
Peak level 89.1 % Extraction speed 6.1 X Track quality 100.0 % Test CRC ACF95B8B Copy CRC ACF95B8B Track not present in AccurateRip database Copy OK
Track 9
Filename D:\Temp\EAC-Rips\Abel Korzeniowski - Romeo & Juliet [FLAC]\09 - Wedding Vows.wav
Pre-gap length 0:00:01.59
Peak level 67.9 % Extraction speed 6.4 X Track quality 100.0 % Test CRC DA617CB9 Copy CRC DA617CB9 Track not present in AccurateRip database Copy OK
Track 10
Filename D:\Temp\EAC-Rips\Abel Korzeniowski - Romeo & Juliet [FLAC]\10 - Fortune's Fool.wav
Peak level 93.3 % Extraction speed 7.0 X Track quality 100.0 % Test CRC 72E47734 Copy CRC 72E47734 Track not present in AccurateRip database Copy OK
Track 11
Filename D:\Temp\EAC-Rips\Abel Korzeniowski - Romeo & Juliet [FLAC]\11 - From Ancient Grudge.wav
Pre-gap length 0:00:01.11
Peak level 92.2 % Extraction speed 5.7 X Track quality 100.0 % Test CRC 5438F8B0 Copy CRC 5438F8B0 Track not present in AccurateRip database Copy OK
Track 12
Filename D:\Temp\EAC-Rips\Abel Korzeniowski - Romeo & Juliet [FLAC]\12 - Death Is My Heir.wav
Pre-gap length 0:00:00.65
Peak level 94.4 % Extraction speed 5.7 X Track quality 100.0 % Test CRC DA94FAE4 Copy CRC DA94FAE4 Track not present in AccurateRip database Copy OK
Track 13
Filename D:\Temp\EAC-Rips\Abel Korzeniowski - Romeo & Juliet [FLAC]\13 - Tempt Not a Desperate Man.wav
Peak level 81.2 % Extraction speed 7.2 X Track quality 100.0 % Test CRC C803684A Copy CRC C803684A Track not present in AccurateRip database Copy OK
Track 14
Filename D:\Temp\EAC-Rips\Abel Korzeniowski - Romeo & Juliet [FLAC]\14 - The Crypt (Part 1).wav
Pre-gap length 0:00:00.41
Peak level 94.4 % Extraction speed 7.0 X Track quality 99.9 % Test CRC F930C59B Copy CRC F930C59B Track not present in AccurateRip database Copy OK
Track 15
Filename D:\Temp\EAC-Rips\Abel Korzeniowski - Romeo & Juliet [FLAC]\15 - The Crypt (Part 2).wav
Peak level 99.2 % Extraction speed 6.8 X Track quality 99.9 % Test CRC 2D0BA4AB Copy CRC 2D0BA4AB Track not present in AccurateRip database Copy OK
Track 16
Filename D:\Temp\EAC-Rips\Abel Korzeniowski - Romeo & Juliet [FLAC]\16 - Eternal Love.wav
Pre-gap length 0:00:00.64
Peak level 98.3 % Extraction speed 7.5 X Track quality 100.0 % Test CRC 4BF8D20E Copy CRC 4BF8D20E Track not present in AccurateRip database Copy OK
None of the tracks are present in the AccurateRip database
No errors occurred
End of status report
---- CUETools DB Plugin V2.1.3
[CTDB TOCID: HCzoBPqb1K4mrERQgvQZ9hP7uAc-] database access error: The remote name could not be resolved: 'db.cuetools.net'
==== Log checksum 9311316F0589DAEF32DEAFC34056A616677D1881C00A9D01783303223C1DBCD9 ====

Содержание индексной карты (.CUE)

REM GENRE SoundtrackREM DATE 2013REM DISCID E30BDF10REM COMMENT "ExactAudioCopy v1.0b3"PERFORMER "Abel Korzeniowski"TITLE "Romeo & Juliet"FILE "01 - Juliet's Dream.wav" WAVE TRACK 01 AUDIO TITLE "Juliet's Dream" PERFORMER "Abel Korzeniowski" INDEX 01 00:00:00 TRACK 02 AUDIO TITLE "Forbidden Love" PERFORMER "Abel Korzeniowski" INDEX 00 03:43:00FILE "02 - Forbidden Love.wav" WAVE INDEX 01 00:00:00 TRACK 03 AUDIO TITLE "Queen Mab" PERFORMER "Abel Korzeniowski" INDEX 00 02:58:42FILE "03 - Queen Mab.wav" WAVE INDEX 01 00:00:00 TRACK 04 AUDIO TITLE "The Cheek of Night" PERFORMER "Abel Korzeniowski" INDEX 00 02:26:12FILE "04 - The Cheek of Night.wav" WAVE INDEX 01 00:00:00 TRACK 05 AUDIO TITLE "First Kiss" PERFORMER "Abel Korzeniowski" INDEX 00 02:25:28FILE "05 - First Kiss.wav" WAVE INDEX 01 00:00:00 TRACK 06 AUDIO TITLE "Trooping with Crows" PERFORMER "Abel Korzeniowski" INDEX 00 02:21:03FILE "06 - Trooping with Crows.wav" WAVE INDEX 01 00:00:00 TRACK 07 AUDIO TITLE "A Thousand Times Good Night" PERFORMER "Abel Korzeniowski" INDEX 00 03:02:50FILE "07 - A Thousand Times Good Night.wav" WAVE INDEX 01 00:00:00 TRACK 08 AUDIO TITLE "Come, Gentle Night" PERFORMER "Abel Korzeniowski" INDEX 00 06:50:06FILE "08 - Come, Gentle Night.wav" WAVE INDEX 01 00:00:00 TRACK 09 AUDIO TITLE "Wedding Vows" PERFORMER "Abel Korzeniowski" INDEX 00 02:29:37FILE "09 - Wedding Vows.wav" WAVE INDEX 01 00:00:00FILE "10 - Fortune's Fool.wav" WAVE TRACK 10 AUDIO TITLE "Fortune's Fool" PERFORMER "Abel Korzeniowski" INDEX 01 00:00:00 TRACK 11 AUDIO TITLE "From Ancient Grudge" PERFORMER "Abel Korzeniowski" INDEX 00 03:59:61FILE "11 - From Ancient Grudge.wav" WAVE INDEX 01 00:00:00 TRACK 12 AUDIO TITLE "Death Is My Heir" PERFORMER "Abel Korzeniowski" INDEX 00 01:10:70FILE "12 - Death Is My Heir.wav" WAVE INDEX 01 00:00:00FILE "13 - Tempt Not a Desperate Man.wav" WAVE TRACK 13 AUDIO TITLE "Tempt Not a Desperate Man" PERFORMER "Abel Korzeniowski" INDEX 01 00:00:00 TRACK 14 AUDIO TITLE "The Crypt (Part 1)" PERFORMER "Abel Korzeniowski" INDEX 00 03:07:66FILE "14 - The Crypt (Part 1).wav" WAVE INDEX 01 00:00:00FILE "15 - The Crypt (Part 2).wav" WAVE TRACK 15 AUDIO TITLE "The Crypt (Part 2)" PERFORMER "Abel Korzeniowski" INDEX 01 00:00:00 TRACK 16 AUDIO TITLE "Eternal Love" PERFORMER "Abel Korzeniowski" INDEX 00 04:17:33FILE "16 - Eternal Love.wav" WAVE INDEX 01 00:00:00
[teatrix.ru].t10368.torrent 
Торрент: Зарегистрирован [ 2015-11-01 20:51 ] · AABC37C08D109702F5E827A641AB0031CF20EA58

Скачать .torrent

Скачать

21 KB

Статус: проверено
Скачан: 1 раз
Размер: 248 MB
terms.php



Быстрый ответ

Имя:

      
Для отправки сообщений необходимо включить JavaScript
Показать сообщения:    

Текущее время: 03-Дек 09:51

Часовой пояс: UTC + 3


Вы можете начинать темы
Вы можете отвечать на сообщения
Вы не можете редактировать свои сообщения
Вы не можете удалять свои сообщения
Вы не можете голосовать в опросах
Вы не можете прикреплять файлы к сообщениям
Вы можете скачивать файлы