(Score) Семейка монстров / The Boxtrolls (Dario Marianelli) - 2014, FLAC (tracks+.cue), lossless


Статистика раздачи [Обновить пиров]
Размер:  302 MB   |    Зарегистрирован:  1 год 1 месяц   |    Скачан:  1 раз

Полного источника не было: 3 месяца 26 дней

 
   
 
 
 

[Цитировать]

Семейка монстров / The Boxtrolls
Жанр: Score
Композитор: Dario Marianelli
Год выпуска диска: 2014
Страна-производитель диска: США
Издатель (лейбл): Back Lot Music
Аудиокодек: FLAC (*.flac)
Тип рипа: tracks+.cue
Битрейт аудио: lossless
Продолжительность: 01:03:08
Наличие сканов в содержимом раздачи: нет
Треклист:
01. The Unspeakable Has Happened
02. The Scavengers
03. The Boxtrolls Cavern
04. Egg's Music Box
05. Quattro Sabatino
06. One Busy Night
07. Rooftop Chase
08. Broken Eggs
09. Cheesebridge Funfair
10. The Boxtrolls Song
11. Snatcher and His Stooges
12. Allergic
13. To The Rescue
14. I'm Sure I Am Delicious
15. I Was Given To Them
16. What's A Father?
17. Slap Waltz
18. Snatcher's Dramatical Entrance
19. Look What You Did
20. Jelly!
21. Last Battle
22. Say Cheese
23. Little Boxes
24. Some Kids
25. Whole World

Лог создания рипа

Exact Audio Copy V1.0 beta 2 from 29. April 2011
EAC extraction logfile from 22. September 2014, 21:03
Dario Marianelli / The Boxtrolls
Used drive : HL-DT-STDVD+-RW GS30N Adapter: 0 ID: 1
Read mode : SecureUtilize accurate stream : YesDefeat audio cache : YesMake use of C2 pointers : No
Read offset correction : 667Overread into Lead-In and Lead-Out : NoFill up missing offset samples with silence : YesDelete leading and trailing silent blocks : NoNull samples used in CRC calculations : YesUsed interface : Native Win32 interface for Win NT & 2000Gap handling : Appended to previous track
Used output format : User Defined EncoderSelected bitrate : 1024 kBit/sQuality : HighAdd ID3 tag : NoCommand line compressor : C:\Program Files (x86)\Exact Audio Copy\Flac\flac.exeAdditional command line options : -8 -V -T "ARTIST=%artist%" -T "TITLE=%title%" -T "ALBUM=%albumtitle%" -T "DATE=%year%" -T "TRACKNUMBER=%tracknr%" -T "GENRE=%genre%" -T "PERFORMER=%albuminterpret%" -T "COMPOSER=%composer%" %haslyrics%--tag-from-file=LYRICS
TOC of the extracted CD
Track | Start | Length | Start sector | End sector --------------------------------------------------------- 1 | 0:00.00 | 2:20.66 | 0 | 10565 2 | 2:20.66 | 2:26.04 | 10566 | 21519 3 | 4:46.70 | 2:32.22 | 21520 | 32941 4 | 7:19.17 | 1:50.26 | 32942 | 41217 5 | 9:09.43 | 2:38.06 | 41218 | 53073 6 | 11:47.49 | 2:35.27 | 53074 | 64725 7 | 14:23.01 | 1:38.31 | 64726 | 72106 8 | 16:01.32 | 2:00.68 | 72107 | 81174 9 | 18:02.25 | 0:46.49 | 81175 | 84673 10 | 18:48.74 | 2:35.04 | 84674 | 96302 11 | 21:24.03 | 1:34.61 | 96303 | 103413 12 | 22:58.64 | 4:51.01 | 103414 | 125239 13 | 27:49.65 | 1:59.43 | 125240 | 134207 14 | 29:49.33 | 1:59.51 | 134208 | 143183 15 | 31:49.09 | 2:53.71 | 143184 | 156229 16 | 34:43.05 | 1:31.63 | 156230 | 163117 17 | 36:14.68 | 2:28.43 | 163118 | 174260 18 | 38:43.36 | 3:26.38 | 174261 | 189748 19 | 42:09.74 | 3:45.16 | 189749 | 206639 20 | 45:55.15 | 4:11.31 | 206640 | 225495 21 | 50:06.46 | 3:43.04 | 225496 | 242224 22 | 53:49.50 | 2:01.14 | 242225 | 251313 23 | 55:50.64 | 2:36.60 | 251314 | 263073 24 | 58:27.49 | 3:03.25 | 263074 | 276823 25 | 61:30.74 | 1:36.47 | 276824 | 284070
Track 1
Filename C:\Rip\The Boxtrolls\01 - The Unspeakable Has Happened.wav
Pre-gap length 0:00:02.00
Peak level 94.8 % Extraction speed 1.3 X Track quality 100.0 % Test CRC 128BD177 Copy CRC 128BD177 Track not present in AccurateRip database Copy OK
Track 2
Filename C:\Rip\The Boxtrolls\02 - The Scavengers.wav
Peak level 82.3 % Extraction speed 1.9 X Track quality 99.9 % Test CRC 16DC09B3 Copy CRC 16DC09B3 Track not present in AccurateRip database Copy OK
Track 3
Filename C:\Rip\The Boxtrolls\03 - The Boxtrolls Cavern.wav
Peak level 95.5 % Extraction speed 3.0 X Track quality 100.0 % Test CRC 86FD834B Copy CRC 86FD834B Track not present in AccurateRip database Copy OK
Track 4
Filename C:\Rip\The Boxtrolls\04 - Egg's Music Box.wav
Peak level 51.2 % Extraction speed 2.9 X Track quality 100.0 % Test CRC 33510F46 Copy CRC 33510F46 Track not present in AccurateRip database Copy OK
Track 5
Filename C:\Rip\The Boxtrolls\05 - Quattro Sabatino.wav
Peak level 95.1 % Extraction speed 3.3 X Track quality 100.0 % Test CRC 0F8321D9 Copy CRC 0F8321D9 Track not present in AccurateRip database Copy OK
Track 6
Filename C:\Rip\The Boxtrolls\06 - One Busy Night.wav
Peak level 94.9 % Extraction speed 2.6 X Track quality 99.9 % Test CRC BBC760FF Copy CRC BBC760FF Track not present in AccurateRip database Copy OK
Track 7
Filename C:\Rip\The Boxtrolls\07 - Rooftop Chase.wav
Peak level 95.8 % Extraction speed 3.2 X Track quality 100.0 % Test CRC 723C94B6 Copy CRC 723C94B6 Track not present in AccurateRip database Copy OK
Track 8
Filename C:\Rip\The Boxtrolls\08 - Broken Eggs.wav
Peak level 90.5 % Extraction speed 3.5 X Track quality 100.0 % Test CRC 2096554D Copy CRC 2096554D Track not present in AccurateRip database Copy OK
Track 9
Filename C:\Rip\The Boxtrolls\09 - Cheesebridge Funfair.wav
Peak level 63.4 % Extraction speed 2.6 X Track quality 100.0 % Test CRC E53B2BD7 Copy CRC E53B2BD7 Track not present in AccurateRip database Copy OK
Track 10
Filename C:\Rip\The Boxtrolls\10 - The Boxtrolls Song.wav
Peak level 55.0 % Extraction speed 2.9 X Track quality 99.9 % Test CRC 9476C545 Copy CRC 9476C545 Track not present in AccurateRip database Copy OK
Track 11
Filename C:\Rip\The Boxtrolls\11 - Snatcher and His Stooges.wav
Peak level 70.7 % Extraction speed 3.4 X Track quality 100.0 % Test CRC 67C97777 Copy CRC 67C97777 Track not present in AccurateRip database Copy OK
Track 12
Filename C:\Rip\The Boxtrolls\12 - Allergic.wav
Peak level 96.5 % Extraction speed 4.5 X Track quality 100.0 % Test CRC 3B67D60F Copy CRC 3B67D60F Track not present in AccurateRip database Copy OK
Track 13
Filename C:\Rip\The Boxtrolls\13 - To The Rescue.wav
Peak level 95.9 % Extraction speed 4.1 X Track quality 100.0 % Test CRC AAF12246 Copy CRC AAF12246 Track not present in AccurateRip database Copy OK
Track 14
Filename C:\Rip\The Boxtrolls\14 - I'm Sure I Am Delicious.wav
Peak level 95.5 % Extraction speed 4.2 X Track quality 100.0 % Test CRC F41C2A7D Copy CRC F41C2A7D Track not present in AccurateRip database Copy OK
Track 15
Filename C:\Rip\The Boxtrolls\15 - I Was Given To Them.wav
Peak level 95.2 % Extraction speed 3.5 X Track quality 99.9 % Test CRC 85145C9B Copy CRC 85145C9B Track not present in AccurateRip database Copy OK
Track 16
Filename C:\Rip\The Boxtrolls\16 - What's A Father.wav
Peak level 96.0 % Extraction speed 3.9 X Track quality 100.0 % Test CRC 07EB3501 Copy CRC 07EB3501 Track not present in AccurateRip database Copy OK
Track 17
Filename C:\Rip\The Boxtrolls\17 - Slap Waltz.wav
Peak level 92.5 % Extraction speed 4.5 X Track quality 100.0 % Test CRC 3BFDBA4C Copy CRC 3BFDBA4C Track not present in AccurateRip database Copy OK
Track 18
Filename C:\Rip\The Boxtrolls\18 - Snatcher's Dramatical Entrance.wav
Peak level 95.6 % Extraction speed 4.0 X Track quality 99.9 % Test CRC B890BEC1 Copy CRC B890BEC1 Track not present in AccurateRip database Copy OK
Track 19
Filename C:\Rip\The Boxtrolls\19 - Look What You Did.wav
Peak level 94.6 % Extraction speed 5.3 X Track quality 100.0 % Test CRC 854A577A Copy CRC 854A577A Track not present in AccurateRip database Copy OK
Track 20
Filename C:\Rip\The Boxtrolls\20 - Jelly!.wav
Peak level 96.6 % Extraction speed 5.6 X Track quality 100.0 % Test CRC 376C4FC9 Copy CRC 376C4FC9 Track not present in AccurateRip database Copy OK
Track 21
Filename C:\Rip\The Boxtrolls\21 - Last Battle.wav
Peak level 96.5 % Extraction speed 5.5 X Track quality 100.0 % Test CRC 12798644 Copy CRC 12798644 Track not present in AccurateRip database Copy OK
Track 22
Filename C:\Rip\The Boxtrolls\22 - Say Cheese.wav
Peak level 63.2 % Extraction speed 3.6 X Track quality 99.9 % Test CRC 637E51A4 Copy CRC 637E51A4 Track not present in AccurateRip database Copy OK
Track 23
Filename C:\Rip\The Boxtrolls\23 - Little Boxes.wav
Peak level 53.2 % Extraction speed 5.5 X Track quality 100.0 % Test CRC 5675ED93 Copy CRC 5675ED93 Track not present in AccurateRip database Copy OK
Track 24
Filename C:\Rip\The Boxtrolls\24 - Some Kids.wav
Peak level 38.9 % Extraction speed 5.7 X Track quality 100.0 % Test CRC E6353DB8 Copy CRC E6353DB8 Track not present in AccurateRip database Copy OK
Track 25
Filename C:\Rip\The Boxtrolls\25 - Whole World.wav
Peak level 56.4 % Extraction speed 1.7 X Track quality 99.8 % Test CRC D6B51BCA Copy CRC D6B51BCA Track not present in AccurateRip database Copy OK
None of the tracks are present in the AccurateRip database
No errors occurred
End of status report
---- CUETools DB Plugin V2.1.2
[CTDB TOCID: g0l_II8hZMSrjkMxvl7CFZaH5CY-] disk not present in database, Submit result: g0l_II8hZMSrjkMxvl7CFZaH5CY- has been uploaded
==== Log checksum BA42A2FD0747004FE134558415757AED38A21538FF93C5F0D45DD45AB75CB8C2 ====

Содержание индексной карты (.CUE)

REM GENRE SoundtrackREM DATE 2014REM DISCID 520ECB19REM COMMENT "ExactAudioCopy v1.0b2"CATALOG 0857970002790PERFORMER "Dario Marianelli"TITLE "The Boxtrolls"FILE "01 - The Unspeakable Has Happened.wav" WAVE TRACK 01 AUDIO TITLE "The Unspeakable Has Happened" PERFORMER "Dario Marianelli" ISRC USQ4E1401067 INDEX 01 00:00:00FILE "02 - The Scavengers.wav" WAVE TRACK 02 AUDIO TITLE "The Scavengers" PERFORMER "Dario Marianelli" ISRC USQ4E1401068 INDEX 01 00:00:00FILE "03 - The Boxtrolls Cavern.wav" WAVE TRACK 03 AUDIO TITLE "The Boxtrolls Cavern" PERFORMER "Dario Marianelli" ISRC USQ4E1401069 INDEX 01 00:00:00FILE "04 - Egg's Music Box.wav" WAVE TRACK 04 AUDIO TITLE "Egg's Music Box" PERFORMER "Dario Marianelli" ISRC USQ4E1401070 INDEX 01 00:00:00FILE "05 - Quattro Sabatino.wav" WAVE TRACK 05 AUDIO TITLE "Quattro Sabatino" PERFORMER "Dario Marianelli" ISRC USQ4E1401071 INDEX 01 00:00:00FILE "06 - One Busy Night.wav" WAVE TRACK 06 AUDIO TITLE "One Busy Night" PERFORMER "Dario Marianelli" ISRC USQ4E1401072 INDEX 01 00:00:00FILE "07 - Rooftop Chase.wav" WAVE TRACK 07 AUDIO TITLE "Rooftop Chase" PERFORMER "Dario Marianelli" ISRC USQ4E1401073 INDEX 01 00:00:00FILE "08 - Broken Eggs.wav" WAVE TRACK 08 AUDIO TITLE "Broken Eggs" PERFORMER "Dario Marianelli" ISRC USQ4E1401074 INDEX 01 00:00:00FILE "09 - Cheesebridge Funfair.wav" WAVE TRACK 09 AUDIO TITLE "Cheesebridge Funfair" PERFORMER "Dario Marianelli" ISRC USQ4E1401075 INDEX 01 00:00:00FILE "10 - The Boxtrolls Song.wav" WAVE TRACK 10 AUDIO TITLE "The Boxtrolls Song" PERFORMER "Dario Marianelli" ISRC USQ4E1401076 INDEX 01 00:00:00FILE "11 - Snatcher and His Stooges.wav" WAVE TRACK 11 AUDIO TITLE "Snatcher and His Stooges" PERFORMER "Dario Marianelli" ISRC USQ4E1401077 INDEX 01 00:00:00FILE "12 - Allergic.wav" WAVE TRACK 12 AUDIO TITLE "Allergic" PERFORMER "Dario Marianelli" ISRC USQ4E1401078 INDEX 01 00:00:00FILE "13 - To The Rescue.wav" WAVE TRACK 13 AUDIO TITLE "To The Rescue" PERFORMER "Dario Marianelli" ISRC USQ4E1401079 INDEX 01 00:00:00FILE "14 - I'm Sure I Am Delicious.wav" WAVE TRACK 14 AUDIO TITLE "I'm Sure I Am Delicious" PERFORMER "Dario Marianelli" ISRC USQ4E1401080 INDEX 01 00:00:00FILE "15 - I Was Given To Them.wav" WAVE TRACK 15 AUDIO TITLE "I Was Given To Them" PERFORMER "Dario Marianelli" ISRC USQ4E1401081 INDEX 01 00:00:00FILE "16 - What's A Father.wav" WAVE TRACK 16 AUDIO TITLE "What's A Father?" PERFORMER "Dario Marianelli" ISRC USQ4E1401082 INDEX 01 00:00:00FILE "17 - Slap Waltz.wav" WAVE TRACK 17 AUDIO TITLE "Slap Waltz" PERFORMER "Dario Marianelli" ISRC USQ4E1401083 INDEX 01 00:00:00FILE "18 - Snatcher's Dramatical Entrance.wav" WAVE TRACK 18 AUDIO TITLE "Snatcher's Dramatical Entrance" PERFORMER "Dario Marianelli" ISRC USQ4E1401084 INDEX 01 00:00:00FILE "19 - Look What You Did.wav" WAVE TRACK 19 AUDIO TITLE "Look What You Did" PERFORMER "Dario Marianelli" ISRC USQ4E1401085 INDEX 01 00:00:00FILE "20 - Jelly!.wav" WAVE TRACK 20 AUDIO TITLE "Jelly!" PERFORMER "Dario Marianelli" ISRC USQ4E1401086 INDEX 01 00:00:00FILE "21 - Last Battle.wav" WAVE TRACK 21 AUDIO TITLE "Last Battle" PERFORMER "Dario Marianelli" ISRC USQ4E1401087 INDEX 01 00:00:00FILE "22 - Say Cheese.wav" WAVE TRACK 22 AUDIO TITLE "Say Cheese" PERFORMER "Dario Marianelli" ISRC USQ4E1401088 INDEX 01 00:00:00FILE "23 - Little Boxes.wav" WAVE TRACK 23 AUDIO TITLE "Little Boxes" PERFORMER "Loch Lomond" ISRC USQ4E1401089 INDEX 01 00:00:00FILE "24 - Some Kids.wav" WAVE TRACK 24 AUDIO TITLE "Some Kids" PERFORMER "Loch Lomond" ISRC USQ4E1401090 INDEX 01 00:00:00FILE "25 - Whole World.wav" WAVE TRACK 25 AUDIO TITLE "Whole World" PERFORMER "Loch Lomond" ISRC USQ4E1401091 INDEX 01 00:00:00
[teatrix.ru].t10369.torrent 
Торрент: Зарегистрирован [ 2015-11-01 20:51 ] · 21B68616783BF6FAF4788679EB1DE1E508011C96

Скачать .torrent

Скачать

14 KB

Статус: проверено
Скачан: 1 раз
Размер: 302 MB
terms.php



Быстрый ответ

Имя:

      
Для отправки сообщений необходимо включить JavaScript
Показать сообщения:    

Текущее время: 07-Дек 13:36

Часовой пояс: UTC + 3


Вы можете начинать темы
Вы можете отвечать на сообщения
Вы не можете редактировать свои сообщения
Вы не можете удалять свои сообщения
Вы не можете голосовать в опросах
Вы не можете прикреплять файлы к сообщениям
Вы можете скачивать файлы