(Soundtrack) Cry Wolf | Волк-одиночка - 2005, FLAC (tracks + .cue), lossless


Статистика раздачи [Обновить пиров]
Размер:  519 MB   |    Зарегистрирован:  1 год 1 месяц   |    Скачан:  1 раз

Полного источника не было: 1 месяц 13 дней

 
   
 
 
 

[Цитировать]


Lossless Group представляет:Cry_Wolf | Волк-одиночка
Music From And Inspired By The Film
Лейбл: Lakeshore Records LLC
Страна-производитель диска: США
Год издания диска: 2005
Номер по каталогу: LKS-33831
Жанр: Soundtrack
Аудио кодек: FLAC
Тип рипа: tracks+.cue
Битрейт аудио: lossless
Продолжительность: 1:01:14
Метод рипа: EAC test+copy
Комплектация: Для каждого диска: FLAC со встроенным cue, отдельные cue для wav и flac, .toc file для cdrdao, полный набор сканов, логи,
Источник (релизер): hexonut [Lossless Group, rutracker.org]. Все рипы с фирменных/оригинальных дисков из личной коллекции.
Треклист:
01. Bloc Party / Like Eating Glass (04:23)
02. Emanuel / Breathe Underwater (03:35)
03. Low / Monkey (04:21)
04. Just Surrender / Tell Me Everything (03:13)
05. Sage Francis, Will Oldham and Alias / Sea Lion (03:03)
06. Rogue Wave / 10-1 (03:21)
07. Adema / Planets (04:00)
08. 22-20S / Shoot Your Gun (04:46)
09. Jen Crowe / Cuts Like A Knife (02:58)
10. From Autumn To Ashes / Inapprope (02:56)
11. Helio Sequence / Blood Bleeds (04:25)
12. Aeon Spoke / I've Seen Those Eyes (03:32)
13. Jet Black Summer / Blood In Blood Out (04:47)
14. Miracle Of 86 / Knife (02:11)
15. Sparklemotion / Hungry Like The Wolf (03:38)
16. Khursor / Creating A Killer (Passive Aggressive Remix) (04:01)
17. Classic featuring Jojo Pellegrino / We Gonna Put It Down (02:04)

EAC Log

Exact Audio Copy V1.0 beta 3 from 29. August 2011
EAC extraction logfile from 1. November 2014, 11:04
Various Artists / Cry_Wolf (Music From And Inspired By The Film)
Used drive : PLEXTOR CD-R PX-240A Adapter: 0 ID: 0
Read mode : SecureUtilize accurate stream : YesDefeat audio cache : YesMake use of C2 pointers : No
Read offset correction : 6Overread into Lead-In and Lead-Out : NoFill up missing offset samples with silence : YesDelete leading and trailing silent blocks : NoNull samples used in CRC calculations : YesUsed interface : Installed external ASPI interfaceGap handling : Appended to previous track
Used output format : User Defined EncoderSelected bitrate : 896 kBit/sQuality : HighAdd ID3 tag : YesCommand line compressor : C:\Program Files (x86)\Exact Audio Copy\Flac\flac.exeAdditional command line options : -V --best -T ARTIST="%artist%" -T ALBUM="%albumtitle%" -T GENRE="%genre%" -T TITLE="%title%" -T TRACKNUMBER="%tracknr%" -T DATE="%year%" %source%
TOC of the extracted CD
Track | Start | Length | Start sector | End sector --------------------------------------------------------- 1 | 0:00.00 | 4:23.27 | 0 | 19751 2 | 4:23.27 | 3:35.53 | 19752 | 35929 3 | 7:59.05 | 4:21.20 | 35930 | 55524 4 | 12:20.25 | 3:13.57 | 55525 | 70056 5 | 15:34.07 | 3:03.53 | 70057 | 83834 6 | 18:37.60 | 3:21.02 | 83835 | 98911 7 | 21:58.62 | 4:00.53 | 98912 | 116964 8 | 25:59.40 | 4:46.65 | 116965 | 138479 9 | 30:46.30 | 2:58.05 | 138480 | 151834 10 | 33:44.35 | 2:56.17 | 151835 | 165051 11 | 36:40.52 | 4:25.30 | 165052 | 184956 12 | 41:06.07 | 3:32.43 | 184957 | 200899 13 | 44:38.50 | 4:47.45 | 200900 | 222469 14 | 49:26.20 | 2:11.65 | 222470 | 232359 15 | 51:38.10 | 3:38.05 | 232360 | 248714 16 | 55:16.15 | 4:01.62 | 248715 | 266851 17 | 59:18.02 | 2:04.03 | 266852 | 276154
Track 1
Filename Z:\data\hexonut\Seeding\Various Artists-2005-Cry_Wolf (Music From And Inspired By The Film)\01 - Like Eating Glass (Bloc Party).wav
Pre-gap length 0:00:02.00
Peak level 99.9 % Extraction speed 5.4 X Track quality 100.0 % Test CRC 48C32539 Copy CRC 48C32539 Accurately ripped (confidence 1) [C9F9F249] (AR v1) Copy OK
Track 2
Filename Z:\data\hexonut\Seeding\Various Artists-2005-Cry_Wolf (Music From And Inspired By The Film)\02 - Breathe Underwater (Emanuel).wav
Pre-gap length 0:00:01.72
Peak level 95.5 % Extraction speed 5.9 X Track quality 100.0 % Test CRC 55080D34 Copy CRC 55080D34 Accurately ripped (confidence 1) [EB74A0DF] (AR v1) Copy OK
Track 3
Filename Z:\data\hexonut\Seeding\Various Artists-2005-Cry_Wolf (Music From And Inspired By The Film)\03 - Monkey (Low).wav
Pre-gap length 0:00:01.73
Peak level 98.8 % Extraction speed 5.9 X Track quality 99.9 % Test CRC B2615008 Copy CRC B2615008 Accurately ripped (confidence 1) [1F76B589] (AR v1) Copy OK
Track 4
Filename Z:\data\hexonut\Seeding\Various Artists-2005-Cry_Wolf (Music From And Inspired By The Film)\04 - Tell Me Everything (Just Surrender).wav
Pre-gap length 0:00:01.73
Peak level 99.0 % Extraction speed 6.7 X Track quality 100.0 % Test CRC 21D9141E Copy CRC 21D9141E Accurately ripped (confidence 1) [281F5BE4] (AR v1) Copy OK
Track 5
Filename Z:\data\hexonut\Seeding\Various Artists-2005-Cry_Wolf (Music From And Inspired By The Film)\05 - Sea Lion (Sage Francis, Will Oldham and Alias).wav
Pre-gap length 0:00:01.72
Peak level 99.8 % Extraction speed 7.1 X Track quality 100.0 % Test CRC A27DE720 Copy CRC A27DE720 Accurately ripped (confidence 1) [3F7C905D] (AR v1) Copy OK
Track 6
Filename Z:\data\hexonut\Seeding\Various Artists-2005-Cry_Wolf (Music From And Inspired By The Film)\06 - 10-1 (Rogue Wave).wav
Pre-gap length 0:00:01.73
Peak level 100.0 % Extraction speed 7.5 X Track quality 100.0 % Test CRC 5B6687E0 Copy CRC 5B6687E0 Accurately ripped (confidence 1) [648E5CA4] (AR v1) Copy OK
Track 7
Filename Z:\data\hexonut\Seeding\Various Artists-2005-Cry_Wolf (Music From And Inspired By The Film)\07 - Planets (Adema).wav
Pre-gap length 0:00:01.72
Peak level 98.8 % Extraction speed 7.2 X Track quality 99.9 % Test CRC 20BD632C Copy CRC 20BD632C Accurately ripped (confidence 1) [B670E1AC] (AR v1) Copy OK
Track 8
Filename Z:\data\hexonut\Seeding\Various Artists-2005-Cry_Wolf (Music From And Inspired By The Film)\08 - Shoot Your Gun (22-20S).wav
Pre-gap length 0:00:01.73
Peak level 98.1 % Extraction speed 8.6 X Track quality 100.0 % Test CRC 885A4B8C Copy CRC 885A4B8C Accurately ripped (confidence 1) [2F8C71CF] (AR v1) Copy OK
Track 9
Filename Z:\data\hexonut\Seeding\Various Artists-2005-Cry_Wolf (Music From And Inspired By The Film)\09 - Cuts Like A Knife (Jen Crowe).wav
Pre-gap length 0:00:01.73
Peak level 100.0 % Extraction speed 8.5 X Track quality 100.0 % Test CRC 05ED5273 Copy CRC 05ED5273 Accurately ripped (confidence 1) [2DEB0E0B] (AR v1) Copy OK
Track 10
Filename Z:\data\hexonut\Seeding\Various Artists-2005-Cry_Wolf (Music From And Inspired By The Film)\10 - Inapprope (From Autumn To Ashes).wav
Pre-gap length 0:00:01.73
Peak level 98.8 % Extraction speed 8.7 X Track quality 100.0 % Test CRC C31DAD0E Copy CRC C31DAD0E Accurately ripped (confidence 1) [9BE57FB9] (AR v1) Copy OK
Track 11
Filename Z:\data\hexonut\Seeding\Various Artists-2005-Cry_Wolf (Music From And Inspired By The Film)\11 - Blood Bleeds (Helio Sequence).wav
Pre-gap length 0:00:01.72
Peak level 98.8 % Extraction speed 9.5 X Track quality 100.0 % Test CRC 71885799 Copy CRC 71885799 Accurately ripped (confidence 1) [3ECD332D] (AR v1) Copy OK
Track 12
Filename Z:\data\hexonut\Seeding\Various Artists-2005-Cry_Wolf (Music From And Inspired By The Film)\12 - I've Seen Those Eyes (Aeon Spoke).wav
Pre-gap length 0:00:01.72
Peak level 100.0 % Extraction speed 9.6 X Track quality 100.0 % Test CRC B2D6129D Copy CRC B2D6129D Accurately ripped (confidence 1) [67AC808E] (AR v1) Copy OK
Track 13
Filename Z:\data\hexonut\Seeding\Various Artists-2005-Cry_Wolf (Music From And Inspired By The Film)\13 - Blood In Blood Out (Jet Black Summer).wav
Pre-gap length 0:00:01.73
Peak level 100.0 % Extraction speed 10.3 X Track quality 100.0 % Test CRC B00DBDA2 Copy CRC B00DBDA2 Accurately ripped (confidence 1) [3BFA722E] (AR v1) Copy OK
Track 14
Filename Z:\data\hexonut\Seeding\Various Artists-2005-Cry_Wolf (Music From And Inspired By The Film)\14 - Knife (Miracle Of 86).wav
Pre-gap length 0:00:01.73
Peak level 100.0 % Extraction speed 9.3 X Track quality 100.0 % Test CRC 9B794E48 Copy CRC 9B794E48 Accurately ripped (confidence 1) [F2E9D0F6] (AR v1) Copy OK
Track 15
Filename Z:\data\hexonut\Seeding\Various Artists-2005-Cry_Wolf (Music From And Inspired By The Film)\15 - Hungry Like The Wolf (Sparklemotion).wav
Pre-gap length 0:00:01.73
Peak level 100.0 % Extraction speed 10.4 X Track quality 100.0 % Test CRC 9A2FB54D Copy CRC 9A2FB54D Accurately ripped (confidence 1) [AA04138D] (AR v1) Copy OK
Track 16
Filename Z:\data\hexonut\Seeding\Various Artists-2005-Cry_Wolf (Music From And Inspired By The Film)\16 - Creating A Killer (Passive Aggressive Remix) (Khursor).wav
Pre-gap length 0:00:01.72
Peak level 98.9 % Extraction speed 10.8 X Track quality 100.0 % Test CRC 1FAA98CA Copy CRC 1FAA98CA Accurately ripped (confidence 1) [F015B796] (AR v1) Copy OK
Track 17
Filename Z:\data\hexonut\Seeding\Various Artists-2005-Cry_Wolf (Music From And Inspired By The Film)\17 - We Gonna Put It Down (Classic featuring Jojo Pellegrino).wav
Pre-gap length 0:00:01.72
Peak level 99.8 % Extraction speed 9.8 X Track quality 100.0 % Test CRC 39E47E73 Copy CRC 39E47E73 Accurately ripped (confidence 1) [A65FE2DA] (AR v1) Copy OK
All tracks accurately ripped
No errors occurred
End of status report
==== Log checksum 9EA6399AE5D123C47DD74088DCD836E82A81ED3B2E5E5F0B0AE5D3E37EC96FBA ====

CUE Sheet

REM GENRE SoundtrackREM DATE 2005REM DISCID DD0E6211REM COMMENT "ExactAudioCopy v1.0b3"CATALOG 0780163383126PERFORMER "Various Artists"TITLE "Cry_Wolf (Music From And Inspired By The Film)"FILE "01 - Like Eating Glass (Bloc Party).wav" WAVE TRACK 01 AUDIO TITLE "Like Eating Glass" PERFORMER "Bloc Party" ISRC USLS50583101 INDEX 01 00:00:00 TRACK 02 AUDIO TITLE "Breathe Underwater" PERFORMER "Emanuel" ISRC USLS50583102 INDEX 00 04:21:30FILE "02 - Breathe Underwater (Emanuel).wav" WAVE INDEX 01 00:00:00 TRACK 03 AUDIO TITLE "Monkey" PERFORMER "Low" ISRC USLS50583103 INDEX 00 03:33:55FILE "03 - Monkey (Low).wav" WAVE INDEX 01 00:00:00 TRACK 04 AUDIO TITLE "Tell Me Everything" PERFORMER "Just Surrender" ISRC USLS50583104 INDEX 00 04:19:22FILE "04 - Tell Me Everything (Just Surrender).wav" WAVE INDEX 01 00:00:00 TRACK 05 AUDIO TITLE "Sea Lion" PERFORMER "Sage Francis, Will Oldham and Alias" ISRC USLS50583105 INDEX 00 03:11:60FILE "05 - Sea Lion (Sage Francis, Will Oldham and Alias).wav" WAVE INDEX 01 00:00:00 TRACK 06 AUDIO TITLE "10:1" PERFORMER "Rogue Wave" ISRC USLS50583106 INDEX 00 03:01:55FILE "06 - 10-1 (Rogue Wave).wav" WAVE INDEX 01 00:00:00 TRACK 07 AUDIO TITLE "Planets" PERFORMER "Adema" ISRC USLS50583107 INDEX 00 03:19:05FILE "07 - Planets (Adema).wav" WAVE INDEX 01 00:00:00 TRACK 08 AUDIO TITLE "Shoot Your Gun" PERFORMER "22-20S" ISRC USLS50583108 INDEX 00 03:58:55FILE "08 - Shoot Your Gun (22-20S).wav" WAVE INDEX 01 00:00:00 TRACK 09 AUDIO TITLE "Cuts Like A Knife" PERFORMER "Jen Crowe" ISRC USLS50583109 INDEX 00 04:44:67FILE "09 - Cuts Like A Knife (Jen Crowe).wav" WAVE INDEX 01 00:00:00 TRACK 10 AUDIO TITLE "Inapprope" PERFORMER "From Autumn To Ashes" ISRC USLS50583110 INDEX 00 02:56:07FILE "10 - Inapprope (From Autumn To Ashes).wav" WAVE INDEX 01 00:00:00 TRACK 11 AUDIO TITLE "Blood Bleeds" PERFORMER "Helio Sequence" ISRC USLS50583111 INDEX 00 02:54:20FILE "11 - Blood Bleeds (Helio Sequence).wav" WAVE INDEX 01 00:00:00 TRACK 12 AUDIO TITLE "I've Seen Those Eyes" PERFORMER "Aeon Spoke" ISRC USLS50583112 INDEX 00 04:23:33FILE "12 - I've Seen Those Eyes (Aeon Spoke).wav" WAVE INDEX 01 00:00:00 TRACK 13 AUDIO TITLE "Blood In Blood Out" PERFORMER "Jet Black Summer" ISRC USLS50583113 INDEX 00 03:30:45FILE "13 - Blood In Blood Out (Jet Black Summer).wav" WAVE INDEX 01 00:00:00 TRACK 14 AUDIO TITLE "Knife" PERFORMER "Miracle Of 86" ISRC USLS50583114 INDEX 00 04:45:47FILE "14 - Knife (Miracle Of 86).wav" WAVE INDEX 01 00:00:00 TRACK 15 AUDIO TITLE "Hungry Like The Wolf" PERFORMER "Sparklemotion" ISRC USLS50583115 INDEX 00 02:09:67FILE "15 - Hungry Like The Wolf (Sparklemotion).wav" WAVE INDEX 01 00:00:00 TRACK 16 AUDIO TITLE "Creating A Killer (Passive Aggressive Remix)" PERFORMER "Khursor" ISRC USLS50583116 INDEX 00 03:36:08FILE "16 - Creating A Killer (Passive Aggressive Remix) (Khursor).wav" WAVE INDEX 01 00:00:00 TRACK 17 AUDIO TITLE "We Gonna Put It Down" PERFORMER "Classic featuring Jojo Pellegrino" ISRC USLS50583117 INDEX 00 03:59:65FILE "17 - We Gonna Put It Down (Classic featuring Jojo Pellegrino).wav" WAVE INDEX 01 00:00:00
[teatrix.ru].t10370.torrent 
Торрент: Зарегистрирован [ 2015-11-01 20:51 ] · 4FC685A64A39F9E1435D7A16B2E772C2E796B6F9

Скачать .torrent

Скачать

165 KB

Статус: проверено
Скачан: 1 раз
Размер: 519 MB
terms.php



Быстрый ответ

Имя:

      
Для отправки сообщений необходимо включить JavaScript
Показать сообщения:    

Текущее время: 08-Дек 10:51

Часовой пояс: UTC + 3


Вы можете начинать темы
Вы можете отвечать на сообщения
Вы не можете редактировать свои сообщения
Вы не можете удалять свои сообщения
Вы не можете голосовать в опросах
Вы не можете прикреплять файлы к сообщениям
Вы можете скачивать файлы