(Score) Первый мститель: Другая война / Captain America : The Winter Soldier (Henry Jackman) - 2014, FLAC (tracks), lossless


Статистика раздачи [Обновить пиров]
Размер:  315 MB   |    Зарегистрирован:  1 год 1 месяц   |    Скачан:  0 раз

Полного источника не было: Никогда

 
   
 
 
 

[Цитировать]

Первый мститель: Другая война / Captain America : The Winter Soldier
Жанр: Score
Композитор: Henry Jackman
Год выпуска диска: 2014
Год выпуска фильма: 2014
Издатель (лейбл): Hollywood Records
Аудиокодек: FLAC (*.flac)
Тип рипа: tracks
Битрейт аудио: lossless
Продолжительность: 01:14:46
Источник: скачано с
сайт-источник/ник/другое: forums.ffshrine.org
Треклист:
01 Lemurian Star - 03:06
02 Project Insight - 01:29
03 The Smithsonian - 01:36
04 An Old Friend - 03:05
05 Fury - 04:07
06 The Winter Soldier - 06:24
07 Fallen - 02:51
08 Alexander Pierce - 02:59
09 Taking a Stand - 02:07
10 Frozen in Time - 03:52
11 Hydra - 06:47
12 Natasha - 01:12
13 The Causeway - 02:42
14 Time to Suit Up - 02:05
15 Into the Fray - 06:05
16 Countdown - 04:26
17 End of the Line - 02:51
18 Captain America - 09:41
19 Harry James & His Orchestra - It's Been a Long, Long Time - 03:23
20 Marvin Gaye - Trouble Man - 03:47

Лог создания рипа

Exact Audio Copy V1.0 beta 3 from 29. August 2011
EAC extraction logfile from 11. June 2014, 20:59
Henry Jackman / Captain America: The Winter Soldier
Used drive : Optiarc DVD RW AD-7260S Adapter: 3 ID: 0
Read mode : SecureUtilize accurate stream : YesDefeat audio cache : YesMake use of C2 pointers : No
Read offset correction : 48Overread into Lead-In and Lead-Out : NoFill up missing offset samples with silence : YesDelete leading and trailing silent blocks : NoNull samples used in CRC calculations : YesUsed interface : Native Win32 interface for Win NT & 2000Gap handling : Appended to previous track
Used output format : User Defined EncoderSelected bitrate : 1024 kBit/sQuality : HighAdd ID3 tag : NoCommand line compressor : C:\Program Files (x86)\Exact Audio Copy\Flac\flac.exeAdditional command line options : -8 -V -T "ARTIST=%artist%" -T "TITLE=%title%" -T "ALBUM=%albumtitle%" -T "DATE=%year%" -T "TRACKNUMBER=%tracknr%" -T "GENRE=%genre%" -T "PERFORMER=%albuminterpret%" -T "COMPOSER=%composer%" %haslyrics%--tag-from-file=LYRICS="%lyricsfile%"%haslyrics% -T "ALBUMARTIST=%albumartist%" -T "DISCNUMBER=%cdnumber%" -T "TOTALDISCS=%totalcds%" -T "TOTALTRACKS=%numtracks%" -T "COMMENT=%comment%" %source% -o %dest%
TOC of the extracted CD
Track | Start | Length | Start sector | End sector --------------------------------------------------------- 1 | 0:00.00 | 3:06.20 | 0 | 13969 2 | 3:06.20 | 1:29.18 | 13970 | 20662 3 | 4:35.38 | 1:36.23 | 20663 | 27885 4 | 6:11.61 | 3:05.71 | 27886 | 41831 5 | 9:17.57 | 4:07.21 | 41832 | 60377 6 | 13:25.03 | 6:24.50 | 60378 | 89227 7 | 19:49.53 | 2:51.47 | 89228 | 102099 8 | 22:41.25 | 2:59.14 | 102100 | 115538 9 | 25:40.39 | 2:07.35 | 115539 | 125098 10 | 27:47.74 | 3:52.35 | 125099 | 142533 11 | 31:40.34 | 6:47.06 | 142534 | 173064 12 | 38:27.40 | 1:12.53 | 173065 | 178517 13 | 39:40.18 | 2:42.03 | 178518 | 190670 14 | 42:22.21 | 2:05.35 | 190671 | 200080 15 | 44:27.56 | 6:05.42 | 200081 | 227497 16 | 50:33.23 | 4:26.34 | 227498 | 247481 17 | 54:59.57 | 2:51.44 | 247482 | 260350 18 | 57:51.26 | 9:44.58 | 260351 | 304208 19 | 67:36.09 | 3:26.40 | 304209 | 319698 20 | 71:02.49 | 3:48.68 | 319699 | 336866
Track 1
Filename G:\Rips\Henry Jackman - Captain America - The Winter Soldier (2014) [FLAC]\01 - Henry Jackman - Lemurian Star.wav
Pre-gap length 0:00:02.00
Peak level 96.0 % Extraction speed 2.1 X Track quality 99.9 % Test CRC 631675F4 Copy CRC 631675F4 Track not present in AccurateRip database Copy OK
Track 2
Filename G:\Rips\Henry Jackman - Captain America - The Winter Soldier (2014) [FLAC]\02 - Henry Jackman - Project Insight.wav
Peak level 98.8 % Extraction speed 2.1 X Track quality 100.0 % Test CRC DF40CE26 Copy CRC DF40CE26 Track not present in AccurateRip database Copy OK
Track 3
Filename G:\Rips\Henry Jackman - Captain America - The Winter Soldier (2014) [FLAC]\03 - Henry Jackman - The Smithsonian.wav
Peak level 81.6 % Extraction speed 2.2 X Track quality 100.0 % Test CRC CFD3E095 Copy CRC CFD3E095 Track not present in AccurateRip database Copy OK
Track 4
Filename G:\Rips\Henry Jackman - Captain America - The Winter Soldier (2014) [FLAC]\04 - Henry Jackman - An Old Friend.wav
Peak level 19.2 % Extraction speed 2.8 X Track quality 100.0 % Test CRC 5FDD330E Copy CRC 5FDD330E Track not present in AccurateRip database Copy OK
Track 5
Filename G:\Rips\Henry Jackman - Captain America - The Winter Soldier (2014) [FLAC]\05 - Henry Jackman - Fury.wav
Peak level 98.8 % Extraction speed 3.1 X Track quality 100.0 % Test CRC 388C32D9 Copy CRC 388C32D9 Track not present in AccurateRip database Copy OK
Track 6
Filename G:\Rips\Henry Jackman - Captain America - The Winter Soldier (2014) [FLAC]\06 - Henry Jackman - The Winter Soldier.wav
Peak level 99.5 % Extraction speed 3.5 X Track quality 100.0 % Test CRC 9B8A5F3A Copy CRC 9B8A5F3A Track not present in AccurateRip database Copy OK
Track 7
Filename G:\Rips\Henry Jackman - Captain America - The Winter Soldier (2014) [FLAC]\07 - Henry Jackman - Fallen.wav
Peak level 77.0 % Extraction speed 2.9 X Track quality 99.9 % Test CRC F9DBBFE9 Copy CRC F9DBBFE9 Track not present in AccurateRip database Copy OK
Track 8
Filename G:\Rips\Henry Jackman - Captain America - The Winter Soldier (2014) [FLAC]\08 - Henry Jackman - Alexander Pierce.wav
Peak level 50.7 % Extraction speed 3.5 X Track quality 100.0 % Test CRC D8280667 Copy CRC D8280667 Track not present in AccurateRip database Copy OK
Track 9
Filename G:\Rips\Henry Jackman - Captain America - The Winter Soldier (2014) [FLAC]\09 - Henry Jackman - Taking a Stand.wav
Peak level 99.4 % Extraction speed 2.7 X Track quality 99.9 % Test CRC FF0A2AEA Copy CRC FF0A2AEA Track not present in AccurateRip database Copy OK
Track 10
Filename G:\Rips\Henry Jackman - Captain America - The Winter Soldier (2014) [FLAC]\10 - Henry Jackman - Frozen in Time.wav
Peak level 40.8 % Extraction speed 3.9 X Track quality 100.0 % Test CRC 850E6A17 Copy CRC 850E6A17 Track not present in AccurateRip database Copy OK
Track 11
Filename G:\Rips\Henry Jackman - Captain America - The Winter Soldier (2014) [FLAC]\11 - Henry Jackman - Hydra.wav
Peak level 98.5 % Extraction speed 4.4 X Track quality 100.0 % Test CRC F91AD968 Copy CRC F91AD968 Track not present in AccurateRip database Copy OK
Track 12
Filename G:\Rips\Henry Jackman - Captain America - The Winter Soldier (2014) [FLAC]\12 - Henry Jackman - Natasha.wav
Peak level 38.8 % Extraction speed 2.4 X Track quality 99.8 % Test CRC 3CE7F92E Copy CRC 3CE7F92E Track not present in AccurateRip database Copy OK
Track 13
Filename G:\Rips\Henry Jackman - Captain America - The Winter Soldier (2014) [FLAC]\13 - Henry Jackman - The Causeway.wav
Peak level 96.0 % Extraction speed 4.0 X Track quality 100.0 % Test CRC C8375B51 Copy CRC C8375B51 Track not present in AccurateRip database Copy OK
Track 14
Filename G:\Rips\Henry Jackman - Captain America - The Winter Soldier (2014) [FLAC]\14 - Henry Jackman - Time to Suite Up.wav
Peak level 97.0 % Extraction speed 3.2 X Track quality 99.9 % Test CRC FA2FA138 Copy CRC FA2FA138 Track not present in AccurateRip database Copy OK
Track 15
Filename G:\Rips\Henry Jackman - Captain America - The Winter Soldier (2014) [FLAC]\15 - Henry Jackman - Into the Fray.wav
Pre-gap length 0:00:04.14
Peak level 99.8 % Extraction speed 4.4 X Track quality 99.9 % Test CRC 3D462595 Copy CRC 3D462595 Track not present in AccurateRip database Copy OK
Track 16
Filename G:\Rips\Henry Jackman - Captain America - The Winter Soldier (2014) [FLAC]\16 - Henry Jackman - Countdown.wav
Peak level 98.8 % Extraction speed 4.8 X Track quality 100.0 % Test CRC F7A3AAB7 Copy CRC F7A3AAB7 Track not present in AccurateRip database Copy OK
Track 17
Filename G:\Rips\Henry Jackman - Captain America - The Winter Soldier (2014) [FLAC]\17 - Henry Jackman - End of the Line.wav
Peak level 89.2 % Extraction speed 4.6 X Track quality 100.0 % Test CRC 6F387F75 Copy CRC 6F387F75 Track not present in AccurateRip database Copy OK
Track 18
Filename G:\Rips\Henry Jackman - Captain America - The Winter Soldier (2014) [FLAC]\18 - Henry Jackman - Captain America.wav
Peak level 99.5 % Extraction speed 5.5 X Track quality 100.0 % Test CRC FBC06302 Copy CRC FBC06302 Track not present in AccurateRip database Copy OK
Track 19
Filename G:\Rips\Henry Jackman - Captain America - The Winter Soldier (2014) [FLAC]\19 - Harry James and His Orchestra - It's Been a Long, Long Time.wav
Pre-gap length 0:00:02.92
Peak level 51.2 % Extraction speed 5.2 X Track quality 100.0 % Test CRC EBF7162D Copy CRC EBF7162D Track not present in AccurateRip database Copy OK
Track 20
Filename G:\Rips\Henry Jackman - Captain America - The Winter Soldier (2014) [FLAC]\20 - Marvin Gaye - Trouble Man.wav
Pre-gap length 0:00:01.89
Peak level 53.0 % Extraction speed 5.4 X Track quality 100.0 % Test CRC 369617FE Copy CRC 369617FE Track not present in AccurateRip database Copy OK
None of the tracks are present in the AccurateRip database
No errors occurred
End of status report
---- CUETools DB Plugin V2.1.3
[CTDB TOCID: OuNC_O1eW7KXa.yftGwvud9xnJM-] found, Submit result: already submitted[64e8dcae] (4/4) Accurately ripped
==== Log checksum E19B4905A5ACB6447307B764403D93C4D51FA28DA9DF006A05DC5A004B560493 ====
[teatrix.ru].t10373.torrent 
Торрент: Зарегистрирован [ 2015-11-01 20:51 ] · 7A2A80E00DA134D85634AAD1A1FE0B9DC2C6422E

Скачать .torrent

Скачать

14 KB

Статус: проверено
Скачан: 0 раз
Размер: 315 MB
terms.php



Быстрый ответ

Имя:

      
Для отправки сообщений необходимо включить JavaScript
Показать сообщения:    

Текущее время: 07-Дек 13:38

Часовой пояс: UTC + 3


Вы можете начинать темы
Вы можете отвечать на сообщения
Вы не можете редактировать свои сообщения
Вы не можете удалять свои сообщения
Вы не можете голосовать в опросах
Вы не можете прикреплять файлы к сообщениям
Вы можете скачивать файлы